SBB – Anthology 1974-2004 (2004) (Limited Edition) [Re-Up]

Download
SBB - Anthology 1974-2004 (2004) (Limited Edition) [Re-Up]

SBB – Anthology 1974-2004 (2004) (Limited Edition)
Rock | 22cd | Eac Rip | Flac + Cue + Log | covers
Metal Mind Productions, MMP 22 CD BOX 001 | rel: 2004 | 1180Mb

A Box Set containing 22 studio & live albums by SBB (almost all in their discography), released till year 2004. The last 2 albums are compilations of rare & unreleased tracks with guest musicians such as Tomasz Stanko. Those 2 CD’s are available ONLY in the box set (while the remaining 20 albums are also sold separately). Almost all albums include various bonus tracks (there are over 60 in the whole set). Limited edition (only 1000 copies).

details:

––––––––––––––––––-

SBB - Anthology 1974-2004 (2004) (Limited Edition) [Re-Up]

CD01: SBB (1974)

Track listing
01. I Need You, Babe (4:39)
02. Odlot (14:38)
03. Wizje (18:49)
04. Zostało we mnie (5:44)
05. Wicher w polu dmie (13:54)
06. Figo-Fago (13:08)
07. Toczy się koło historii (8:35)

eac log:
Exact Audio Copy V0.99 prebeta 3 from 28. July 2007

EAC extraction logfile from 18. May 2008, 13:05

SBB / SBB

Used drive : HL-DT-STDVDRAM GSA-H42N Adapter: 0 ID: 0

Read mode : Secure
Utilize accurate stream : Yes
Defeat audio cache : Yes
Make use of C2 pointers : No

Read offset correction : 667
Overread into Lead-In and Lead-Out : No
Fill up missing offset samples with silence : Yes
Delete leading and trailing silent blocks : No
Null samples used in CRC calculations : Yes
Used interface : Installed external ASPI interface

Used output format : Monkey’s Audio Lossless Encoder
Selected bitrate : High Lossless Compression
Quality : High
Add ID3 tag : No
Command line compressor : C:Program FilesMonkey’s AudioMAC.exe

TOC of the extracted CD

Track | Start | Length | Start sector | End sector
––––––––––––––––––––––––––––-
1 | 0:00.00 | 4:39.36 | 0 | 20960
2 | 4:39.36 | 14:38.55 | 20961 | 86865
3 | 19:18.16 | 18:49.70 | 86866 | 171610
4 | 38:08.11 | 5:44.00 | 171611 | 197410
5 | 43:52.11 | 13:54.00 | 197411 | 259960
6 | 57:46.11 | 13:08.45 | 259961 | 319105
7 | 70:54.56 | 8:35.56 | 319106 | 357786

Range status and errors

Selected range

Filename D:TempSBB – SBB.wav

Peak level 98.9 %
Range quality 100.0 %
Copy CRC 042A5640
Copy OK

No errors occurred

AccurateRip summary

Track 1 not present in database
Track 2 cannot be verified as accurate (confidence 2) [16B06E56], AccurateRip returned [50775E40]
Track 3 not present in database
Track 4 not present in database
Track 5 not present in database
Track 6 not present in database
Track 7 not present in database

1 track(s) could not be verified as accurate
6 track(s) not present in the AccurateRip database

No tracks could be verified as accurate
You may have a different pressing from the one(s) in the database

End of status report

cuetools report:
[CUETools log; Date: 2017. 02. 08. 11:08:32; Version: 2.1.6]
[CTDB TOCID: gPS0cRUQ9AiYQSvoZl7y.odK9r8-] found.
Track | CTDB Status
1 | (11/11) Accurately ripped
2 | (11/11) Accurately ripped
3 | (11/11) Accurately ripped
4 | (11/11) Accurately ripped
5 | (11/11) Accurately ripped
6 | (11/11) Accurately ripped
7 | ( 0/11) No match
[AccurateRip ID: 00159247-0083b610-5712a207] found.
Track [ CRC | V2 ] Status
01 [325e376a|1774bbae] (00+00/18) No match
02 [16b06e56|1f6b83c0] (00+00/18) No match
03 [340ac9f2|21fec56d] (00+00/18) No match
04 [16573a67|b22124dd] (00+00/18) No match
05 [9cb37c50|1e789162] (00+00/18) No match
06 [63bcca32|306063df] (00+00/18) No match
07 [78f23b14|9b482610] (00+00/18) No match
Offsetted by 30:
01 [23dfb203] (08/18) Accurately ripped
02 [50775e40] (08/18) Accurately ripped
03 [d5c16f5a] (08/18) Accurately ripped
04 [cde1c5dc] (08/18) Accurately ripped
05 [c67c6e87] (08/18) Accurately ripped
06 [55090203] (08/18) Accurately ripped
07 [9d851c9e] (00/18) No match (V2 was not tested)

Track Peak [ CRC32 ] [W/O NULL] [ LOG ]
– 98,9 [042A5640] [E9DCE98E] CRC32
01 98,8 [7F7AE016] [93CE2A9E]
02 98,9 [30935737] [84DC0D52]
03 98,9 [AA5960AC] [9CD2A603]
04 98,8 [98C27EB0] [0633894D]
05 98,8 [B9786073] [1C728E0C]
06 98,9 [7377CF39] [D25EE7E4]
07 98,8 [212B091C] [E6C0020D]

––––––––––––––––––-

SBB - Anthology 1974-2004 (2004) (Limited Edition) [Re-Up]

CD02: Nowy horyzont (1975)

Track listing
01. Na pierwszy ogien (4:20)
02. Blysk (3:27)
03. Nowy horyzont (8:24)
04. Ballada o pieciu glodnych (3:59)
05. Wolnosc z nami (19:55)
06. Xeni (6:38)
07. Penia (15:58)
08. Dyskoteka (6:55)
09. Na pierwszy ogien (6:48)

eac log:
Exact Audio Copy V0.99 prebeta 3 from 28. July 2007

EAC extraction logfile from 18. May 2008, 12:35

SBB / Nowy Horyzont

Used drive : HL-DT-STDVDRAM GSA-H42N Adapter: 0 ID: 0

Read mode : Secure
Utilize accurate stream : Yes
Defeat audio cache : Yes
Make use of C2 pointers : No

Read offset correction : 667
Overread into Lead-In and Lead-Out : No
Fill up missing offset samples with silence : Yes
Delete leading and trailing silent blocks : No
Null samples used in CRC calculations : Yes
Used interface : Installed external ASPI interface

Used output format : Monkey’s Audio Lossless Encoder
Selected bitrate : High Lossless Compression
Quality : High
Add ID3 tag : No
Command line compressor : C:Program FilesMonkey’s AudioMAC.exe

TOC of the extracted CD

Track | Start | Length | Start sector | End sector
––––––––––––––––––––––––––––-
1 | 0:00.00 | 4:20.42 | 0 | 19541
2 | 4:20.42 | 3:27.37 | 19542 | 35103
3 | 7:48.04 | 8:24.65 | 35104 | 72968
4 | 16:12.69 | 3:59.34 | 72969 | 90927
5 | 20:12.28 | 19:55.50 | 90928 | 180602
6 | 40:08.03 | 6:38.68 | 180603 | 210520
7 | 46:46.71 | 15:58.72 | 210521 | 282442
8 | 62:45.68 | 6:55.26 | 282443 | 313593
9 | 69:41.19 | 6:48.73 | 313594 | 344266

Range status and errors

Selected range

Filename D:TempSBB – Nowy Horyzont.wav

Peak level 99.8 %
Range quality 99.9 %
Copy CRC 98BF885D
Copy OK

No errors occurred

AccurateRip summary

Track 1 not present in database
Track 2 not present in database
Track 3 not present in database
Track 4 not present in database
Track 5 not present in database
Track 6 not present in database
Track 7 not present in database
Track 8 not present in database
Track 9 not present in database

None of the tracks are present in the AccurateRip database

End of status report

cuetools report:
[CUETools log; Date: 2017. 02. 08. 11:09:40; Version: 2.1.6]
[CTDB TOCID: lvZaDUHCAZOhtXSGbY95jkhVbdQ-] found.
Track | CTDB Status
1 | (15/15) Accurately ripped
2 | (15/15) Accurately ripped
3 | (15/15) Accurately ripped
4 | (15/15) Accurately ripped
5 | (15/15) Accurately ripped
6 | (15/15) Accurately ripped
7 | (15/15) Accurately ripped
8 | (15/15) Accurately ripped
9 | (15/15) Accurately ripped
[AccurateRip ID: 0017a693-00b6b082-7311ee09] found.
Track [ CRC | V2 ] Status
01 [23de7e60|54ace532] (00+00/15) No match
02 [65d768cd|a03f7097] (00+00/15) No match
03 [c8e08c71|15b28636] (00+00/15) No match
04 [90327dd8|c1522cbc] (00+00/15) No match
05 [1fd41afb|5a3f9db1] (00+00/15) No match
06 [12be181b|7a47b9ad] (00+00/15) No match
07 [017d858d|f6e38fd9] (00+00/15) No match
08 [586f4bc4|08b5c322] (00+00/14) No match
09 [375991e6|1bca7a3e] (00+00/15) No match
Offsetted by 30:
01 [f3a75061] (08/15) Accurately ripped
02 [baaf2f3c] (08/15) Accurately ripped
03 [f71eb23b] (08/15) Accurately ripped
04 [1fe7ba71] (08/15) Accurately ripped
05 [0c3260ff] (08/15) Accurately ripped
06 [ab177fd5] (08/15) Accurately ripped
07 [1ccf9f97] (08/15) Accurately ripped
08 [1bb54652] (07/14) Accurately ripped
09 [a9c061c2] (08/15) Accurately ripped

Track Peak [ CRC32 ] [W/O NULL] [ LOG ]
– 99,8 [98BF885D] [690DB4CA] CRC32
01 98,8 [36474604] [75CDAF24]
02 99,1 [5F48BC26] [3ECAD732]
03 99,3 [618DF7C9] [B3329242]
04 99,8 [B5A15133] [364605BD]
05 99,5 [8DCB26F0] [4D40DAB5]
06 98,8 [D8C22F0F] [6C2F5423]
07 98,8 [E89468AA] [24BC5229]
08 98,9 [A4C72F29] [B72CDDBF]
09 98,8 [664D3FB5] [294A5080]

––––––––––––––––––-

SBB - Anthology 1974-2004 (2004) (Limited Edition) [Re-Up]

CD03: Pamiec (1976)

Track listing
01. W kolysce dloni twych (9:09)
02. Z ktorych krwi krew moja (10:13)
03. Pamiec w kamien wrasta (19:49)
04. Poranek nadziei (4:29)
05. Barwy drzewa (2:01)
06. Osiem Rak (4:40)
07. Waldie (9:12)
08. Niedokonczona progresja (6:23)
09. Reko-Reko (4:31)
10. Serenada Gia Sena (4:53)

eac log:
Exact Audio Copy V0.99 prebeta 3 from 28. July 2007

EAC extraction logfile from 18. May 2008, 12:16

SBB / Pamiec

Used drive : HL-DT-STDVDRAM GSA-H42N Adapter: 0 ID: 0

Read mode : Secure
Utilize accurate stream : Yes
Defeat audio cache : Yes
Make use of C2 pointers : No

Read offset correction : 667
Overread into Lead-In and Lead-Out : No
Fill up missing offset samples with silence : Yes
Delete leading and trailing silent blocks : No
Null samples used in CRC calculations : Yes
Used interface : Installed external ASPI interface

Used output format : Monkey’s Audio Lossless Encoder
Selected bitrate : High Lossless Compression
Quality : High
Add ID3 tag : No
Command line compressor : C:Program FilesMonkey’s AudioMAC.exe

TOC of the extracted CD

Track | Start | Length | Start sector | End sector
––––––––––––––––––––––––––––-
1 | 0:00.00 | 9:09.04 | 0 | 41178
2 | 9:09.04 | 10:13.46 | 41179 | 87199
3 | 19:22.50 | 19:49.56 | 87200 | 176430
4 | 39:12.31 | 4:29.74 | 176431 | 196679
5 | 43:42.30 | 2:01.09 | 196680 | 205763
6 | 45:43.39 | 4:40.05 | 205764 | 226768
7 | 50:23.44 | 9:12.64 | 226769 | 268232
8 | 59:36.33 | 6:23.65 | 268233 | 297022
9 | 66:00.23 | 4:31.02 | 297023 | 317349
10 | 70:31.25 | 4:53.73 | 317350 | 339397

Range status and errors

Selected range

Filename D:TempSBB – Pamiec.wav

Peak level 99.0 %
Range quality 99.9 %
Copy CRC 29DF7E83
Copy OK

No errors occurred

AccurateRip summary

Track 1 not present in database
Track 2 not present in database
Track 3 not present in database
Track 4 not present in database
Track 5 not present in database
Track 6 not present in database
Track 7 not present in database
Track 8 not present in database
Track 9 not present in database
Track 10 not present in database

None of the tracks are present in the AccurateRip database

End of status report

cuetools report:
[CUETools log; Date: 2017. 02. 08. 11:10:16; Version: 2.1.6]
[CTDB TOCID: AsG85MH3rep8JpaOAqXG174Oyrg-] found.
Track | CTDB Status
1 | (13/13) Accurately ripped
2 | (13/13) Accurately ripped
3 | (13/13) Accurately ripped
4 | (13/13) Accurately ripped
5 | (13/13) Accurately ripped
6 | (13/13) Accurately ripped
7 | (13/13) Accurately ripped
8 | (13/13) Accurately ripped
9 | (10/13) Accurately ripped
10 | (13/13) Accurately ripped
[AccurateRip ID: 0020e5fb-00fd0187-8811ad0a] found.
Track [ CRC | V2 ] Status
01 [602be0c7|d29e021e] (00+00/15) No match
02 [9c1f3018|956911be] (00+00/15) No match
03 [27b98b32|e159ddd7] (00+00/15) No match
04 [caa42b59|15f30241] (00+00/15) No match
05 [e9bb1d66|2cd27330] (00+00/15) No match
06 [40d10b79|6833bfe5] (00+00/15) No match
07 [c5362b5f|56bfb1f4] (00+00/15) No match
08 [b0d3aa3d|237faf75] (00+00/15) No match
09 [78477c2e|e6752065] (00+00/15) No match
10 [ef8ace7d|5d8b8c75] (00+00/15) No match
Offsetted by 30:
01 [d2a33d6a] (09/15) Accurately ripped
02 [ad21b5e4] (09/15) Accurately ripped
03 [ff737644] (09/15) Accurately ripped
04 [53faecd7] (09/15) Accurately ripped
05 [efdaa5cc] (09/15) Accurately ripped
06 [21457d09] (09/15) Accurately ripped
07 [f7c5cc2d] (09/15) Accurately ripped
08 [622af6db] (09/15) Accurately ripped
09 [f0123640] (09/15) Accurately ripped
10 [7f2b43d1] (09/15) Accurately ripped
Offsetted by -646:
01 [2e9f6036] (00/15) No match (V2 was not tested)
02 [0bb5aabc] (00/15) No match (V2 was not tested)
03 [46afb448] (00/15) No match (V2 was not tested)
04 [4e5806f3] (00/15) No match (V2 was not tested)
05 [108b9338] (00/15) No match (V2 was not tested)
06 [c5f48f29] (00/15) No match (V2 was not tested)
07 [a698d7e9] (00/15) No match (V2 was not tested)
08 [5faf0537] (00/15) No match (V2 was not tested)
09 [64c2a244] (00/15) No match (V2 was not tested)
10 [112ce7c9] (00/15) No match (V2 was not tested)

Track Peak [ CRC32 ] [W/O NULL] [ LOG ]
– 99,0 [29DF7E83] [8A140982] CRC32
01 98,9 [CB983E1E] [919CDFE1]
02 98,8 [D3502193] [984AFCF8]
03 98,9 [3807A320] [AF8612F0]
04 94,8 [9630100E] [B94A5BE6]
05 98,9 [06BCCA06] [23C5EBEB]
06 97,9 [A9475E4C] [54F792BA]
07 98,8 [2BC2272E] [20A6A9F0]
08 98,9 [ECA6F5EC] [B7FE739F]
09 98,9 [9E8A0361] [1490BA79]
10 99,0 [675ABF71] [9DD8B758]

––––––––––––––––––-

SBB - Anthology 1974-2004 (2004) (Limited Edition) [Re-Up]

CD04: Ze slowem biegne do ciebie (1977)

Track listing
01. Ze slowem biegne do ciebie (19:14)
02. Przed premiera (19:29)
03. Odejscie (29:06)

eac log:
Exact Audio Copy V0.99 prebeta 3 from 28. July 2007

EAC extraction logfile from 18. May 2008, 12:00

SBB / Ze slowem biegne do ciebie

Used drive : HL-DT-STDVDRAM GSA-H42N Adapter: 0 ID: 0

Read mode : Secure
Utilize accurate stream : Yes
Defeat audio cache : Yes
Make use of C2 pointers : No

Read offset correction : 667
Overread into Lead-In and Lead-Out : No
Fill up missing offset samples with silence : Yes
Delete leading and trailing silent blocks : No
Null samples used in CRC calculations : Yes
Used interface : Installed external ASPI interface

Used output format : Monkey’s Audio Lossless Encoder
Selected bitrate : High Lossless Compression
Quality : High
Add ID3 tag : No
Command line compressor : C:Program FilesMonkey’s AudioMAC.exe

TOC of the extracted CD

Track | Start | Length | Start sector | End sector
––––––––––––––––––––––––––––-
1 | 0:00.00 | 19:14.03 | 0 | 86552
2 | 19:14.03 | 19:29.15 | 86553 | 174242
3 | 38:43.18 | 29:06.57 | 174243 | 305249

Range status and errors

Selected range

Filename D:TempSBB – Ze slowem biegne do ciebie.wav

Peak level 98.9 %
Range quality 99.9 %
Copy CRC A246E4BD
Copy OK

No errors occurred

AccurateRip summary

Track 1 not present in database
Track 2 not present in database
Track 3 not present in database

None of the tracks are present in the AccurateRip database

End of status report

cuetools report:
[CUETools log; Date: 2017. 02. 08. 11:10:34; Version: 2.1.6]
[CTDB TOCID: x.rhC4xek.p8pHvfu3i1G5k6t_Y-] found.
Track | CTDB Status
1 | (18/18) Accurately ripped
2 | (17/18) Accurately ripped
3 | (18/18) Accurately ripped
[AccurateRip ID: 0008a31e-001d3fa4-1b0fe603] found.
Track [ CRC | V2 ] Status
01 [58b5bc50|4e7df632] (00+00/22) No match
02 [7396fe7f|078513f5] (00+00/22) No match
03 [934cf84d|477fea0a] (00+00/24) No match
Offsetted by 30:
01 [b88a88c1] (10/22) Accurately ripped
02 [9ba5298b] (11/22) Accurately ripped
03 [23aff1ca] (11/24) Accurately ripped
Offsetted by 24:
01 [2c16c5dc] (00/22) No match (V2 was not tested)
02 [606f20ef] (00/22) No match (V2 was not tested)
03 [8cfb038d] (00/24) No match (V2 was not tested)

Track Peak [ CRC32 ] [W/O NULL] [ LOG ]
– 98,9 [A246E4BD] [763D7E27] CRC32
01 98,9 [F6FBFE8F] [C7E9674B]
02 98,9 [8773F48D] [17E2E7EA]
03 98,9 [A7AC24A9] [B4C9C9BF]

––––––––––––––––––-

SBB - Anthology 1974-2004 (2004) (Limited Edition) [Re-Up]

CD05: Wolanie o brzek szkla (1977)

Track listing
01. Wolanie o brzek szkla (19:10)
02. Odejscie (19:46)
03. Bitwy na obrazach (3:48)
04. Uscisk w dolku (3:38)
05. Muzykowanie latem (16:49)
06. Fikolek (14:53)

eac log:
Exact Audio Copy V0.99 prebeta 3 from 28. July 2007

EAC extraction logfile from 18. May 2008, 11:43

SBB / Wolanie o brzek szkla [Anthology 1974-2004 Limited Edition box CD 5]

Used drive : HL-DT-STDVDRAM GSA-H42N Adapter: 0 ID: 0

Read mode : Secure
Utilize accurate stream : Yes
Defeat audio cache : Yes
Make use of C2 pointers : No

Read offset correction : 667
Overread into Lead-In and Lead-Out : No
Fill up missing offset samples with silence : Yes
Delete leading and trailing silent blocks : No
Null samples used in CRC calculations : Yes
Used interface : Installed external ASPI interface

Used output format : Monkey’s Audio Lossless Encoder
Selected bitrate : High Lossless Compression
Quality : High
Add ID3 tag : No
Command line compressor : C:Program FilesMonkey’s AudioMAC.exe

TOC of the extracted CD

Track | Start | Length | Start sector | End sector
––––––––––––––––––––––––––––-
1 | 0:00.00 | 19:10.26 | 0 | 86275
2 | 19:10.26 | 19:46.52 | 86276 | 175277
3 | 38:57.03 | 3:48.33 | 175278 | 192410
4 | 42:45.36 | 3:38.37 | 192411 | 208797
5 | 46:23.73 | 16:49.72 | 208798 | 284544
6 | 63:13.70 | 14:53.27 | 284545 | 351546

Range status and errors

Selected range

Filename D:TempSBB – Wolanie o brzek szkla [Anthology 1974-2004 Limited Edition box CD 5].wav

Peak level 100.0 %
Range quality 99.9 %
Copy CRC 6D08E4FB
Copy OK

No errors occurred

AccurateRip summary

Track 1 not present in database
Track 2 not present in database
Track 3 not present in database
Track 4 not present in database
Track 5 not present in database
Track 6 not present in database

None of the tracks are present in the AccurateRip database

End of status report

cuetools report:
[CUETools log; Date: 2017. 02. 08. 11:10:54; Version: 2.1.6]
[CTDB TOCID: 0TcVv_.7Ldu7OMnj6bAObHwez_U-] disk not present in database.
[AccurateRip ID: 0013d1a7-0065ee38-5e124f06] disk not present in database.

Track Peak [ CRC32 ] [W/O NULL] [ LOG ]
– 100,0 [6D08E4FB] [04211639] CRC32
01 98,9 [C12E3ADD] [21E1F49D]
02 98,8 [6508D168] [55AD3A0C]
03 98,9 [62835A68] [BEB311D3]
04 98,9 [89A19AD9] [03BCB6B1]
05 100,0 [25CB515A] [C0C8E281]
06 99,2 [43A90CC5] [6FCAE621]

––––––––––––––––––-

SBB - Anthology 1974-2004 (2004) (Limited Edition) [Re-Up]

CD06: Jerzyk (1977)

Track listing
01. Jerzyk (3:22)
02. Kijek (3:33)
03. Oddech (5:55)
04. Taniec Bulibara (4:28)
05. Garbusek (2:40)
06. Palamakia (6:57)
07. Wolanie O Podklad (4:08)
08. Janek (3:52)
09. Wladkowa Kolysanka (4:53)
10. Debiut Kety (4:00)
11. 11 Traktow (4:06)
12. Renia (3:11)
13. Mutraczka (4:55)
14. Jan Bylo Tak Bylo Ale Bylo (6:30)
15. Cierpiarz (3:49)
16. Ouzo (4:38)
17. Uscisk W Dolku (6:51)

eac log:
Exact Audio Copy V0.99 prebeta 3 from 28. July 2007

EAC extraction logfile from 18. May 2008, 10:37

Sbb / Jerzyk

Used drive : HL-DT-STDVDRAM GSA-H42N Adapter: 0 ID: 0

Read mode : Secure
Utilize accurate stream : Yes
Defeat audio cache : Yes
Make use of C2 pointers : No

Read offset correction : 667
Overread into Lead-In and Lead-Out : No
Fill up missing offset samples with silence : Yes
Delete leading and trailing silent blocks : No
Null samples used in CRC calculations : Yes
Used interface : Installed external ASPI interface

Used output format : Monkey’s Audio Lossless Encoder
Selected bitrate : High Lossless Compression
Quality : High
Add ID3 tag : No
Command line compressor : C:Program FilesMonkey’s AudioMAC.exe

TOC of the extracted CD

Track | Start | Length | Start sector | End sector
––––––––––––––––––––––––––––-
1 | 0:00.00 | 3:22.65 | 0 | 15214
2 | 3:22.65 | 3:33.18 | 15215 | 31207
3 | 6:56.08 | 5:55.58 | 31208 | 57890
4 | 12:51.66 | 4:28.71 | 57891 | 78061
5 | 17:20.62 | 2:40.50 | 78062 | 90111
6 | 20:01.37 | 6:57.09 | 90112 | 121395
7 | 26:58.46 | 4:08.02 | 121396 | 139997
8 | 31:06.48 | 3:52.05 | 139998 | 157402
9 | 34:58.53 | 4:53.31 | 157403 | 179408
10 | 39:52.09 | 4:00.71 | 179409 | 197479
11 | 43:53.05 | 4:06.04 | 197480 | 215933
12 | 47:59.09 | 3:11.22 | 215934 | 230280
13 | 51:10.31 | 4:55.13 | 230281 | 252418
14 | 56:05.44 | 6:30.67 | 252419 | 281735
15 | 62:36.36 | 3:49.37 | 281736 | 298947
16 | 66:25.73 | 4:38.08 | 298948 | 319805
17 | 71:04.06 | 6:51.12 | 319806 | 350642

Range status and errors

Selected range

Filename D:TempSbb – Jerzyk.wav

Peak level 99.4 %
Range quality 100.0 %
Copy CRC 8C1ACB5E
Copy OK

No errors occurred

AccurateRip summary

Track 1 not present in database
Track 2 not present in database
Track 3 not present in database
Track 4 not present in database
Track 5 not present in database
Track 6 not present in database
Track 7 not present in database
Track 8 not present in database
Track 9 not present in database
Track 10 not present in database
Track 11 not present in database
Track 12 not present in database
Track 13 not present in database
Track 14 not present in database
Track 15 not present in database
Track 16 not present in database
Track 17 not present in database

None of the tracks are present in the AccurateRip database

End of status report

cuetools report:
[CUETools log; Date: 2017. 02. 08. 11:11:23; Version: 2.1.6]
[CTDB TOCID: JXNPkzUMGuew60jJBm_FTkC0580-] disk not present in database.
[AccurateRip ID: 002e0cd5-024bb36d-ee124311] disk not present in database.

Track Peak [ CRC32 ] [W/O NULL] [ LOG ]
– 99,4 [8C1ACB5E] [F68C1E68] CRC32
01 99,1 [35AC7DF5] [3BDD16A9]
02 98,9 [554EAE4E] [0AE51408]
03 98,8 [C89BE84A] [857848A1]
04 98,9 [9A9911C7] [07760556]
05 98,9 [53BD3D52] [28293320]
06 98,9 [C990C344] [ADE47C20]
07 98,8 [6053D5E7] [4B4EE9BB]
08 99,1 [4C187CF5] [91F848F5]
09 99,2 [04E02D0A] [4D492C5E]
10 98,8 [19D063CA] [ABEDA76E]
11 98,8 [65F0DF7B] [6E7CD248]
12 98,8 [FF33AA81] [F0C0CC0C]
13 99,4 [E1B7916C] [27A367A6]
14 99,3 [20DA908C] [C0B54FB6]
15 99,3 [802A882E] [E2A8F50A]
16 98,9 [E1882A1C] [A684DD0A]
17 99,2 [B3111C29] [91E5DC55]

––––––––––––––––––-

SBB - Anthology 1974-2004 (2004) (Limited Edition) [Re-Up]

CD07: Follow My Dream (1978)

Track listing
01. Freedom With Us (8:11)
02. 3Rd Reanimation (6:13)
03. Going Away (6:36)
04. (Zywiec) Mountain Melody (3:08)
05. Wake Up (5:02)
06. In The Cradle Of Your Hands (2:45)
07. Growin’ (6:18)
08. Follow My Dream (8:10)
09. Krolewskie Marzenie (6:41)
10. Wiosenne Chimery (15:54)
11. Dla Przyjaciol (7:09)

eac log:
Exact Audio Copy V0.99 prebeta 3 from 28. July 2007

EAC extraction logfile from 18. May 2008, 10:22

Sbb / Follow My Dream

Used drive : HL-DT-STDVDRAM GSA-H42N Adapter: 0 ID: 0

Read mode : Secure
Utilize accurate stream : Yes
Defeat audio cache : Yes
Make use of C2 pointers : No

Read offset correction : 667
Overread into Lead-In and Lead-Out : No
Fill up missing offset samples with silence : Yes
Delete leading and trailing silent blocks : No
Null samples used in CRC calculations : Yes
Used interface : Installed external ASPI interface

Used output format : Monkey’s Audio Lossless Encoder
Selected bitrate : High Lossless Compression
Quality : High
Add ID3 tag : No
Command line compressor : C:Program FilesMonkey’s AudioMAC.exe

TOC of the extracted CD

Track | Start | Length | Start sector | End sector
––––––––––––––––––––––––––––-
1 | 0:00.00 | 8:11.59 | 0 | 36883
2 | 8:11.59 | 6:13.01 | 36884 | 64859
3 | 14:24.60 | 6:36.12 | 64860 | 94571
4 | 21:00.72 | 3:08.19 | 94572 | 108690
5 | 24:09.16 | 5:02.11 | 108691 | 131351
6 | 29:11.27 | 2:45.45 | 131352 | 143771
7 | 31:56.72 | 6:18.15 | 143772 | 172136
8 | 38:15.12 | 8:10.31 | 172137 | 208917
9 | 46:25.43 | 6:41.28 | 208918 | 239020
10 | 53:06.71 | 15:54.27 | 239021 | 310597
11 | 69:01.23 | 7:09.21 | 310598 | 342793

Range status and errors

Selected range

Filename D:TempSbb – Follow My Dream.wav

Peak level 99.9 %
Range quality 99.9 %
Copy CRC 94885C8C
Copy OK

No errors occurred

AccurateRip summary

Track 1 not present in database
Track 2 not present in database
Track 3 not present in database
Track 4 not present in database
Track 5 not present in database
Track 6 not present in database
Track 7 not present in database
Track 8 not present in database
Track 9 not present in database
Track 10 not present in database
Track 11 not present in database

None of the tracks are present in the AccurateRip database

End of status report

cuetools report:
[CUETools log; Date: 2017. 02. 08. 11:11:49; Version: 2.1.6]
[CTDB TOCID: 2.CZKUMhNFAiwr3sTkTXPErZqxE-] found.
Track | CTDB Status
1 | (17/17) Accurately ripped
2 | (17/17) Accurately ripped
3 | (17/17) Accurately ripped
4 | (17/17) Accurately ripped
5 | (17/17) Accurately ripped
6 | (17/17) Accurately ripped
7 | (17/17) Accurately ripped
8 | (17/17) Accurately ripped
9 | (17/17) Accurately ripped
10 | (17/17) Accurately ripped
11 | (17/17) Accurately ripped
[AccurateRip ID: 001c489f-00f69dea-ab11da0b] found.
Track [ CRC | V2 ] Status
01 [b3c77128|faeca334] (00+00/11) No match
02 [a443664b|b3c3410c] (00+00/11) No match
03 [9a43a22e|3372e452] (00+00/11) No match
04 [f6dbf780|5dd096b9] (00+00/11) No match
05 [a6f62278|4f482ef2] (00+00/11) No match
06 [6c171cf4|f08029de] (00+00/11) No match
07 [2c890872|ad6446c0] (00+00/11) No match
08 [02fe2fd5|5ec36b41] (00+00/11) No match
09 [121ec586|1bda78e1] (00+00/11) No match
10 [6dbd95bf|fec791b5] (00+00/11) No match
11 [59b062f9|31c901b5] (00+00/11) No match
Offsetted by 30:
01 [b252be91] (04/11) Accurately ripped
02 [2aceb6a7] (04/11) Accurately ripped
03 [93ca673c] (04/11) Accurately ripped
04 [2c7818a8] (04/11) Accurately ripped
05 [8ee4aae7] (04/11) Accurately ripped
06 [1fb99314] (04/11) Accurately ripped
07 [76658893] (04/11) Accurately ripped
08 [7d877aab] (04/11) Accurately ripped
09 [878ea494] (04/11) Accurately ripped
10 [feec8311] (04/11) Accurately ripped
11 [9e6fa80b] (04/11) Accurately ripped
Offsetted by 676:
01 [28cf7bdb] (00/11) No match (V2 was not tested)
02 [d022f490] (00/11) No match (V2 was not tested)
03 [ecbac79f] (00/11) No match (V2 was not tested)
04 [a561ab36] (00/11) No match (V2 was not tested)
05 [99055be5] (00/11) No match (V2 was not tested)
06 [727a749a] (00/11) No match (V2 was not tested)
07 [d5487cfd] (00/11) No match (V2 was not tested)
08 [fbc70077] (00/11) No match (V2 was not tested)
09 [685e014a] (00/11) No match (V2 was not tested)
10 [3534573b] (00/11) No match (V2 was not tested)
11 [6c7c8c55] (00/11) No match (V2 was not tested)

Track Peak [ CRC32 ] [W/O NULL] [ LOG ]
– 99,9 [94885C8C] [910ABE3C] CRC32
01 98,8 [C3661821] [A95047FF]
02 98,9 [EAC1C335] [54ECC7AB]
03 98,8 [46DB9918] [B731E007]
04 98,8 [9B67CDE7] [9BA910B8]
05 98,8 [7FA5340B] [6E13FA7D]
06 98,8 [257CF416] [CD1E7F15]
07 98,8 [D4AE5703] [35F89CC6]
08 98,9 [4DBC9F9C] [4452E7E8]
09 99,2 [627760A8] [F034F6A5]
10 98,9 [2D3885DD] [C29FB20A]
11 99,9 [B16FBF50] [92C229E6]

––––––––––––––––––-

SBB - Anthology 1974-2004 (2004) (Limited Edition) [Re-Up]

CD08: Amiga (1978)

Track listing
01. Tanzbar (3:09)
02. Magische Blaue Stunde (3:07)
03. Hektik (3:08)
04. 2-10 (2:08)
05. Ouzo (4:58)
06. Unterbrochene Erotik (2:53)
07. Kala (3:33)
08. Tumba (3:49)
09. Mutraczka (4:26)
10. Nr 7 (5:04)
11. I Wonder Why (4:39)
12. Nervoeser Nikolaus (5:14)
13. Tom Cat (3:06)
14. Gonitwa (2:33)
15. Beci (3:33)
16. Professor Moog (3:18)
17. Balon Guma (5:38)
18. Maskarada (4:11)
19. Podroz (6:40)
20. Trema (3:19)

eac log:
Exact Audio Copy V0.99 prebeta 3 from 28. July 2007

EAC extraction logfile from 18. May 2008, 1:54

SBB / Anthology 1974-2004 Limited Edition box CD 8 Amiga (1977)

Used drive : HL-DT-STDVDRAM GSA-H42N Adapter: 0 ID: 0

Read mode : Secure
Utilize accurate stream : Yes
Defeat audio cache : Yes
Make use of C2 pointers : No

Read offset correction : 667
Overread into Lead-In and Lead-Out : No
Fill up missing offset samples with silence : Yes
Delete leading and trailing silent blocks : No
Null samples used in CRC calculations : Yes
Used interface : Installed external ASPI interface

Used output format : Monkey’s Audio Lossless Encoder
Selected bitrate : High Lossless Compression
Quality : High
Add ID3 tag : No
Command line compressor : C:Program FilesMonkey’s AudioMAC.exe

TOC of the extracted CD

Track | Start | Length | Start sector | End sector
––––––––––––––––––––––––––––-
1 | 0:00.00 | 3:09.22 | 0 | 14196
2 | 3:09.22 | 3:07.19 | 14197 | 28240
3 | 6:16.41 | 3:08.42 | 28241 | 42382
4 | 9:25.08 | 2:08.39 | 42383 | 52021
5 | 11:33.47 | 4:58.17 | 52022 | 74388
6 | 16:31.64 | 2:53.71 | 74389 | 87434
7 | 19:25.60 | 3:33.28 | 87435 | 103437
8 | 22:59.13 | 3:49.20 | 103438 | 120632
9 | 26:48.33 | 4:26.24 | 120633 | 140606
10 | 31:14.57 | 5:04.48 | 140607 | 163454
11 | 36:19.30 | 4:39.61 | 163455 | 184440
12 | 40:59.16 | 5:14.71 | 184441 | 208061
13 | 46:14.12 | 3:06.59 | 208062 | 222070
14 | 49:20.71 | 2:33.24 | 222071 | 233569
15 | 51:54.20 | 3:33.09 | 233570 | 249553
16 | 55:27.29 | 3:18.35 | 249554 | 264438
17 | 58:45.64 | 5:38.07 | 264439 | 289795
18 | 64:23.71 | 4:11.24 | 289796 | 308644
19 | 68:35.20 | 6:40.38 | 308645 | 338682
20 | 75:15.58 | 3:19.36 | 338683 | 353643

Range status and errors

Selected range

Filename D:TempSBB – Anthology 1974-2004 Limited Edition box CD 8 Amiga (1977).wav

Peak level 100.0 %
Range quality 99.9 %
Copy CRC DE6F663B
Copy OK

No errors occurred

AccurateRip summary

Track 1 not present in database
Track 2 not present in database
Track 3 not present in database
Track 4 not present in database
Track 5 not present in database
Track 6 not present in database
Track 7 not present in database
Track 8 not present in database
Track 9 not present in database
Track 10 not present in database
Track 11 not present in database
Track 12 not present in database
Track 13 not present in database
Track 14 not present in database
Track 15 not present in database
Track 16 not present in database
Track 17 not present in database
Track 18 not present in database
Track 19 not present in database
Track 20 not present in database

None of the tracks are present in the AccurateRip database

End of status report

cuetools report:
[CUETools log; Date: 2017. 02. 08. 11:12:08; Version: 2.1.6]
[CTDB TOCID: qbVUJ8KO5419yq3pWyPHs5bPMSs-] found.
Track | CTDB Status
1 | (1/1) Accurately ripped
2 | (1/1) Accurately ripped
3 | (1/1) Accurately ripped
4 | (1/1) Accurately ripped
5 | (1/1) Accurately ripped
6 | (1/1) Accurately ripped
7 | (1/1) Accurately ripped
8 | (1/1) Accurately ripped
9 | (1/1) Accurately ripped
10 | (1/1) Accurately ripped
11 | (1/1) Accurately ripped
12 | (1/1) Accurately ripped
13 | (1/1) Accurately ripped
14 | (1/1) Accurately ripped
15 | (1/1) Accurately ripped
16 | (1/1) Accurately ripped
17 | (1/1) Accurately ripped
18 | (1/1) Accurately ripped
19 | (1/1) Accurately ripped
20 | (1/1) Accurately ripped
[AccurateRip ID: 00351899-0319bbe7-38126b14] disk not present in database.

Track Peak [ CRC32 ] [W/O NULL] [ LOG ]
– 100,0 [DE6F663B] [0F9BF209] CRC32
01 99,0 [61B5F06A] [39A309FF]
02 99,5 [2220CB75] [36BAF35E]
03 99,7 [14EED33A] [D0B3550F]
04 99,4 [5F4D2886] [A8963A53]
05 99,0 [7A3EAEB1] [267FB659]
06 99,6 [E65C7D4C] [F40A05E2]
07 98,9 [C2F93301] [3807BE29]
08 99,2 [32091C04] [902AC3BA]
09 99,0 [EB25B5F4] [400B25DB]
10 99,1 [4CDCE015] [0B14E939]
11 99,0 [0777325D] [E6FD0395]
12 99,2 [94809D49] [8F0EF8BB]
13 98,9 [098408F0] [D83EE335]
14 98,9 [FBC0AA68] [BECF008B]
15 99,1 [5480276B] [15B4E7A4]
16 99,2 [8EA7583D] [8A3A85F2]
17 98,8 [586BCEBD] [6AD8CBB9]
18 100,0 [E68A1DA3] [98C8456E]
19 98,8 [BD3BC702] [84612524]
20 98,9 [F6232B62] [DB6D0512]

––––––––––––––––––-

SBB - Anthology 1974-2004 (2004) (Limited Edition) [Re-Up]

CD09: Welcome (1979)

Track listing
01. Tanzbar (3:09)
02. Magische Blaue Stunde (3:07)
03. Hektik (3:08)
04. 2-10 (2:08)
05. Ouzo (4:58)
06. Unterbrochene Erotik (2:53)
07. Kala (3:33)
08. Tumba (3:49)
09. Mutraczka (4:26)
10. Nr 7 (5:04)
11. I Wonder Why (4:39)
12. Nervoeser Nikolaus (5:14)
13. Tom Cat (3:06)
14. Gonitwa (2:33)
15. Beci (3:33)
16. Professor Moog (3:18)
17. Balon Guma (5:38)
18. Maskarada (4:11)
19. Podroz (6:40)
20. Trema (3:19)

eac log:
Exact Audio Copy V0.99 prebeta 3 from 28. July 2007

EAC extraction logfile from 18. May 2008, 1:38

SBB / Welcome

Used drive : HL-DT-STDVDRAM GSA-H42N Adapter: 0 ID: 0

Read mode : Secure
Utilize accurate stream : Yes
Defeat audio cache : Yes
Make use of C2 pointers : No

Read offset correction : 667
Overread into Lead-In and Lead-Out : No
Fill up missing offset samples with silence : Yes
Delete leading and trailing silent blocks : No
Null samples used in CRC calculations : Yes
Used interface : Installed external ASPI interface

Used output format : Monkey’s Audio Lossless Encoder
Selected bitrate : High Lossless Compression
Quality : High
Add ID3 tag : No
Command line compressor : C:Program FilesMonkey’s AudioMAC.exe

TOC of the extracted CD

Track | Start | Length | Start sector | End sector
––––––––––––––––––––––––––––-
1 | 0:00.00 | 6:31.01 | 0 | 29325
2 | 6:31.01 | 5:25.40 | 29326 | 53740
3 | 11:56.41 | 6:02.57 | 53741 | 80947
4 | 17:59.23 | 3:01.57 | 80948 | 94579
5 | 21:01.05 | 3:38.08 | 94580 | 110937
6 | 24:39.13 | 7:00.13 | 110938 | 142450
7 | 31:39.26 | 9:27.63 | 142451 | 185038
8 | 41:07.14 | 5:05.01 | 185039 | 207914
9 | 46:12.15 | 6:28.51 | 207915 | 237065
10 | 52:40.66 | 4:02.02 | 237066 | 255217
11 | 56:42.68 | 4:41.42 | 255218 | 276334
12 | 61:24.35 | 6:33.53 | 276335 | 305862
13 | 67:58.13 | 5:26.22 | 305863 | 330334
14 | 73:24.35 | 5:01.03 | 330335 | 352912

Range status and errors

Selected range

Filename D:TempSBB – Welcome.wav

Peak level 99.2 %
Range quality 99.9 %
Copy CRC C0BB0E33
Copy OK

No errors occurred

AccurateRip summary

Track 1 not present in database
Track 2 not present in database
Track 3 not present in database
Track 4 not present in database
Track 5 not present in database
Track 6 not present in database
Track 7 not present in database
Track 8 not present in database
Track 9 not present in database
Track 10 not present in database
Track 11 not present in database
Track 12 not present in database
Track 13 not present in database
Track 14 not present in database

None of the tracks are present in the AccurateRip database

End of status report

cuetools report:
[CUETools log; Date: 2017. 02. 08. 11:15:25; Version: 2.1.6]
[CTDB TOCID: G6eEmT1FmT58NnL.OFNhXWblSbg-] found.
Track | CTDB Status
1 | (14/14) Accurately ripped
2 | (14/14) Accurately ripped
3 | (14/14) Accurately ripped
4 | (14/14) Accurately ripped
5 | (14/14) Accurately ripped
6 | (14/14) Accurately ripped
7 | (14/14) Accurately ripped
8 | (14/14) Accurately ripped
9 | (14/14) Accurately ripped
10 | (14/14) Accurately ripped
11 | (14/14) Accurately ripped
12 | (14/14) Accurately ripped
13 | (14/14) Accurately ripped
14 | (13/14) Accurately ripped
[AccurateRip ID: 0028a10c-01b1a5fe-c112610e] found.
Track [ CRC | V2 ] Status
01 [c7cdb497|8e06ce80] (00+00/15) No match
02 [2ee49268|1d83ce15] (00+00/15) No match
03 [9c0b5606|c30a7c14] (00+00/15) No match
04 [729a46d9|60086dbe] (00+00/16) No match
05 [a507ce65|22c9a270] (00+00/15) No match
06 [3e2609eb|4a0a4b2f] (00+00/15) No match
07 [e45122f5|83c2e8ab] (00+00/15) No match
08 [4801d8bb|51065f21] (00+00/14) No match
09 [aca6fd7f|7e8faceb] (00+00/15) No match
10 [8c28cf18|c45b9aaa] (00+00/14) No match
11 [c155ec13|8d0b2c6d] (00+00/15) No match
12 [26ba47aa|c83f8208] (00+00/15) No match
13 [6ecca2ed|406b5372] (00+00/15) No match
14 [f49547d8|bd68548b] (00+00/15) No match
Offsetted by 30:
01 [0eabbe93] (06/15) Accurately ripped
02 [bfcab04e] (06/15) Accurately ripped
03 [e01dd09e] (06/15) Accurately ripped
04 [279d3411] (07/16) Accurately ripped
05 [d5133d01] (06/15) Accurately ripped
06 [aa44f963] (06/15) Accurately ripped
07 [909205eb] (06/15) Accurately ripped
08 [79ce4b03] (05/14) Accurately ripped
09 [b50da80d] (06/15) Accurately ripped
10 [6c48df74] (06/14) Accurately ripped
11 [a658e79f] (06/15) Accurately ripped
12 [af27d5a0] (06/15) Accurately ripped
13 [d3ac89bd] (06/15) Accurately ripped
14 [f321a600] (06/15) Accurately ripped

Track Peak [ CRC32 ] [W/O NULL] [ LOG ]
– 99,2 [C0BB0E33] [751ACB77] CRC32
01 99,0 [246DF351] [43AA6AE0]
02 99,1 [3F65457D] [F7344FC1]
03 98,9 [11183D4F] [0650193D]
04 98,8 [573B12DA] [9C78BC71]
05 98,9 [E45B8E83] [3C6FD6A2]
06 98,8 [08D7692A] [9B0327B1]
07 98,9 [F4BB83BB] [75FB4020]
08 99,2 [C1B6A500] [21670CE2]
09 98,8 [1246C7B8] [E5C29408]
10 98,9 [0C844991] [5F8F0434]
11 98,8 [C6C1E3AB] [F793656A]
12 98,8 [0F056D2A] [2BB77E3D]
13 98,9 [CF6D6E1F] [E2FE50BC]
14 98,8 [1E12923B] [C00562AE]

––––––––––––––––––-

SBB - Anthology 1974-2004 (2004) (Limited Edition) [Re-Up]

CD10: Memento z balalnym tryptykiem (1979)

Track listing
01. Moja ziemio wysniona (8:39)
02. Trojkat radosci (7:47)
03. Strategia pulsu (3:29)
04. Memento z banalnym tryptykiem (20:56)
05. Z ktorych krwi krew moja (bonus track) (10:40)

eac log:
Exact Audio Copy V0.99 prebeta 3 from 28. July 2007

EAC extraction logfile from 18. May 2008, 1:16

SBB / Anthology 1974-2004 [CD10 1980 Memento z banalnym tryptykiem]

Used drive : HL-DT-STDVDRAM GSA-H42N Adapter: 0 ID: 0

Read mode : Secure
Utilize accurate stream : Yes
Defeat audio cache : Yes
Make use of C2 pointers : No

Read offset correction : 667
Overread into Lead-In and Lead-Out : No
Fill up missing offset samples with silence : Yes
Delete leading and trailing silent blocks : No
Null samples used in CRC calculations : Yes
Used interface : Installed external ASPI interface

Used output format : Monkey’s Audio Lossless Encoder
Selected bitrate : High Lossless Compression
Quality : High
Add ID3 tag : No
Command line compressor : C:Program FilesMonkey’s AudioMAC.exe

TOC of the extracted CD

Track | Start | Length | Start sector | End sector
––––––––––––––––––––––––––––-
1 | 0:00.00 | 8:39.02 | 0 | 38926
2 | 8:39.02 | 7:47.67 | 38927 | 74018
3 | 16:26.69 | 3:29.01 | 74019 | 89694
4 | 19:55.70 | 20:56.13 | 89695 | 183907
5 | 40:52.08 | 10:40.30 | 183908 | 231937

Range status and errors

Selected range

Filename D:TempSBB – Anthology 1974-2004 [CD10 1980 Memento z banalnym tryptykiem].wav

Peak level 99.5 %
Range quality 99.9 %
Copy CRC AAC1DE6E
Copy OK

No errors occurred

AccurateRip summary

Track 1 not present in database
Track 2 not present in database
Track 3 not present in database
Track 4 not present in database
Track 5 not present in database

None of the tracks are present in the AccurateRip database

End of status report

cuetools report:
[CUETools log; Date: 2017. 02. 08. 11:15:46; Version: 2.1.6]
[CTDB TOCID: YZJzqps6Otfn4RUvAsKOwQSUutY-] found.
Track | CTDB Status
1 | (19/20) Accurately ripped
2 | (20/20) Accurately ripped
3 | (20/20) Accurately ripped
4 | (20/20) Accurately ripped
5 | (20/20) Accurately ripped
[AccurateRip ID: 00096ff7-002d5104-440c1405] found.
Track [ CRC | V2 ] Status
01 [5c1d95c3|a833e1cd] (00+00/12) No match
02 [66b806c5|5629c37c] (00+00/12) No match
03 [3c83b4f3|cce74d17] (00+00/12) No match
04 [a45597c1|093a438f] (00+00/12) No match
05 [e0fd03c1|55c6f456] (00+00/12) No match
Offsetted by 30:
01 [e7795462] (06/12) Accurately ripped
02 [1a6a1151] (06/12) Accurately ripped
03 [361a30fd] (06/12) Accurately ripped
04 [42730ddf] (06/12) Accurately ripped
05 [537f40b9] (06/12) Accurately ripped
Offsetted by 676:
01 [6e07ea5a] (00/12) No match (V2 was not tested)
02 [d174f46d] (00/12) No match (V2 was not tested)
03 [f04b287f] (00/12) No match (V2 was not tested)
04 [e4870e65] (00/12) No match (V2 was not tested)
05 [c48a39c4] (00/12) No match (V2 was not tested)

Track Peak [ CRC32 ] [W/O NULL] [ LOG ]
– 99,5 [AAC1DE6E] [3A0553E5] CRC32
01 99,2 [32F0B68B] [7ACC3376]
02 93,8 [6BF07C6C] [9C0F0B00]
03 98,9 [022366E3] [5137F894]
04 99,4 [21AB204F] [0EFF0C8D]
05 99,5 [A94F5F06] [FC6B4274]

––––––––––––––––––-

SBB - Anthology 1974-2004 (2004) (Limited Edition) [Re-Up]

CD11: Live 1993 (1994)

Track listing
01. I Need You, Baby (2:50)
02. Odlot (10:57)
03. Z ktorych krwi krew moja (7:45)
04. Walkin’ Around The Stormy Bay (5:56)
05. Freedom With Us (7:18)
06. 3rd Reanimation (3:46)
07. Going Away (5:33)
08. Singer, Oh Singer (6:08)
09. Follow My Dream (9:18)
10. Hung-under (6:49)
11. Figo-Fago (7:20)
12. Erotyk (5:48)

eac log:
Exact Audio Copy V0.99 prebeta 3 from 28. July 2007

EAC extraction logfile from 18. May 2008, 1:03

SBB / Live 1993

Used drive : HL-DT-STDVDRAM GSA-H42N Adapter: 0 ID: 0

Read mode : Secure
Utilize accurate stream : Yes
Defeat audio cache : Yes
Make use of C2 pointers : No

Read offset correction : 667
Overread into Lead-In and Lead-Out : No
Fill up missing offset samples with silence : Yes
Delete leading and trailing silent blocks : No
Null samples used in CRC calculations : Yes
Used interface : Installed external ASPI interface

Used output format : Monkey’s Audio Lossless Encoder
Selected bitrate : High Lossless Compression
Quality : High
Add ID3 tag : No
Command line compressor : C:Program FilesMonkey’s AudioMAC.exe

TOC of the extracted CD

Track | Start | Length | Start sector | End sector
––––––––––––––––––––––––––––-
1 | 0:00.00 | 2:50.30 | 0 | 12779
2 | 2:50.30 | 10:57.25 | 12780 | 62079
3 | 13:47.55 | 7:45.55 | 62080 | 97009
4 | 21:33.35 | 5:56.68 | 97010 | 123777
5 | 27:30.28 | 7:18.24 | 123778 | 156651
6 | 34:48.52 | 3:46.53 | 156652 | 173654
7 | 38:35.30 | 5:33.08 | 173655 | 198637
8 | 44:08.38 | 6:08.06 | 198638 | 226243
9 | 50:16.44 | 9:18.60 | 226244 | 268153
10 | 59:35.29 | 6:49.31 | 268154 | 298859
11 | 66:24.60 | 7:20.02 | 298860 | 331861
12 | 73:44.62 | 5:48.40 | 331862 | 358001

Range status and errors

Selected range

Filename D:TempSBB – Live 1993.wav

Peak level 98.9 %
Range quality 99.9 %
Copy CRC F5C7EB07
Copy OK

No errors occurred

AccurateRip summary

Track 1 not present in database
Track 2 not present in database
Track 3 not present in database
Track 4 not present in database
Track 5 not present in database
Track 6 not present in database
Track 7 not present in database
Track 8 not present in database
Track 9 not present in database
Track 10 not present in database
Track 11 not present in database
Track 12 not present in database

None of the tracks are present in the AccurateRip database

End of status report

cuetools report:
[CUETools log; Date: 2017. 02. 08. 11:16:56; Version: 2.1.6]
[CTDB TOCID: pSZ5GI2av0RFq4kU6zdRq_ib.uY-] found.
Track | CTDB Status
1 | (9/9) Accurately ripped
2 | (9/9) Accurately ripped
3 | (9/9) Accurately ripped
4 | (9/9) Accurately ripped
5 | (9/9) Accurately ripped
6 | (9/9) Accurately ripped
7 | (9/9) Accurately ripped
8 | (9/9) Accurately ripped
9 | (9/9) Accurately ripped
10 | (8/9) Accurately ripped
11 | (9/9) Accurately ripped
12 | (9/9) Accurately ripped
[AccurateRip ID: 00233683-0149aa22-af12a50c] found.
Track [ CRC | V2 ] Status
01 [ea30fd08|8cb2829b] (0+0/8) No match
02 [f95ff554|0978d2f3] (0+0/8) No match
03 [2cf93f4e|eb617350] (0+0/8) No match
04 [1609602d|223d0ef5] (0+0/8) No match
05 [064039f1|920643a6] (0+0/8) No match
06 [86ae668a|15add05f] (0+0/8) No match
07 [c9518276|b1eaebcb] (0+0/8) No match
08 [819dda8f|532cbca0] (0+0/8) No match
09 [7e8bb953|a2a4a0db] (0+0/8) No match
10 [9348357c|538d6b2a] (0+0/8) No match
11 [9ebca175|33e9b61c] (0+0/8) No match
12 [e2b8b54f|f3874277] (0+0/8) No match
Offsetted by 30:
01 [3bb64e16] (3/8) Accurately ripped
02 [fc649e97] (3/8) Accurately ripped
03 [033066a2] (3/8) Accurately ripped
04 [1c8015c3] (3/8) Accurately ripped
05 [e01a07cc] (3/8) Accurately ripped
06 [f137450b] (3/8) Accurately ripped
07 [e8d545e7] (3/8) Accurately ripped
08 [3d10cc2c] (3/8) Accurately ripped
09 [89add285] (3/8) Accurately ripped
10 [a772781b] (3/8) Accurately ripped
11 [dd650655] (3/8) Accurately ripped
12 [78e087d0] (3/8) Accurately ripped

Track Peak [ CRC32 ] [W/O NULL] [ LOG ]
– 98,9 [F5C7EB07] [E68E885B] CRC32
01 82,0 [6C1AFE23] [30B58C8C]
02 98,8 [F5ADF11C] [B685AB78]
03 98,9 [72B81C01] [1BA8BE9B]
04 98,9 [D9C0688C] [72F456DC]
05 98,8 [8C4040C7] [7EBCDE86]
06 98,8 [2BB51AB9] [F5EA45A9]
07 98,9 [B9F47FF0] [1E2BD665]
08 98,8 [5571B7A7] [6EA065C5]
09 98,8 [05575F21] [F5710A85]
10 98,9 [8C12CF58] [76FFBCCC]
11 98,9 [076DCB35] [46ACB8DF]
12 98,9 [E3FC6A9B] [EE3C6ED9]

––––––––––––––––––-

SBB - Anthology 1974-2004 (2004) (Limited Edition) [Re-Up]

CD12: Live In America 1994 (1994)

Track listing
01. Follow My Dream (6:00)
02. Hung-Under (6:09)
03. Wish (6:05)
04. Singer, Oh Singer (4:47)
05. Drzewko oliwne (6:16)
06. Freedom With Us (6:47)
07. Basie (6:32)
08. Oak Theatre (4:04)
09. Swing Blues SBB (6:02)
10. Erotyk (4:49)
11. Figo-Fago (9:16)

eac log:
Exact Audio Copy V0.99 prebeta 3 from 28. July 2007

EAC extraction logfile from 18. May 2008, 0:41

SBB / Anthology 1974 – 2004 Limited Edition box CD 12 Live in America ’94

Used drive : HL-DT-STDVDRAM GSA-H42N Adapter: 0 ID: 0

Read mode : Secure
Utilize accurate stream : Yes
Defeat audio cache : Yes
Make use of C2 pointers : No

Read offset correction : 667
Overread into Lead-In and Lead-Out : No
Fill up missing offset samples with silence : Yes
Delete leading and trailing silent blocks : No
Null samples used in CRC calculations : Yes
Used interface : Installed external ASPI interface

Used output format : Monkey’s Audio Lossless Encoder
Selected bitrate : High Lossless Compression
Quality : High
Add ID3 tag : No
Command line compressor : C:Program FilesMonkey’s AudioMAC.exe

TOC of the extracted CD

Track | Start | Length | Start sector | End sector
––––––––––––––––––––––––––––-
1 | 0:00.00 | 6:00.21 | 0 | 27020
2 | 6:00.21 | 6:09.39 | 27021 | 54734
3 | 12:09.60 | 6:05.47 | 54735 | 82156
4 | 18:15.32 | 4:47.22 | 82157 | 103703
5 | 23:02.54 | 6:16.02 | 103704 | 131905
6 | 29:18.56 | 6:47.09 | 131906 | 162439
7 | 36:05.65 | 6:32.41 | 162440 | 191880
8 | 42:38.31 | 4:04.42 | 191881 | 210222
9 | 46:42.73 | 6:02.72 | 210223 | 237444
10 | 52:45.70 | 4:49.02 | 237445 | 259121
11 | 57:34.72 | 9:16.18 | 259122 | 300839

Range status and errors

Selected range

Filename D:TempSBB – Anthology 1974 – 2004 Limited Edition box CD 12 Live in America ’94.wav

Peak level 99.6 %
Range quality 100.0 %
Copy CRC 1F2A4CDA
Copy OK

No errors occurred

AccurateRip summary

Track 1 not present in database
Track 2 not present in database
Track 3 not present in database
Track 4 not present in database
Track 5 not present in database
Track 6 not present in database
Track 7 not present in database
Track 8 not present in database
Track 9 not present in database
Track 10 not present in database
Track 11 not present in database

None of the tracks are present in the AccurateRip database

End of status report

cuetools report:
[CUETools log; Date: 2017. 02. 08. 11:18:05; Version: 2.1.6]
[CTDB TOCID: QagbgjmgCD8u8KnptwiTsKba.pg-] found.
Track | CTDB Status
1 | (11/11) Accurately ripped
2 | (11/11) Accurately ripped
3 | (11/11) Accurately ripped
4 | (11/11) Accurately ripped
5 | (11/11) Accurately ripped
6 | (11/11) Accurately ripped
7 | (11/11) Accurately ripped
8 | (11/11) Accurately ripped
9 | (11/11) Accurately ripped
10 | (11/11) Accurately ripped
11 | (11/11) Accurately ripped
[AccurateRip ID: 001ae0c2-00e8c91f-950fab0b] found.
Track [ CRC | V2 ] Status
01 [0bd881b1|4b6dae3e] (0+0/6) No match
02 [f62adaa5|b9887fe2] (0+0/6) No match
03 [0390e5fd|07fa8eff] (0+0/7) No match
04 [47595592|d63e7e8e] (0+0/6) No match
05 [a7c60b86|84b99769] (0+0/6) No match
06 [4234272f|fbee270e] (0+0/6) No match
07 [a89897f5|66733ebd] (0+0/6) No match
08 [8625cf1c|61e4dbb5] (0+0/6) No match
09 [417d8aa7|d2d1a0d3] (0+0/6) No match
10 [ea7d9806|f7f5de78] (0+0/6) No match
11 [bfd22a76|7d407439] (0+0/6) No match
Offsetted by 30:
01 [1b386f09] (2/6) Accurately ripped
02 [2c0ff46d] (2/6) Accurately ripped
03 [f918ef97] (3/7) Accurately ripped
04 [46e7c5b6] (2/6) Accurately ripped
05 [4cb6e4f6] (2/6) Accurately ripped
06 [657fc527] (2/6) Accurately ripped
07 [96b58663] (2/6) Accurately ripped
08 [f2d04318] (2/6) Accurately ripped
09 [0477737a] (2/6) Accurately ripped
10 [7b62b6dd] (2/6) Accurately ripped
11 [51e9404f] (2/6) Accurately ripped

Track Peak [ CRC32 ] [W/O NULL] [ LOG ]
– 99,6 [1F2A4CDA] [8054E957] CRC32
01 99,2 [E7DD3CE3] [71A05FD3]
02 98,8 [16A16B56] [0A101BAC]
03 99,2 [A0539560] [1AE8C140]
04 99,2 [C7C33B97] [A29A62BD]
05 99,2 [7FCC089D] [D5FEFAE0]
06 99,6 [9B96AD1D] [8CBCC2C2]
07 98,8 [7E138E40] [33E09243]
08 98,8 [B04BEDD5] [3454A0B3]
09 98,9 [0FDFFCCD] [179EF6B4]
10 99,1 [6EE28DA1] [2E3A4F13]
11 98,9 [62528088] [04267728]

––––––––––––––––––-

SBB - Anthology 1974-2004 (2004) (Limited Edition) [Re-Up]

CD13: Absolutely Live 1998 (1999)

Track listing
01. Introdukcja (2:54)
02. Odlot (11:20)
03. Erotyk (6:23)
04. Walkin’ Around The Stormy Bay (6:10)
05. Memento z banalnym tryptykiem (16:34)
06. Freedom With Us (5:51)
07. 3rd Reanimation (4:45)
08. Going Away (6:45)
09. Zywiec Mountain Melody (1:26)
10. Singer, oh Singer (4:57)
11. Z ktorych krwi krew moja (9:08)

eac log:
Exact Audio Copy V0.99 prebeta 3 from 28. July 2007

EAC extraction logfile from 18. May 2008, 0:25

SBB / Absolutely Live ’98

Used drive : HL-DT-STDVDRAM GSA-H42N Adapter: 0 ID: 0

Read mode : Secure
Utilize accurate stream : Yes
Defeat audio cache : Yes
Make use of C2 pointers : No

Read offset correction : 667
Overread into Lead-In and Lead-Out : No
Fill up missing offset samples with silence : Yes
Delete leading and trailing silent blocks : No
Null samples used in CRC calculations : Yes
Used interface : Installed external ASPI interface

Used output format : Monkey’s Audio Lossless Encoder
Selected bitrate : High Lossless Compression
Quality : High
Add ID3 tag : No
Command line compressor : C:Program FilesMonkey’s AudioMAC.exe

TOC of the extracted CD

Track | Start | Length | Start sector | End sector
––––––––––––––––––––––––––––-
1 | 0:00.00 | 2:54.68 | 0 | 13117
2 | 2:54.68 | 11:20.18 | 13118 | 64135
3 | 14:15.11 | 6:23.03 | 64136 | 92863
4 | 20:38.14 | 6:10.55 | 92864 | 120668
5 | 26:48.69 | 16:34.30 | 120669 | 195248
6 | 43:23.24 | 5:51.35 | 195249 | 221608
7 | 49:14.59 | 4:45.50 | 221609 | 243033
8 | 54:00.34 | 6:45.12 | 243034 | 273420
9 | 60:45.46 | 1:26.71 | 273421 | 279941
10 | 62:12.42 | 4:57.47 | 279942 | 302263
11 | 67:10.14 | 9:08.63 | 302264 | 343426

Range status and errors

Selected range

Filename D:TempSBB – Absolutely Live ’98.wav

Peak level 98.9 %
Range quality 100.0 %
Copy CRC 13D1031B
Copy OK

No errors occurred

AccurateRip summary

Track 1 not present in database
Track 2 not present in database
Track 3 not present in database
Track 4 not present in database
Track 5 not present in database
Track 6 not present in database
Track 7 not present in database
Track 8 not present in database
Track 9 not present in database
Track 10 not present in database
Track 11 not present in database

None of the tracks are present in the AccurateRip database

End of status report

cuetools report:
[CUETools log; Date: 2017. 02. 08. 11:18:40; Version: 2.1.6]
[CTDB TOCID: w5KuG49c9sNCYYSXpLW.IbCsM1Q-] found.
Track | CTDB Status
1 | (8/8) Accurately ripped
2 | (8/8) Accurately ripped
3 | (8/8) Accurately ripped
4 | (8/8) Accurately ripped
5 | (8/8) Accurately ripped
6 | (8/8) Accurately ripped
7 | (8/8) Accurately ripped
8 | (8/8) Accurately ripped
9 | (8/8) Accurately ripped
10 | (8/8) Accurately ripped
11 | (8/8) Accurately ripped
[AccurateRip ID: 0020cd65-011b4e38-8f11e30b] found.
Track [ CRC | V2 ] Status
01 [5a2af7aa|f37c8d97] (0+0/8) No match
02 [c7c029f4|5917d4d1] (0+0/8) No match
03 [f59e155b|c259de9a] (0+0/8) No match
04 [5c04e264|a1a3948b] (0+0/8) No match
05 [a4c12fe3|765eb9c7] (0+0/8) No match
06 [28a814b3|bdcde341] (0+0/8) No match
07 [57a230ab|d42d3257] (0+0/8) No match
08 [ea375108|32653f23] (0+0/8) No match
09 [c40c7867|e7139351] (0+0/8) No match
10 [b161c5c4|4cf949b1] (0+0/7) No match
11 [e83fc4d9|e0c2ea1d] (0+0/7) No match
Offsetted by 30:
01 [65a02ab0] (2/8) Accurately ripped
02 [46dbaad9] (2/8) Accurately ripped
03 [aeceb827] (2/8) Accurately ripped
04 [500e446c] (2/8) Accurately ripped
05 [7890adce] (2/8) Accurately ripped
06 [6ee5f750] (2/8) Accurately ripped
07 [7d207478] (2/8) Accurately ripped
08 [9632d7fd] (2/8) Accurately ripped
09 [7b0ecec5] (2/8) Accurately ripped
10 [f81c1e36] (2/7) Accurately ripped
11 [e1219d35] (2/7) Accurately ripped

Track Peak [ CRC32 ] [W/O NULL] [ LOG ]
– 98,8 [13D1031B] [C795A991] CRC32
01 98,8 [22F58561] [F50964F8]
02 98,8 [FB0570D5] [F00BC630]
03 98,8 [E66C5158] [6D71A2BE]
04 98,8 [CA7E709F] [63DE2093]
05 98,8 [BD14AF57] [39911E58]
06 98,8 [1959B359] [D3BB7E79]
07 98,8 [F597EFB0] [9006EE3D]
08 98,8 [215E1D6F] [7EDC417C]
09 76,9 [13936E45] [7A6FA3E4]
10 98,8 [E644BC2E] [DB438072]
11 98,8 [780D0086] [F7D1C6C4]

––––––––––––––––––-

SBB - Anthology 1974-2004 (2004) (Limited Edition) [Re-Up]

CD14: W Filharmonii akt 1 (1999)

Track listing
01. Introdukcja (6:44)
02. Odlot (11:34)
03. Erotyk (6:01)
04. Walkin’ Around The Stormy Bay (6:12)
05. Rainbow Man (9:48)
06. Z Ktorych Krwi Krew Moja (7:40)
07. Erotyk (Bonus Track) (6:00)
08. Szczesliwi Z Miasta N (Bonus Track) (5:18)
09. Narodziny (Bonus Track) (5:29)

eac log:
Exact Audio Copy V0.99 prebeta 3 from 28. July 2007

EAC extraction logfile from 18. May 2008, 0:07

Sbb / W Filharmonii Akt 1

Used drive : HL-DT-STDVDRAM GSA-H42N Adapter: 0 ID: 0

Read mode : Secure
Utilize accurate stream : Yes
Defeat audio cache : Yes
Make use of C2 pointers : No

Read offset correction : 667
Overread into Lead-In and Lead-Out : No
Fill up missing offset samples with silence : Yes
Delete leading and trailing silent blocks : No
Null samples used in CRC calculations : Yes
Used interface : Installed external ASPI interface

Used output format : Monkey’s Audio Lossless Encoder
Selected bitrate : High Lossless Compression
Quality : High
Add ID3 tag : No
Command line compressor : C:Program FilesMonkey’s AudioMAC.exe

TOC of the extracted CD

Track | Start | Length | Start sector | End sector
––––––––––––––––––––––––––––-
1 | 0:00.00 | 6:44.21 | 0 | 30320
2 | 6:44.21 | 11:34.13 | 30321 | 82383
3 | 18:18.34 | 6:01.19 | 82384 | 109477
4 | 24:19.53 | 6:12.19 | 109478 | 137396
5 | 30:31.72 | 9:48.66 | 137397 | 181562
6 | 40:20.63 | 7:40.01 | 181563 | 216063
7 | 48:00.64 | 6:00.25 | 216064 | 243088
8 | 54:01.14 | 5:18.21 | 243089 | 266959
9 | 59:19.35 | 5:29.47 | 266960 | 291681

Range status and errors

Selected range

Filename D:TempSbb – W Filharmonii Akt 1.wav

Peak level 100.0 %
Range quality 99.9 %
Copy CRC F007D09F
Copy OK

No errors occurred

AccurateRip summary

Track 1 not present in database
Track 2 not present in database
Track 3 not present in database
Track 4 not present in database
Track 5 not present in database
Track 6 not present in database
Track 7 not present in database
Track 8 not present in database
Track 9 not present in database

None of the tracks are present in the AccurateRip database

End of status report

cuetools report:
[CUETools log; Date: 2017. 02. 08. 11:19:08; Version: 2.1.6]
[CTDB TOCID: _FIvgaBIUoNZeMTYRbcT5URCPbw-] found.
Track | CTDB Status
1 | (9/9) Accurately ripped
2 | (9/9) Accurately ripped
3 | (9/9) Accurately ripped
4 | (9/9) Accurately ripped
5 | (9/9) Accurately ripped
6 | (9/9) Accurately ripped
7 | (9/9) Accurately ripped
8 | (9/9) Accurately ripped
9 | (9/9) Accurately ripped
[AccurateRip ID: 0017c99a-00ac6782-620f3109] found.
Track [ CRC | V2 ] Status
01 [e711487c|701cf9f2] (0+0/7) No match
02 [5221bfae|7ee766bb] (0+0/7) No match
03 [38814073|d2e81754] (0+0/7) No match
04 [e1ab98cf|66e69195] (0+0/7) No match
05 [b1910956|8cd34a57] (0+0/7) No match
06 [ba688814|7f11105e] (0+0/7) No match
07 [336daecd|40629f51] (0+0/7) No match
08 [211d6c14|166f78c3] (0+0/7) No match
09 [b52208aa|cdecb12b] (0+0/7) No match
Offsetted by 30:
01 [60df2a83] (2/7) Accurately ripped
02 [e0402b6a] (2/7) Accurately ripped
03 [40a22165] (2/7) Accurately ripped
04 [dab4dda3] (2/7) Accurately ripped
05 [1f6671b0] (2/7) Accurately ripped
06 [d71f64f2] (2/7) Accurately ripped
07 [061b0268] (2/7) Accurately ripped
08 [f8fd94d6] (2/7) Accurately ripped
09 [276cddb6] (2/7) Accurately ripped

Track Peak [ CRC32 ] [W/O NULL] [ LOG ]
– 100,0 [F007D09F] [FA3D2880] CRC32
01 100,0 [9B60A521] [DFA0DAD9]
02 98,9 [E5C979E3] [8EF34E52]
03 98,8 [3066C956] [6ED6C7B0]
04 98,8 [1394A5AF] [12CAE71D]
05 98,8 [D4F5560D] [5753CF7A]
06 98,8 [B8A1061C] [0D42EC2F]
07 96,9 [C279B43E] [3B696B3B]
08 98,8 [03BFF827] [BF704F22]
09 98,8 [DAF83ED1] [F31CD79F]

––––––––––––––––––-

SBB - Anthology 1974-2004 (2004) (Limited Edition) [Re-Up]

CD15: W Filharmonii akt 2 (1999)

Track listing
01. Freedom With Us (6:01)
02. 3rd Reanimation (6:23)
03. Going away (7:03)
04. Zywiec Mountain Melody (1:35)
05. Final (18:57)
06. Singer, Oh Singer (6:51)
07. Calkiem Spokojne Zmeczenie (10:32)
08. Toczy Sie Kolo Historii (bonus track) (6:21)
09. Figo-Fago (bonus track) (10:24)

eac log:
Exact Audio Copy V0.99 prebeta 3 from 28. July 2007

EAC extraction logfile from 17. May 2008, 23:48

SBB / W Filharmonii akt 2 (1999)

Used drive : HL-DT-STDVDRAM GSA-H42N Adapter: 0 ID: 0

Read mode : Secure
Utilize accurate stream : Yes
Defeat audio cache : Yes
Make use of C2 pointers : No

Read offset correction : 667
Overread into Lead-In and Lead-Out : No
Fill up missing offset samples with silence : Yes
Delete leading and trailing silent blocks : No
Null samples used in CRC calculations : Yes
Used interface : Installed external ASPI interface

Used output format : Monkey’s Audio Lossless Encoder
Selected bitrate : High Lossless Compression
Quality : High
Add ID3 tag : No
Command line compressor : C:Program FilesMonkey’s AudioMAC.exe

TOC of the extracted CD

Track | Start | Length | Start sector | End sector
––––––––––––––––––––––––––––-
1 | 0:00.00 | 6:01.33 | 0 | 27107
2 | 6:01.33 | 6:23.74 | 27108 | 55906
3 | 12:25.32 | 7:03.52 | 55907 | 87683
4 | 19:29.09 | 1:35.74 | 87684 | 94882
5 | 21:05.08 | 18:57.36 | 94883 | 180193
6 | 40:02.44 | 6:51.49 | 180194 | 211067
7 | 46:54.18 | 10:32.71 | 211068 | 258538
8 | 57:27.14 | 6:21.05 | 258539 | 287118
9 | 63:48.19 | 10:24.41 | 287119 | 333959

Range status and errors

Selected range

Filename D:TempSBB – W Filharmonii akt 2 (1999).wav

Peak level 98.8 %
Range quality 99.9 %
Copy CRC DD9A56E8
Copy OK

No errors occurred

AccurateRip summary

Track 1 not present in database
Track 2 not present in database
Track 3 not present in database
Track 4 not present in database
Track 5 not present in database
Track 6 not present in database
Track 7 not present in database
Track 8 not present in database
Track 9 not present in database

None of the tracks are present in the AccurateRip database

End of status report

cuetools report:
[CUETools log; Date: 2017. 02. 08. 11:19:45; Version: 2.1.6]
[CTDB TOCID: C3KobPRX2ozWsV9dd4Uq_o7PInM-] found.
Track | CTDB Status
1 | (12/12) Differs in 5 samples @00:15:65
2 | (12/12) Accurately ripped
3 | (12/12) Accurately ripped
4 | (12/12) Accurately ripped
5 | (12/12) Accurately ripped
6 | (12/12) Accurately ripped
7 | (12/12) Accurately ripped
8 | (12/12) Accurately ripped
9 | (12/12) Accurately ripped
[AccurateRip ID: 001771ce-00b0f790-77116409] found.
Track [ CRC | V2 ] Status
01 [df31f61b|b2ca5681] (0+0/7) No match
02 [7a2b9cb3|955adca4] (0+0/7) No match
03 [e0a6a878|69ece188] (0+0/7) No match
04 [43be4268|434568a4] (0+0/7) No match
05 [c5aae653|e4ff7bd2] (0+0/7) No match
06 [c01ad30e|755074dd] (0+0/7) No match
07 [c55ac450|e6006605] (0+0/7) No match
08 [551f7a87|c01fcf84] (0+0/7) No match
09 [b7aad0e6|e4474537] (0+0/6) No match
Offsetted by 30:
01 [f8204ad7] (0/7) No match (V2 was not tested)
02 [fe211c27] (2/7) Accurately ripped
03 [4685dd9c] (2/7) Accurately ripped
04 [0ac9df54] (2/7) Accurately ripped
05 [263ba40a] (2/7) Accurately ripped
06 [50a6e767] (2/7) Accurately ripped
07 [48e03f34] (2/7) Accurately ripped
08 [f6de6087] (2/7) Accurately ripped
09 [2d2a6275] (2/6) Accurately ripped

Track Peak [ CRC32 ] [W/O NULL] [ LOG ]
– 98,8 [DD9A56E8] [80B5D319] CRC32
01 98,8 [C644658D] [EA3E61C0]
02 98,8 [FE37A4F5] [5738D357]
03 98,8 [CB32B139] [2282CC28]
04 98,8 [1FAA3FF0] [A96A2514]
05 98,8 [B57B78B7] [03D83125]
06 98,8 [473A5836] [F502F6BC]
07 98,8 [B2DD2C13] [DEC81B48]
08 98,8 [16291356] [4E22648D]
09 98,8 [84C402AA] [8CE2A967]

––––––––––––––––––-

SBB - Anthology 1974-2004 (2004) (Limited Edition) [Re-Up]

CD16: Good Bye! (2000)

Track listing
01. Born To Die (8:44)
02. Wish (9:02)
03. Drum-Battle (4:41)
04. Boogie (10:20)
05. Rainbow Man (9:40)
06. Odlot (9:35)
07. Paul (3:34)
08. The Golden Harp (5:51)
09. Bar Wah-Wah (4:21)
10. Least it’s sunny (4:44)
11. Strawbury Jam (2:56)
12. The Golden Hard Instrumental (5:56)

eac log:
Exact Audio Copy V0.99 prebeta 3 from 28. July 2007

EAC extraction logfile from 17. May 2008, 20:18

SBB / Good Bye!

Used drive : HL-DT-STDVDRAM GSA-H42N Adapter: 0 ID: 0

Read mode : Secure
Utilize accurate stream : Yes
Defeat audio cache : Yes
Make use of C2 pointers : No

Read offset correction : 667
Overread into Lead-In and Lead-Out : No
Fill up missing offset samples with silence : Yes
Delete leading and trailing silent blocks : No
Null samples used in CRC calculations : Yes
Used interface : Installed external ASPI interface

Used output format : Monkey’s Audio Lossless Encoder
Selected bitrate : High Lossless Compression
Quality : High
Add ID3 tag : No
Command line compressor : C:Program FilesMonkey’s AudioMAC.exe

TOC of the extracted CD

Track | Start | Length | Start sector | End sector
––––––––––––––––––––––––––––-
1 | 0:00.00 | 8:44.66 | 0 | 39365
2 | 8:44.66 | 9:02.67 | 39366 | 80082
3 | 17:47.58 | 4:41.35 | 80083 | 101192
4 | 22:29.18 | 10:20.51 | 101193 | 147743
5 | 32:49.69 | 9:40.14 | 147744 | 191257
6 | 42:30.08 | 9:35.26 | 191258 | 234408
7 | 52:05.34 | 3:34.27 | 234409 | 250485
8 | 55:39.61 | 5:51.02 | 250486 | 276812
9 | 61:30.63 | 4:21.25 | 276813 | 296412
10 | 65:52.13 | 4:44.11 | 296413 | 317723
11 | 70:36.24 | 2:56.41 | 317724 | 330964
12 | 73:32.65 | 5:56.00 | 330965 | 357664

Range status and errors

Selected range

Filename D:TempSBB – Good Bye!.wav

Peak level 98.9 %
Range quality 100.0 %
Copy CRC EE97AA25
Copy OK

No errors occurred

AccurateRip summary

Track 1 not present in database
Track 2 not present in database
Track 3 not present in database
Track 4 not present in database
Track 5 not present in database
Track 6 not present in database
Track 7 not present in database
Track 8 not present in database
Track 9 not present in database
Track 10 not present in database
Track 11 not present in database
Track 12 not present in database

None of the tracks are present in the AccurateRip database

End of status report

cuetools report:
[CUETools log; Date: 2017. 02. 08. 11:20:36; Version: 2.1.6]
[CTDB TOCID: omQb28qvHwz58FqgU9xUTaxOtgA-] found.
Track | CTDB Status
1 | (10/10) Differs in 3 samples @00:05:66
2 | (10/10) Accurately ripped
3 | (10/10) Accurately ripped
4 | (10/10) Accurately ripped
5 | (10/10) Accurately ripped
6 | (10/10) Accurately ripped
7 | (10/10) Accurately ripped
8 | (10/10) Accurately ripped
9 | (10/10) Accurately ripped
10 | (10/10) Accurately ripped
11 | (10/10) Accurately ripped
12 | (10/10) Accurately ripped
[AccurateRip ID: 00280a77-016b8fe9-a812a00c] found.
Track [ CRC | V2 ] Status
01 [ab47e1eb|7ddc1ba8] (0+0/7) No match
02 [ef96a52c|ade8d967] (0+0/7) No match
03 [ee8e4aa6|33845dd2] (0+0/7) No match
04 [dcb6ea2b|b5802970] (0+0/7) No match
05 [45f7fd08|3ed65053] (0+0/7) No match
06 [89f335de|c676c252] (0+0/7) No match
07 [0136783f|acd7f0b9] (0+0/7) No match
08 [5689c4f3|69b78bcd] (0+0/7) No match
09 [1cc924a2|ed6551c8] (0+0/7) No match
10 [21c297f6|3b6ad755] (0+0/7) No match
11 [fffb4a33|9249e311] (0+0/7) No match
12 [60dc6da3|c5334b5d] (0+0/6) No match
Offsetted by 30:
01 [90f1e9cb] (0/7) No match (V2 was not tested)
02 [fb306926] (2/7) Accurately ripped
03 [1a606e0a] (2/7) Accurately ripped
04 [ccc3c5f3] (2/7) Accurately ripped
05 [8d187ee4] (2/7) Accurately ripped
06 [585c6532] (2/7) Accurately ripped
07 [31c3293f] (2/7) Accurately ripped
08 [855fe92f] (2/7) Accurately ripped
09 [b68e5ddc] (2/7) Accurately ripped
10 [f5ed7350] (2/7) Accurately ripped
11 [ca89bc03] (2/7) Accurately ripped
12 [eb032297] (2/6) Accurately ripped

Track Peak [ CRC32 ] [W/O NULL] [ LOG ]
– 98,9 [EE97AA25] [26252DB9] CRC32
01 98,9 [EC5FD031] [75C428EC]
02 98,9 [B90BD8A1] [6890778D]
03 98,8 [FE84CF6B] [143D8FA1]
04 98,8 [777DBFD7] [E7B2463A]
05 98,9 [3B433B13] [46EA15B0]
06 98,8 [FA074352] [1B1AB6AB]
07 98,8 [D8AC5586] [25E6A814]
08 98,8 [723A4A5F] [718DF2FB]
09 98,9 [AB8DCB43] [D96CE844]
10 98,9 [70C2EC0D] [A3AEBBE4]
11 98,9 [E1699F3F] [413A8E6E]
12 98,8 [9AD37029] [9CCBE167]

––––––––––––––––––-

SBB - Anthology 1974-2004 (2004) (Limited Edition) [Re-Up]

CD17: Karlstadt Live 1975 (2001)

Track listing
01. Pretty Face (10:16)
02. Born To Die (9:44)
03. Clouds (4:38)
04. Stormy Bay (4:21)
05. Wonderful Sky-Ride (Instr.) (5:31)
06. Return To The South (9:43)
07. Na Pierwszy Ogien (Suita Polnocy) (15:23)
08. Figo-Fago (Sztorm Majowy) (10:23)

eac log:
Exact Audio Copy V0.99 prebeta 3 from 28. July 2007

EAC extraction logfile from 17. May 2008, 19:56

Sbb / Karlstad Live 1975

Used drive : HL-DT-STDVDRAM GSA-H42N Adapter: 0 ID: 0

Read mode : Secure
Utilize accurate stream : Yes
Defeat audio cache : Yes
Make use of C2 pointers : No

Read offset correction : 667
Overread into Lead-In and Lead-Out : No
Fill up missing offset samples with silence : Yes
Delete leading and trailing silent blocks : No
Null samples used in CRC calculations : Yes
Used interface : Installed external ASPI interface

Used output format : Monkey’s Audio Lossless Encoder
Selected bitrate : High Lossless Compression
Quality : High
Add ID3 tag : No
Command line compressor : C:Program FilesMonkey’s AudioMAC.exe

TOC of the extracted CD

Track | Start | Length | Start sector | End sector
––––––––––––––––––––––––––––-
1 | 0:00.00 | 10:16.46 | 0 | 46245
2 | 10:16.46 | 9:44.32 | 46246 | 90077
3 | 20:01.03 | 4:38.09 | 90078 | 110936
4 | 24:39.12 | 4:21.37 | 110937 | 130548
5 | 29:00.49 | 5:31.62 | 130549 | 155435
6 | 34:32.36 | 9:43.21 | 155436 | 199181
7 | 44:15.57 | 15:23.55 | 199182 | 268461
8 | 59:39.37 | 10:23.36 | 268462 | 315222

Range status and errors

Selected range

Filename D:TempSbb – Karlstad Live 1975.wav

Peak level 98.9 %
Range quality 99.9 %
Copy CRC 3FEB8EDF
Copy OK

No errors occurred

AccurateRip summary

Track 1 not present in database
Track 2 not present in database
Track 3 not present in database
Track 4 not present in database
Track 5 not present in database
Track 6 not present in database
Track 7 not present in database
Track 8 not present in database

None of the tracks are present in the AccurateRip database

End of status report

cuetools report:
[CUETools log; Date: 2017. 02. 08. 11:21:01; Version: 2.1.6]
[CTDB TOCID: JNZe.QIQbKclQQR_bk_clO1dtm4-] found.
Track | CTDB Status
1 | (14/14) Accurately ripped
2 | (14/14) Accurately ripped
3 | (14/14) Accurately ripped
4 | (14/14) Accurately ripped
5 | (14/14) Accurately ripped
6 | (14/14) Accurately ripped
7 | (14/14) Accurately ripped
8 | (14/14) Accurately ripped
[AccurateRip ID: 00141511-0085d4fd-65106a08] found.
Track [ CRC | V2 ] Status
01 [9ed319f4|2b445ac2] (0+0/9) No match
02 [a47d4ee6|11c3c81b] (0+0/9) No match
03 [acddde56|77e5c713] (0+0/9) No match
04 [760af9df|dc245bd1] (0+0/9) No match
05 [3e4e7b8a|c2876af5] (0+0/9) No match
06 [879b4a33|1be00fe4] (0+0/9) No match
07 [e48a7bff|458ceb21] (0+0/9) No match
08 [f75e95a6|a098a611] (0+0/9) No match
Offsetted by 30:
01 [020eb67c] (4/9) Accurately ripped
02 [588bec0e] (4/9) Accurately ripped
03 [031e8ecb] (4/9) Accurately ripped
04 [546afc0e] (4/9) Accurately ripped
05 [488c895b] (4/9) Accurately ripped
06 [3728e783] (4/9) Accurately ripped
07 [b4bc803a] (4/9) Accurately ripped
08 [5142d6a4] (4/9) Accurately ripped

Track Peak [ CRC32 ] [W/O NULL] [ LOG ]
– 98,9 [3FEB8EDF] [B0648CC6] CRC32
01 98,8 [C1F20E69] [D2A2BDF8]
02 98,8 [4B11B69B] [79FB6FB5]
03 98,8 [345164D3] [65229314]
04 98,8 [127C82F3] [7E2F69A7]
05 98,8 [91E97839] [A644CFDF]
06 98,9 [23DD7788] [5AFC09F5]
07 98,9 [AA63E47E] [20BDE642]
08 98,8 [252EE669] [A330D361]

––––––––––––––––––-

SBB - Anthology 1974-2004 (2004) (Limited Edition) [Re-Up]

CD18: Budai Ifjusagi Park Live 1977 (2001)

Track listing
01.Freedom With Us (8:11)
02. Wolanie o brzek szkla (8:52)
03. (Carpathian) Mountain Melody (7:44)
04. Z ktorych krwi krew moja (6:09)
05. Follow my Dream (Instr.) (8:38)
06. Follow our Music (Bass solo) (4:00)
07. Odejscie (2:25)
08. Drums solo (3:51)
09. I want somebody (6:31)
10. Shake Baby (6:12)
11. Born to die (7:02)

eac log:
Exact Audio Copy V0.99 prebeta 3 from 28. July 2007

EAC extraction logfile from 17. May 2008, 19:06

SBB / Anthology 1974 – 2004 Limited Edition box nr 0154 – CD 18 Budai Ifjúsági Park Live – 1977

Used drive : HL-DT-STDVDRAM GSA-H42N Adapter: 0 ID: 0

Read mode : Secure
Utilize accurate stream : Yes
Defeat audio cache : Yes
Make use of C2 pointers : No

Read offset correction : 667
Overread into Lead-In and Lead-Out : No
Fill up missing offset samples with silence : Yes
Delete leading and trailing silent blocks : No
Null samples used in CRC calculations : Yes
Used interface : Installed external ASPI interface

Used output format : Monkey’s Audio Lossless Encoder
Selected bitrate : High Lossless Compression
Quality : High
Add ID3 tag : No
Command line compressor : C:Program FilesMonkey’s AudioMAC.exe

TOC of the extracted CD

Track | Start | Length | Start sector | End sector
––––––––––––––––––––––––––––-
1 | 0:00.00 | 8:11.54 | 0 | 36878
2 | 8:11.54 | 8:52.10 | 36879 | 76788
3 | 17:03.64 | 7:44.06 | 76789 | 111594
4 | 24:47.70 | 6:09.69 | 111595 | 139338
5 | 30:57.64 | 8:38.22 | 139339 | 178210
6 | 39:36.11 | 4:00.49 | 178211 | 196259
7 | 43:36.60 | 2:25.65 | 196260 | 207199
8 | 46:02.50 | 3:51.15 | 207200 | 224539
9 | 49:53.65 | 6:31.57 | 224540 | 253921
10 | 56:25.47 | 6:12.74 | 253922 | 281895
11 | 62:38.46 | 7:02.62 | 281896 | 313607

Range status and errors

Selected range

Filename D:TempSBB – Anthology 1974 – 2004 Limited Edition box – CD 18 Budai Ifjúsági Park Live – 1977.wav

Peak level 98.9 %
Range quality 100.0 %
Copy CRC DEAD1244
Copy OK

No errors occurred

AccurateRip summary

Track 1 not present in database
Track 2 not present in database
Track 3 not present in database
Track 4 not present in database
Track 5 not present in database
Track 6 not present in database
Track 7 not present in database
Track 8 not present in database
Track 9 not present in database
Track 10 not present in database
Track 11 not present in database

None of the tracks are present in the AccurateRip database

End of status report

cuetools report:
[CUETools log; Date: 2017. 02. 08. 11:21:24; Version: 2.1.6]
[CTDB TOCID: 9Zb40f3sTuASVxUogajiHeFsgIc-] found.
Track | CTDB Status
1 | (10/10) Accurately ripped
2 | (10/10) Accurately ripped
3 | (10/10) Accurately ripped
4 | (10/10) Accurately ripped
5 | (10/10) Accurately ripped
6 | (10/10) Accurately ripped
7 | (10/10) Accurately ripped
8 | (10/10) Accurately ripped
9 | (10/10) Accurately ripped
10 | (10/10) Accurately ripped
11 | (10/10) Accurately ripped
[AccurateRip ID: 001ed38f-0102f957-bd10550b] found.
Track [ CRC | V2 ] Status
01 [40182ef7|2c90adb0] (00+00/11) No match
02 [63e7bcb6|fa3540a4] (00+00/11) No match
03 [8e84617b|8bab6ac5] (00+00/11) No match
04 [326cb897|1faaad4b] (00+00/11) No match
05 [f983373b|df8b3b9b] (00+00/11) No match
06 [0cd66989|76994e54] (00+00/11) No match
07 [39b23c1d|c86db030] (00+00/11) No match
08 [59585f85|cec6f460] (00+00/11) No match
09 [a259d684|e13d02ee] (00+00/11) No match
10 [4932b55c|e362e244] (00+00/11) No match
11 [68cddc07|7b38a87f] (00+00/11) No match
Offsetted by 30:
01 [d902b39c] (05/11) Accurately ripped
02 [67c2abda] (05/11) Accurately ripped
03 [8cb54d1f] (05/11) Accurately ripped
04 [8ef0cc0f] (05/11) Accurately ripped
05 [c0cb43b5] (05/11) Accurately ripped
06 [4161f879] (05/11) Accurately ripped
07 [ea8d6a6b] (05/11) Accurately ripped
08 [0b0377e2] (05/11) Accurately ripped
09 [1f8bd379] (05/11) Accurately ripped
10 [4ea31abd] (05/11) Accurately ripped
11 [78a46a72] (05/11) Accurately ripped

Track Peak [ CRC32 ] [W/O NULL] [ LOG ]
– 98,9 [DEAD1244] [9EE92A85] CRC32
01 98,9 [C7865644] [280DDEDB]
02 98,8 [66145086] [DDC5178A]
03 98,8 [B8A1BB09] [A0C6FE07]
04 98,9 [5F23AC0F] [5B08E47C]
05 98,9 [E0A374BF] [1CB6493E]
06 98,8 [7B70622E] [C32079B6]
07 98,9 [573ADA17] [F8D08CE2]
08 98,8 [F3B12507] [E3BE9A3F]
09 98,8 [52444F75] [742B7B5D]
10 98,9 [C04D24E5] [9DF3E90C]
11 98,9 [EF5B1A9D] [69A26CBC]

––––––––––––––––––-

SBB - Anthology 1974-2004 (2004) (Limited Edition) [Re-Up]

CD19: Nastroje (2001)

Track listing
01. Polska muzyka, ktora jest w nas, jest ponad nami (1:51)
02. Za nami wieki wojownikow (pamieci Silesian Blues Band) (4:08)
03. W ogrodzie snu (6:34)
04. Piesn stojacego w bramie (4:38)
05. Knowing where you belong (4:37)
06. Pisze to zycie scenariusze (4:27)
07. ..or whatever (drum solo) (5:16)
08. Calkiem spokojne zmeczenie (5:41)
09. W oceanie sie zanurza Liverpool (2:40)
10. Star of hope (pamieci Ryska Riedla) (6:39)
11. Don’t look back (9:21)
12. Calkiem spokojne zmeczenie (first mix) (5:40)

eac log:
Exact Audio Copy V0.99 prebeta 3 from 28. July 2007

EAC extraction logfile from 17. May 2008, 18:40

SBB / Nastroje [2004 Antology]

Used drive : HL-DT-STDVDRAM GSA-H42N Adapter: 0 ID: 0

Read mode : Secure
Utilize accurate stream : Yes
Defeat audio cache : Yes
Make use of C2 pointers : No

Read offset correction : 667
Overread into Lead-In and Lead-Out : No
Fill up missing offset samples with silence : Yes
Delete leading and trailing silent blocks : No
Null samples used in CRC calculations : Yes
Used interface : Installed external ASPI interface

Used output format : Monkey’s Audio Lossless Encoder
Selected bitrate : High Lossless Compression
Quality : High
Add ID3 tag : No
Command line compressor : C:Program FilesMonkey’s AudioMAC.exe

TOC of the extracted CD

Track | Start | Length | Start sector | End sector
––––––––––––––––––––––––––––-
1 | 0:00.00 | 1:51.47 | 0 | 8371
2 | 1:51.47 | 4:08.06 | 8372 | 26977
3 | 5:59.53 | 6:34.36 | 26978 | 56563
4 | 12:34.14 | 4:38.20 | 56564 | 77433
5 | 17:12.34 | 4:37.13 | 77434 | 98221
6 | 21:49.47 | 4:27.47 | 98222 | 118293
7 | 26:17.19 | 5:16.45 | 118294 | 142038
8 | 31:33.64 | 5:41.36 | 142039 | 167649
9 | 37:15.25 | 2:40.11 | 167650 | 179660
10 | 39:55.36 | 6:39.71 | 179661 | 209656
11 | 46:35.32 | 9:22.02 | 209657 | 251808
12 | 55:57.34 | 5:40.61 | 251809 | 277369

Range status and errors

Selected range

Filename D:TempSBB – Nastroje [2004 Antology].wav

Peak level 99.1 %
Range quality 99.9 %
Copy CRC E52B8BA7
Copy OK

No errors occurred

AccurateRip summary

Track 1 not present in database
Track 2 not present in database
Track 3 not present in database
Track 4 not present in database
Track 5 not present in database
Track 6 not present in database
Track 7 not present in database
Track 8 not present in database
Track 9 not present in database
Track 10 not present in database
Track 11 not present in database
Track 12 not present in database

None of the tracks are present in the AccurateRip database

End of status report

cuetools report:
[CUETools log; Date: 2017. 02. 08. 11:22:19; Version: 2.1.6]
[CTDB TOCID: e_QKcyM4eUd.5V9sE1JjVpG75bw-] found.
Track | CTDB Status
1 | (9/9) Accurately ripped
2 | (9/9) Accurately ripped
3 | (9/9) Accurately ripped
4 | (9/9) Accurately ripped
5 | (9/9) Accurately ripped
6 | (9/9) Accurately ripped
7 | (9/9) Accurately ripped
8 | (9/9) Accurately ripped
9 | (9/9) Accurately ripped
10 | (9/9) Accurately ripped
11 | (9/9) Accurately ripped
12 | (9/9) Accurately ripped
[AccurateRip ID: 0018a0e2-00ec928c-ae0e720c] found.
Track [ CRC | V2 ] Status
01 [8e3f3f9b|3ce4f292] (0+0/1) No match
02 [f9821bc6|0c3ae25e] (0+0/1) No match
03 [1d279879|c5a588f3] (0+0/1) No match
04 [6cbe252f|910de58f] (0+0/1) No match
05 [db90e20e|dc2b26ad] (0+0/1) No match
06 [b1196cd9|4c4cf478] (0+0/1) No match
07 [13212de8|6f0f6cb1] (0+0/1) No match
08 [7825bc43|f4224b91] (0+0/1) No match
09 [659ca965|44d437e3] (0+0/1) No match
10 [60ee5406|adc56772] (0+0/1) No match
11 [407996d0|522a44f5] (0+0/1) No match
12 [b3642b15|18f83120] (0+0/1) No match
Offsetted by 30:
01 [f136e993] (0/1) No match (V2 was not tested)
02 [17c67e1c] (0/1) No match (V2 was not tested)
03 [36361ad1] (0/1) No match (V2 was not tested)
04 [8bfa2395] (0/1) No match (V2 was not tested)
05 [a403e95a] (0/1) No match (V2 was not tested)
06 [e756e351] (0/1) No match (V2 was not tested)
07 [7c5708e0] (0/1) No match (V2 was not tested)
08 [a2099b0f] (0/1) No match (V2 was not tested)
09 [cfa69a73] (0/1) No match (V2 was not tested)
10 [6b306c82] (0/1) No match (V2 was not tested)
11 [f77a5970] (0/1) No match (V2 was not tested)
12 [194abe32] (0/1) No match (V2 was not tested)

Track Peak [ CRC32 ] [W/O NULL] [ LOG ]
– 99,1 [E52B8BA7] [FE217B6B] CRC32
01 81,5 [B3DFED81] [B072B62E]
02 98,9 [A0E06BB6] [127E2B87]
03 98,9 [B8A01789] [00799A4B]
04 98,8 [93108B41] [7B0FAFB4]
05 98,9 [7511E4D4] [A33CF085]
06 98,9 [96D71DBE] [C320E3F9]
07 98,8 [36384163] [485C939D]
08 98,9 [2E37CFD6] [28AA2E71]
09 98,9 [8EF6C4F7] [3F42DC68]
10 98,9 [073AE8C6] [DCB5F65C]
11 98,9 [194912F9] [A01A9F57]
12 99,1 [54CE9010] [18845CFA]

––––––––––––––––––-

SBB - Anthology 1974-2004 (2004) (Limited Edition) [Re-Up]

CD20: Goettingen, Alte Ziegelei Live (2004)

Track listing
01. Ze slowem biegne do Ciebie (4:16)
02. Toczy sie kolo historii (6:06)
03. Wolnosc z nami (5:10)
04. Swiatlowod (4:40)
05. Pretty Face (10:21)
06. Follow My Dream (9:20)
07. Follow Our Music (2:53)
08. Odejscie (2:03)
09. Drums Solo (6:21)
10. Freedom With Us (7:34)
11. Wolanie o brzek szkla (6:45)
12. Coda (8:24)
13. I Want Somebody (5:59)

eac log:
Exact Audio Copy V0.99 prebeta 3 from 28. July 2007

EAC extraction logfile from 17. May 2008, 18:22

SBB / SBB Anthology 1974 – 2004 Limited Edition box nr 0154 – CD 20 Goettingen, Alte Ziegelei Live

Used drive : HL-DT-STDVDRAM GSA-H42N Adapter: 0 ID: 0

Read mode : Secure
Utilize accurate stream : Yes
Defeat audio cache : Yes
Make use of C2 pointers : No

Read offset correction : 667
Overread into Lead-In and Lead-Out : No
Fill up missing offset samples with silence : Yes
Delete leading and trailing silent blocks : No
Null samples used in CRC calculations : Yes
Used interface : Installed external ASPI interface

Used output format : Monkey’s Audio Lossless Encoder
Selected bitrate : High Lossless Compression
Quality : High
Add ID3 tag : No
Command line compressor : C:Program FilesMonkey’s AudioMAC.exe

TOC of the extracted CD

Track | Start | Length | Start sector | End sector
––––––––––––––––––––––––––––-
1 | 0:00.00 | 4:16.54 | 0 | 19253
2 | 4:16.54 | 6:06.04 | 19254 | 46707
3 | 10:22.58 | 5:10.50 | 46708 | 70007
4 | 15:33.33 | 4:40.34 | 70008 | 91041
5 | 20:13.67 | 10:21.10 | 91042 | 137626
6 | 30:35.02 | 9:20.31 | 137627 | 179657
7 | 39:55.33 | 2:53.12 | 179658 | 192644
8 | 42:48.45 | 2:03.14 | 192645 | 201883
9 | 44:51.59 | 6:21.27 | 201884 | 230485
10 | 51:13.11 | 7:34.59 | 230486 | 264594
11 | 58:47.70 | 6:45.37 | 264595 | 295006
12 | 65:33.32 | 8:24.19 | 295007 | 332825
13 | 73:57.51 | 5:59.20 | 332826 | 359770

Range status and errors

Selected range

Filename D:TempSBB – SBB Anthology 1974 – 2004 Limited Edition box – CD 20 Goettingen, Alte Ziegelei Live.wav

Peak level 98.9 %
Range quality 99.9 %
Copy CRC 860420F1
Copy OK

No errors occurred

AccurateRip summary

Track 1 not present in database
Track 2 not present in database
Track 3 not present in database
Track 4 not present in database
Track 5 not present in database
Track 6 not present in database
Track 7 not present in database
Track 8 not present in database
Track 9 not present in database
Track 10 not present in database
Track 11 not present in database
Track 12 not present in database
Track 13 not present in database

None of the tracks are present in the AccurateRip database

End of status report

cuetools report:
[CUETools log; Date: 2017. 02. 08. 23:41:24; Version: 2.1.6]
[CTDB TOCID: nME0SoPteJxY5VuCs43IJS0L3Gg-] found.
Track | CTDB Status
1 | (12/12) Accurately ripped
2 | (12/12) Accurately ripped
3 | (12/12) Accurately ripped
4 | (12/12) Accurately ripped
5 | (12/12) Accurately ripped
6 | (12/12) Accurately ripped
7 | (12/12) Accurately ripped
8 | (12/12) Accurately ripped
9 | (11/12) Accurately ripped
10 | (12/12) Accurately ripped
11 | (11/12) Accurately ripped
12 | (12/12) Accurately ripped
13 | (12/12) Accurately ripped
[AccurateRip ID: 0024f307-0175730c-cb12bc0d] found.
Track [ CRC | V2 ] Status
01 [30b86afe|5e679eff] (0+0/7) No match
02 [a7a62518|7c8ef586] (0+0/7) No match
03 [07eed42c|49e8e4c5] (0+0/7) No match
04 [5c01ce6e|8dbceb90] (0+0/7) No match
05 [3651ef10|77c4e090] (0+0/7) No match
06 [8e42d50a|fc11f2a9] (0+0/7) No match
07 [ccbfe599|ab724e32] (0+0/7) No match
08 [f5321fb2|2a3750af] (0+0/7) No match
09 [5b34338c|c219ff31] (0+0/7) No match
10 [f5fa35ec|663b6293] (0+0/7) No match
11 [6eac95a2|eb77effa] (0+0/7) No match
12 [625371b5|e3df482c] (0+0/6) No match
13 [22c331db|07946c5b] (0+0/7) No match
Offsetted by 30:
01 [a59a2888] (3/7) Accurately ripped
02 [94342c77] (3/7) Accurately ripped
03 [7a9472c2] (3/7) Accurately ripped
04 [f5bc7a8b] (3/7) Accurately ripped
05 [bb761013] (3/7) Accurately ripped
06 [f15ad6eb] (3/7) Accurately ripped
07 [a866e4bc] (3/7) Accurately ripped
08 [13b53487] (3/7) Accurately ripped
09 [3b9c66b8] (3/7) Accurately ripped
10 [3fc87ce0] (3/7) Accurately ripped
11 [7f736b6a] (3/7) Accurately ripped
12 [5bb6cbfd] (3/6) Accurately ripped
13 [a2bd5260] (3/7) Accurately ripped

Track Peak [ CRC32 ] [W/O NULL] [ LOG ]
– 98,9 [860420F1] [E519AE30] CRC32
01 98,9 [29BC69AF] [DF52CE97]
02 98,8 [0198F3BF] [B802105F]
03 98,8 [79F97AA5] [D3708DAB]
04 98,8 [A1012E22] [3007FBEC]
05 98,8 [198F54E9] [2831C881]
06 98,8 [9D1CE6BF] [97FB78B7]
07 98,8 [0B356ACA] [3807E2EC]
08 98,8 [B8D946FA] [83C59C59]
09 98,8 [49944BA1] [4E8784D8]
10 98,8 [8E65B60C] [CAD0618F]
11 98,8 [047815FD] [C08E4EFB]
12 98,8 [F023231F] [B3B4050A]
13 98,8 [7131196C] [29E9A880]

––––––––––––––––––-

SBB - Anthology 1974-2004 (2004) (Limited Edition) [Re-Up]

CD21: Sikorki (2004)

Track listing
01. Bitwy na obrazach (9:07)
02. Z Tomaszem (21:36)
03. Moj przyjaciel Moog (7:27)
04. Sikorki (6:16)
05. Wyjatek z Pamieci (3:49)
06. Tydzien z Szakalem (9:26)
07. Pablo (9:56)
08. Lula (11:40)

eac log:
Exact Audio Copy V0.99 prebeta 3 from 28. July 2007

EAC extraction logfile from 17. May 2008, 17:33

SBB / Anthology 1974 – 2004 Limited Edition box nr 0154 – CD 21 Sikorki

Used drive : HL-DT-STDVDRAM GSA-H42N Adapter: 0 ID: 0

Read mode : Secure
Utilize accurate stream : Yes
Defeat audio cache : Yes
Make use of C2 pointers : No

Read offset correction : 667
Overread into Lead-In and Lead-Out : No
Fill up missing offset samples with silence : Yes
Delete leading and trailing silent blocks : No
Null samples used in CRC calculations : Yes
Used interface : Installed external ASPI interface

Used output format : Monkey’s Audio Lossless Encoder
Selected bitrate : High Lossless Compression
Quality : High
Add ID3 tag : No
Command line compressor : C:Program FilesMonkey’s AudioMAC.exe

TOC of the extracted CD

Track | Start | Length | Start sector | End sector
––––––––––––––––––––––––––––-
1 | 0:00.00 | 9:07.70 | 0 | 41094
2 | 9:07.70 | 21:36.52 | 41095 | 138346
3 | 30:44.47 | 7:27.00 | 138347 | 171871
4 | 38:11.47 | 6:16.17 | 171872 | 200088
5 | 44:27.64 | 3:49.44 | 200089 | 217307
6 | 48:17.33 | 9:26.33 | 217308 | 259790
7 | 57:43.66 | 9:56.33 | 259791 | 304523
8 | 67:40.24 | 11:40.61 | 304524 | 357084

Range status and errors

Selected range

Filename D:TempSBB – Anthology 1974 – 2004 Limited Edition box nr 0154 – CD 21 Sikorki.wav

Peak level 100.0 %
Range quality 99.9 %
Copy CRC 1043ED9D
Copy OK

No errors occurred

AccurateRip summary

Track 1 not present in database
Track 2 not present in database
Track 3 not present in database
Track 4 not present in database
Track 5 not present in database
Track 6 not present in database
Track 7 not present in database
Track 8 not present in database

None of the tracks are present in the AccurateRip database

End of status report

cuetools report:
[CUETools log; Date: 2017. 02. 08. 11:22:57; Version: 2.1.6]
[CTDB TOCID: 0CWhxWS9LsZOIEUcV.aQOof316Y-] found.
Track | CTDB Status
1 | (11/11) Accurately ripped
2 | (11/11) Accurately ripped
3 | (11/11) Accurately ripped
4 | (11/11) Accurately ripped
5 | (11/11) Accurately ripped
6 | (11/11) Accurately ripped
7 | (11/11) Accurately ripped
8 | (11/11) Accurately ripped
[AccurateRip ID: 0019c9ff-00a732c3-88129908] found.
Track [ CRC | V2 ] Status
01 [02aec083|756d7678] (00+00/10) No match
02 [b2b3a9df|76577013] (00+00/10) No match
03 [3378cb9a|223fddcc] (00+00/10) No match
04 [25f234dc|9bf5b0af] (00+00/11) No match
05 [b9219544|e7f37549] (00+00/10) No match
06 [b89f880b|ccc196fd] (00+00/10) No match
07 [ad2e991c|de07c730] (00+00/10) No match
08 [9f6cb16c|94a4f8fa] (00+00/10) No match
Offsetted by 30:
01 [d7c15e27] (03/10) Accurately ripped
02 [7391204d] (03/10) Accurately ripped
03 [87b72006] (03/10) Accurately ripped
04 [36652cec] (04/11) Accurately ripped
05 [01b9f03a] (03/10) Accurately ripped
06 [9dddab2f] (03/10) Accurately ripped
07 [a7603b0c] (03/10) Accurately ripped
08 [9cab77ac] (03/10) Accurately ripped

Track Peak [ CRC32 ] [W/O NULL] [ LOG ]
– 100,0 [1043ED9D] [E5166901] CRC32
01 98,8 [6D9C3041] [4D2F9561]
02 99,7 [7092367A] [E0CA3124]
03 99,0 [E1E4D183] [A4FC8264]
04 99,4 [CFDEE948] [479CD3C2]
05 99,7 [BCDE33C7] [80CC7246]
06 99,6 [E746FB96] [DECD10AA]
07 99,7 [6166F05B] [83775683]
08 100,0 [9EB7D39E] [83C3439C]

––––––––––––––––––-

SBB - Anthology 1974-2004 (2004) (Limited Edition) [Re-Up]

CD22: Wicher w polu dmie (2004)

Track listing
01. Wicher W Polu Dmie (19:21)
02. Dwie Pogody Cz 2 (6:00)
03. Obraz Po Bitwie (5:27)
04. Erotyk (5:48)
05. W Samym Srodku Nocy (9:40)
06. Ciecie (6:06)
07. Z Ktorych Krwi Krew Moja (11:42)
08. Figo-Fago (11:54)

eac log:
Exact Audio Copy V0.99 prebeta 3 from 28. July 2007

EAC extraction logfile from 17. May 2008, 17:05

Sbb / Wicher W Polu Dmie

Used drive : HL-DT-STDVDRAM GSA-H42N Adapter: 0 ID: 0

Read mode : Secure
Utilize accurate stream : Yes
Defeat audio cache : Yes
Make use of C2 pointers : No

Read offset correction : 667
Overread into Lead-In and Lead-Out : No
Fill up missing offset samples with silence : Yes
Delete leading and trailing silent blocks : No
Null samples used in CRC calculations : Yes
Used interface : Installed external ASPI interface

Used output format : Monkey’s Audio Lossless Encoder
Selected bitrate : High Lossless Compression
Quality : High
Add ID3 tag : No
Command line compressor : C:Program FilesMonkey’s AudioMAC.exe

TOC of the extracted CD

Track | Start | Length | Start sector | End sector
––––––––––––––––––––––––––––-
1 | 0:00.00 | 19:21.10 | 0 | 87084
2 | 19:21.10 | 6:00.58 | 87085 | 114142
3 | 25:21.68 | 5:27.21 | 114143 | 138688
4 | 30:49.14 | 5:48.42 | 138689 | 164830
5 | 36:37.56 | 9:40.40 | 164831 | 208370
6 | 46:18.21 | 6:06.19 | 208371 | 235839
7 | 52:24.40 | 11:42.18 | 235840 | 288507
8 | 64:06.58 | 11:54.08 | 288508 | 342065

Range status and errors

Selected range

Filename D:TempSbb – Wicher W Polu Dmie.wav

Peak level 100.0 %
Range quality 99.9 %
Copy CRC 8CDAB1AB
Copy OK

No errors occurred

AccurateRip summary

Track 1 not present in database
Track 2 not present in database
Track 3 not present in database
Track 4 not present in database
Track 5 not present in database
Track 6 not present in database
Track 7 not present in database
Track 8 not present in database

None of the tracks are present in the AccurateRip database

End of status report

cuetools report:
[CUETools log; Date: 2017. 02. 08. 11:23:28; Version: 2.1.6]
[CTDB TOCID: RRkJBVE.JS8.5Zoj9AiuNQmJRQI-] found.
Track | CTDB Status
1 | (9/9) Accurately ripped
2 | (9/9) Accurately ripped
3 | (9/9) Accurately ripped
4 | (9/9) Accurately ripped
5 | (9/9) Accurately ripped
6 | (9/9) Accurately ripped
7 | (9/9) Accurately ripped
8 | (9/9) Accurately ripped
[AccurateRip ID: 00181a0d-009b626b-7211d008] found.
Track [ CRC | V2 ] Status
01 [032a723d|d006241d] (00+00/11) No match
02 [89585972|686886d6] (00+00/11) No match
03 [a01072ae|256e491d] (00+00/11) No match
04 [a3fe9e03|6559c6b1] (00+00/11) No match
05 [0e9fa1e5|730fac51] (00+00/11) No match
06 [193ee8b9|e1400170] (00+00/11) No match
07 [ddc5239b|882f730e] (00+00/11) No match
08 [67575a49|1e4656ff] (00+00/11) No match
Offsetted by 30:
01 [147e4fb4] (04/11) Accurately ripped
02 [40d8500a] (04/11) Accurately ripped
03 [f57cefaa] (04/11) Accurately ripped
04 [b8fc91b9] (04/11) Accurately ripped
05 [e5960877] (04/11) Accurately ripped
06 [3e9b38bf] (04/11) Accurately ripped
07 [c7075ef9] (04/11) Accurately ripped
08 [3e1270f9] (04/11) Accurately ripped

Track Peak [ CRC32 ] [W/O NULL] [ LOG ]
– 100,0 [8CDAB1AB] [7BE263A1] CRC32
01 99,3 [7A123BCE] [8E026D7A]
02 100,0 [9B3C86EB] [381BE3E2]
03 98,8 [1709403F] [671DE1E2]
04 99,2 [3A12A6E8] [06F2DA25]
05 99,6 [449809E5] [4A3D20A9]
06 99,4 [9C4EB1C7] [A21540AF]
07 98,8 [C666D47F] [22BC3BD8]
08 98,8 [2099655E] [B15A5300]

Thx to the original ripper

SBB – Anthology 1974-2004 (2004) (Limited Edition) [Re-Up] Download, Warez, DDL, Free, Full Album, Torrent, Legal.

Download