Saxon – Greatest Hits: Live! (1990)

Download
Saxon - Greatest Hits: Live! (1990)

Saxon – Greatest Hits: Live! (1990)
EAC | Flac(Image) + Cue + Log & MP3 CBR 320Kbps
Castle, ESSCD 132 | ~ 515 or 177 Mb | Scans(jpg) -> 18 Mb
Heavy Metal

While Saxon’s first live album, The Eagle Has Landed, failed to improve on the glory of the band’s early studio albums, their second live set Greatest Hits Live! actually does a nice job of weeding through their early hits and the rare gems in their latter records. Though the album will probably interest completists only, at least the band’s performances and sound quality is up to par.

by Eduardo Rivadavia, allmusic

Saxon - Greatest Hits: Live! (1990)

Saxon at Wiki | Saxon at Discogs | Saxon at Allmusic | Saxon HomePage

***********

Saxon – Greatest Hits: Live! (1990):

Saxon - Greatest Hits: Live! (1990)

Tracklist:

1. Opening Theme
2. Heavy Metal Thunder
3. Rock ‘n’ Roll Gypsy
4. And The Bands Played On
5. 20,000 Ft.
6. Ride Like The Wind
7. Motorcycle Man
8. 747 (Strangers In The Night)
9. See The Light Shinin’
10. Frozen Rainbow
11. Princess Of The Night
12. Wheels Of Steel
13. Denim And Leather
14. Crusader
15. Rockin’ Again
16. Back On The Streets

EAC Log
Exact Audio Copy V1.1 from 23. June 2015

EAC extraction logfile from 17. May 2017, 21:58

Saxon / Greatest Hits Live!

Used drive : ASUS DRW-24B1ST Adapter: 1 ID: 1

Read mode : Secure
Utilize accurate stream : Yes
Defeat audio cache : Yes
Make use of C2 pointers : No

Read offset correction : 6
Overread into Lead-In and Lead-Out : No
Fill up missing offset samples with silence : Yes
Delete leading and trailing silent blocks : No
Null samples used in CRC calculations : Yes
Used interface : Native Win32 interface for Win NT & 2000

Used output format : User Defined Encoder
Selected bitrate : 1024 kBit/s
Quality : High
Add ID3 tag : No
Command line compressor : C:Program Files (x86)Exact Audio CopyFlacflac.exe
Additional command line options : -V -8 -T "Genre=%genre%" -T "Artist=%artist%" -T "Title=%title%" -T "Album=%albumtitle%" -T "Date=%year%" -T "Tracknumber=%tracknr%" -T "Comment=%comment%" %source%

TOC of the extracted CD

Track | Start | Length | Start sector | End sector
––––––––––––––––––––––––––––-
1 | 0:00.32 | 1:37.20 | 32 | 7326
2 | 1:37.52 | 3:17.73 | 7327 | 22174
3 | 4:55.50 | 4:44.50 | 22175 | 43524
4 | 9:40.25 | 2:58.17 | 43525 | 56891
5 | 12:38.42 | 3:16.15 | 56892 | 71606
6 | 15:54.57 | 3:47.68 | 71607 | 88699
7 | 19:42.50 | 4:07.50 | 88700 | 107274
8 | 23:50.25 | 5:04.70 | 107275 | 130144
9 | 28:55.20 | 5:56.02 | 130145 | 156846
10 | 34:51.22 | 6:38.25 | 156847 | 186721
11 | 41:29.47 | 4:16.48 | 186722 | 205969
12 | 45:46.20 | 9:39.55 | 205970 | 249449
13 | 55:26.00 | 4:08.12 | 249450 | 268061
14 | 59:34.12 | 6:01.25 | 268062 | 295161
15 | 65:35.37 | 4:18.30 | 295162 | 314541
16 | 69:53.67 | 4:57.40 | 314542 | 336856

Range status and errors

Selected range

Filename E:Torrent# MY# Подготовка раздачSaxon1990 – Greatest Hits Live! (Castle, ESSCD 132, England)Saxon – Greatest Hits Live!.wav

Peak level 100.0 %
Extraction speed 6.5 X
Range quality 100.0 %
Test CRC 28CE9897
Copy CRC 28CE9897
Copy OK

No errors occurred

AccurateRip summary

Track 1 accurately ripped (confidence 6) [37A8CFC6] (AR v2)
Track 2 accurately ripped (confidence 6) [54BF0F0F] (AR v2)
Track 3 accurately ripped (confidence 6) [F4F40203] (AR v2)
Track 4 accurately ripped (confidence 6) [D9E3D46D] (AR v2)
Track 5 accurately ripped (confidence 6) [BF4596B6] (AR v2)
Track 6 accurately ripped (confidence 6) [4303CE97] (AR v2)
Track 7 accurately ripped (confidence 6) [8B2B3EE1] (AR v2)
Track 8 accurately ripped (confidence 6) [B23F692E] (AR v2)
Track 9 accurately ripped (confidence 6) [61749C8D] (AR v2)
Track 10 accurately ripped (confidence 6) [026B9F22] (AR v2)
Track 11 accurately ripped (confidence 6) [2CA62533] (AR v2)
Track 12 accurately ripped (confidence 6) [9E9D793B] (AR v2)
Track 13 accurately ripped (confidence 6) [3AFE9BD8] (AR v2)
Track 14 accurately ripped (confidence 6) [1E283571] (AR v2)
Track 15 accurately ripped (confidence 6) [1F36E14E] (AR v2)
Track 16 accurately ripped (confidence 5) [4D89CD4F] (AR v2)

All tracks accurately ripped

End of status report

–– CUETools DB Plugin V2.1.6

[CTDB TOCID: NZBLsqnJo5zWTsy1vgKj7edWqJ8-] found
Submit result: already submitted
Track | CTDB Status
1 | (7/7) Accurately ripped
2 | (7/7) Accurately ripped
3 | (7/7) Accurately ripped
4 | (7/7) Accurately ripped
5 | (7/7) Accurately ripped
6 | (7/7) Accurately ripped
7 | (7/7) Accurately ripped
8 | (7/7) Accurately ripped
9 | (6/7) Accurately ripped
10 | (7/7) Accurately ripped
11 | (6/7) Accurately ripped
12 | (6/7) Accurately ripped
13 | (7/7) Accurately ripped
14 | (7/7) Accurately ripped
15 | (7/7) Accurately ripped
16 | (7/7) Accurately ripped

==== Log checksum 069569581C7CE66A38BB25C55BCBD27245EBE527C00FE0B55917E1E1A4606A04 ====

DR Log
foobar2000 1.2.9 / Dynamic Range Meter 1.1.1
log date: 2017-07-09 14:02:10

––––––––––––––––––––––––––––––––––––––––
Analyzed: Saxon / Greatest Hits Live!
––––––––––––––––––––––––––––––––––––––––

DR Peak RMS Duration Track
––––––––––––––––––––––––––––––––––––––––
DR13 -0.60 dB -18.68 dB 1:37 01-Opening Theme
DR13 0.00 dB -14.07 dB 3:18 02-Heavy Metal Thunder
DR13 -0.75 dB -15.50 dB 4:45 03-Rock ‘n’ Roll Gypsy
DR13 0.00 dB -13.90 dB 2:58 04-And The Bands Played On
DR13 0.00 dB -14.00 dB 3:16 05-20,000 Ft.
DR13 -0.29 dB -14.36 dB 3:48 06-Ride Like The Wind
DR13 0.00 dB -15.14 dB 4:08 07-Motorcycle Man
DR13 0.00 dB -15.29 dB 5:05 08-747 (Strangers In The Night)
DR13 0.00 dB -14.59 dB 5:56 09-See The Light Shinin’
DR15 0.00 dB -16.42 dB 6:38 10-Frozen Rainbow
DR13 -0.65 dB -15.50 dB 4:17 11-Princess Of The Night
DR13 -0.96 dB -17.43 dB 9:40 12-Wheels Of Steel
DR13 -1.23 dB -16.30 dB 4:08 13-Denim And Leather
DR13 -1.58 dB -16.78 dB 6:01 14-Crusader
DR13 0.00 dB -16.28 dB 4:18 15-Rockin’ Again
DR13 -1.31 dB -15.85 dB 4:58 16-Back On The Streets
––––––––––––––––––––––––––––––––––––––––

Number of tracks: 16
Official DR value: DR13

Samplerate: 44100 Hz
Channels: 2
Bits per sample: 16
Bitrate: 933 kbps
Codec: FLAC

CUETools Log
[CUETools log; Date: 09.07.2017 13:57:54; Version: 2.1.4]
Pregap length 00:00:32.
[CTDB TOCID: NZBLsqnJo5zWTsy1vgKj7edWqJ8-] found.
Track | CTDB Status
1 | (7/7) Accurately ripped
2 | (7/7) Accurately ripped
3 | (7/7) Accurately ripped
4 | (7/7) Accurately ripped
5 | (7/7) Accurately ripped
6 | (7/7) Accurately ripped
7 | (7/7) Accurately ripped
8 | (7/7) Accurately ripped
9 | (6/7) Accurately ripped
10 | (7/7) Accurately ripped
11 | (6/7) Accurately ripped
12 | (6/7) Accurately ripped
13 | (7/7) Accurately ripped
14 | (7/7) Accurately ripped
15 | (7/7) Accurately ripped
16 | (7/7) Accurately ripped
[AccurateRip ID: 0026c6ea-01e6b2c3-02118b10] found.
Track [ CRC | V2 ] Status
01 [80396b84|37a8cfc6] (06+06/15) Accurately ripped
02 [b098a1a2|54bf0f0f] (06+06/15) Accurately ripped
03 [877e6bc2|f4f40203] (06+06/15) Accurately ripped
04 [6ca760e2|d9e3d46d] (06+06/15) Accurately ripped
05 [287cbe62|bf4596b6] (06+06/15) Accurately ripped
06 [86d002af|4303ce97] (06+06/15) Accurately ripped
07 [7f8cc3ea|8b2b3ee1] (06+06/15) Accurately ripped
08 [0e7e5b78|b23f692e] (06+06/15) Accurately ripped
09 [ef8c45e4|61749c8d] (06+06/15) Accurately ripped
10 [24861688|026b9f22] (06+06/15) Accurately ripped
11 [c5e05348|2ca62533] (06+06/15) Accurately ripped
12 [47e51d2d|9e9d793b] (06+06/15) Accurately ripped
13 [6c788322|3afe9bd8] (06+06/15) Accurately ripped
14 [c4816256|1e283571] (06+06/15) Accurately ripped
15 [959c1931|1f36e14e] (06+06/15) Accurately ripped
16 [988405a8|4d89cd4f] (06+05/14) Accurately ripped
Offsetted by -825:
01 [871a112a] (03/15) Accurately ripped
02 [87bbd591] (03/15) Accurately ripped
03 [936be0b5] (03/15) Accurately ripped
04 [b2f8f79f] (03/15) Accurately ripped
05 [b4d0d78c] (03/15) Accurately ripped
06 [0b11ad6e] (03/15) Accurately ripped
07 [dc46c2f2] (03/15) Accurately ripped
08 [adb3b406] (03/15) Accurately ripped
09 [879ec374] (03/15) Accurately ripped
10 [633d4f35] (03/15) Accurately ripped
11 [3032d056] (03/15) Accurately ripped
12 [dbbbbcd1] (03/15) Accurately ripped
13 [b2b4aab7] (03/15) Accurately ripped
14 [8198ef0f] (03/15) Accurately ripped
15 [e8cfe422] (03/15) Accurately ripped
16 [94c3a7d5] (03/14) Accurately ripped

Track Peak [ CRC32 ] [W/O NULL] [ LOG ]
– 100,0 [28CE9897] [F629942C] CRC32
01 93,3 [ED8E7B32] [4BDC2F32]
02 100,0 [85FFAD8E] [C23DFFC2]
03 91,6 [14E17C63] [94C12A35]
04 100,0 [665D2C96] [E6F7256B]
05 100,0 [EFF7B9BA] [FC961A39]
06 96,6 [C1A22818] [40088599]
07 100,0 [729629C3] [9F01A9F4]
08 100,0 [E62BDE11] [6BEA787B]
09 100,0 [D55124D3] [D23AE8B8]
10 100,0 [C2783BBE] [4D9C6817]
11 92,8 [19C3AA81] [FC5A5A56]
12 89,4 [523EDEE6] [700AA883]
13 86,8 [5A5E0D4F] [2486037B]
14 83,4 [B433EBCD] [37FD1326]
15 100,0 [28A1306E] [CB9B33DC]
16 86,0 [E06D4F1C] [8784D976]

Saxon - Greatest Hits: Live! (1990)

All thanks go to Ginger Devil

Saxon in my Blog

Download Saxon – Greatest Hits: Live! (1990):

Saxon – Greatest Hits: Live! (1990) Download, Warez, DDL, Free, Full Album, Torrent, Legal.

Download