Sasha – Refracted: Live (2017) [2xBDRip 1080p]

Download
Sasha - Refracted: Live (2017) [2xBDRip 1080p]

Sasha – Refracted: Live (2017)
BDRip 1080p | MKV | 1920×1080 (16:9) at 25.000 fps, AVC (High@L4.1)
Audio: 48 kHz, 16 bits, 2 channels, AC-3 | Length: 00:59:58 + 01:04:00 | 4.437 GB + 4.439 GB
Genre: Electronic, House, Ambient

The Blu-Ray enables fans who missed the two record-sell-out shows in May to catch up with the lucky ones who witnessed Sasha’s towering presence dominating centre stage at his live performance debut. Those whose fast trigger fingers snagged them a ticket will now have the whole show to relive at will, though as only 2000 copies will be released, speed will be of the essence again. But for everyone, the stunning Xpander rework is now available for all to stream on Spotify, Soundcloud and Youtube.

Sasha’s focus on the future and fresh worlds to conquer made it unlikely he’d revisit his seminal cut, which electrified dancefloors in 1999 and has been spoken of with awe ever since. So he began a seemingly new piece on stage, which then revealed itself to be a special new rework, bringing the stunned audience to their feet in a goosebump-inducing joyful finale.

Sasha - Refracted: Live (2017) [2xBDRip 1080p]

Sasha - Refracted: Live (2017) [2xBDRip 1080p]

Sasha - Refracted: Live (2017) [2xBDRip 1080p]

Sasha - Refracted: Live (2017) [2xBDRip 1080p]

Sasha - Refracted: Live (2017) [2xBDRip 1080p]

Tracklist

Disc 01
01 Channel Deq
02 Linepulse
03 Baracus
04 View 2
05 Detour
06 Pontiac
07 Time After Time
08 Modcon
09 Interstellar
10 Warewolf
11 Bring on the Night-time
12 Vapourtrails
13 Rooms

Disc 02
01 Gothika
02 Sparky
03 Celestial
04 Battleships
05 Belfunk
06 Every Love That Ever Was
07 Burma
08 Smile
09 Wavy Gravy
10 Xpander

MediaInfo Disc 01
General
Unique ID : 235269147439682901488641879240993347407 (0xB0FF3089EAE17C309E4B6DD9F5DB174F)
Complete name : A:Roberto CumbretaSasha.Refracted.Live.2017.PART1.1080p.MBLURAY.x264-DEV0sasha.refracted.live.2017.part1.1080p.mbluray.x264-dev0.mkv
Format : Matroska
Format version : Version 4 / Version 2
File size : 4.37 GiB
Duration : 59 min 58 s
Overall bit rate : 10.4 Mb/s
Encoded date : UTC 2017-10-05 16:22:25
Writing application : mkvmerge v8.3.0 (‘Over the Horizon’) 64bit
Writing library : libebml v1.3.1 + libmatroska v1.4.2

Video
ID : 1
Format : AVC
Format/Info : Advanced Video Codec
Format profile : High@L4.1
Format settings, CABAC : Yes
Format settings, ReFrames : 4 frames
Codec ID : V_MPEG4/ISO/AVC
Duration : 59 min 58 s
Bit rate : 9 985 kb/s
Width : 1 920 pixels
Height : 1 080 pixels
Display aspect ratio : 16:9
Frame rate mode : Constant
Frame rate : 25.000 FPS
Color space : YUV
Chroma subsampling : 4:2:0
Bit depth : 8 bits
Scan type : Progressive
Bits/(Pixel*Frame) : 0.193
Stream size : 4.18 GiB (96%)
Writing library : x264 core 152 r2851 ba24899
Encoding settings : cabac=1 / ref=4 / deblock=1:-3:-3 / analyse=0x3:0x133 / me=umh / subme=9 / psy=1 / psy_rd=1.00:0.00 / mixed_ref=1 / me_range=16 / chroma_me=1 / trellis=2 / 8x8dct=1 / cqm=0 / deadzone=21,11 / fast_pskip=0 / chroma_qp_offset=-2 / threads=18 / lookahead_threads=1 / sliced_threads=0 / nr=0 / decimate=1 / interlaced=0 / bluray_compat=0 / constrained_intra=0 / bframes=3 / b_pyramid=2 / b_adapt=1 / b_bias=0 / direct=3 / weightb=1 / open_gop=0 / weightp=2 / keyint=250 / keyint_min=25 / scenecut=40 / intra_refresh=0 / rc_lookahead=50 / rc=2pass / mbtree=1 / bitrate=9985 / ratetol=1.0 / qcomp=0.60 / qpmin=0 / qpmax=69 / qpstep=4 / cplxblur=20.0 / qblur=0.5 / ip_ratio=1.40 / aq=1:1.00
Language : English
Default : Yes
Forced : No

Audio
ID : 2
Format : AC-3
Format/Info : Audio Coding 3
Mode extension : CM (complete main)
Format settings, Endianness : Big
Codec ID : A_AC3
Duration : 59 min 58 s
Bit rate mode : Constant
Bit rate : 448 kb/s
Channel(s) : 2 channels
Channel positions : Front: L R
Sampling rate : 48.0 kHz
Frame rate : 31.250 FPS (1536 spf)
Bit depth : 16 bits
Compression mode : Lossy
Stream size : 192 MiB (4%)
Language : English
Default : Yes
Forced : No

Menu
00:00:00.000 : en:00:00:00.000
00:02:47.520 : en:00:02:47.520
00:15:28.320 : en:00:15:28.320
00:27:50.880 : en:00:27:50.880
00:38:03.360 : en:00:38:03.360
00:51:03.360 : en:00:51:03.360

MediaInfo Disc 02
General
Unique ID : 186480459740013094951614527504021866262 (0x8C4AD4846CB23F71B9B1B10D6E2A4716)
Complete name : A:Roberto CumbretaSasha.Refracted.Live.2017.PART2.1080p.MBLURAY.x264-DEV0sasha.refracted.live.2017.part2.1080p.mbluray.x264-dev0.mkv
Format : Matroska
Format version : Version 4 / Version 2
File size : 4.37 GiB
Duration : 1 h 4 min
Overall bit rate : 9 684 kb/s
Encoded date : UTC 2017-10-05 19:32:49
Writing application : mkvmerge v8.3.0 (‘Over the Horizon’) 64bit
Writing library : libebml v1.3.1 + libmatroska v1.4.2

Video
ID : 1
Format : AVC
Format/Info : Advanced Video Codec
Format profile : High@L4.1
Format settings, CABAC : Yes
Format settings, ReFrames : 4 frames
Codec ID : V_MPEG4/ISO/AVC
Duration : 1 h 4 min
Bit rate : 9 234 kb/s
Width : 1 920 pixels
Height : 1 080 pixels
Display aspect ratio : 16:9
Frame rate mode : Constant
Frame rate : 25.000 FPS
Color space : YUV
Chroma subsampling : 4:2:0
Bit depth : 8 bits
Scan type : Progressive
Bits/(Pixel*Frame) : 0.178
Stream size : 4.17 GiB (95%)
Writing library : x264 core 152 r2851 ba24899
Encoding settings : cabac=1 / ref=4 / deblock=1:-3:-3 / analyse=0x3:0x133 / me=umh / subme=9 / psy=1 / psy_rd=1.00:0.00 / mixed_ref=1 / me_range=16 / chroma_me=1 / trellis=2 / 8x8dct=1 / cqm=0 / deadzone=21,11 / fast_pskip=0 / chroma_qp_offset=-2 / threads=18 / lookahead_threads=1 / sliced_threads=0 / nr=0 / decimate=1 / interlaced=0 / bluray_compat=0 / constrained_intra=0 / bframes=3 / b_pyramid=2 / b_adapt=1 / b_bias=0 / direct=3 / weightb=1 / open_gop=0 / weightp=2 / keyint=250 / keyint_min=25 / scenecut=40 / intra_refresh=0 / rc_lookahead=50 / rc=2pass / mbtree=1 / bitrate=9234 / ratetol=1.0 / qcomp=0.60 / qpmin=0 / qpmax=69 / qpstep=4 / cplxblur=20.0 / qblur=0.5 / ip_ratio=1.40 / aq=1:1.00
Language : English
Default : Yes
Forced : No

Audio
ID : 2
Format : AC-3
Format/Info : Audio Coding 3
Mode extension : CM (complete main)
Format settings, Endianness : Big
Codec ID : A_AC3
Duration : 1 h 4 min
Bit rate mode : Constant
Bit rate : 448 kb/s
Channel(s) : 2 channels
Channel positions : Front: L R
Sampling rate : 48.0 kHz
Frame rate : 31.250 FPS (1536 spf)
Bit depth : 16 bits
Compression mode : Lossy
Stream size : 207 MiB (5%)
Language : English
Default : Yes
Forced : No

Menu
00:00:00.000 : en:00:00:00.000
00:05:18.240 : en:00:05:18.240
00:22:33.600 : en:00:22:33.600
00:29:17.760 : en:00:29:17.760
00:41:43.680 : en:00:41:43.680
00:52:32.640 : en:00:52:32.640

Thanks to the original uploader

Sasha – Refracted: Live (2017) [2xBDRip 1080p] Download, Warez, DDL, Free, Full Album, Torrent, Legal.

Download