Sarah Brightman – Harem (2003) [Limited Edition, Japan]

Download
Sarah Brightman - Harem (2003) [Limited Edition, Japan]

Sarah Brightman – Harem (2003)
EAC | Flac(Image) + Cue + Log & MP3 CBR 320Kbps
Angel Records, TOCP-67270 | ~ 477 or 166 Mb | Scans(jpg) -> 10 Mb
DVD5: NTSC 4:3 (720×480) VBR | Dolby AC3, 2ch, 448kbps / LPCM, 2 ch -> 3.06 Gb
Neo-Classical, Vocal, Classical, Ballad

Adopting a Middle Eastern flavor to enhance her blend of classical and new age pop, Sarah Brightman’s Harem continues her experimentation with thematic discs that began with 1993’s oceanic Dive. These themes, while never dominant or original, are simply meant to enhance her brand of crossover just enough to keep listeners interested in hearing her next project. Harem accomplishes that feat by shrouding new age pop songs in a thin Middle Eastern veil that disguises, but never completely covers, Brightman’s true musical identity. It works well when she fully utilizes the theme, as on the opening title track where Brightman’s fragile operatic voice is able to capture the traditional phrasing without sounding forced. But when the formula simply dresses up a pop/dance song like "The Journey Home," the results are less interesting and cross into territory already explored by the group Enigma and its worldly hits. Elsewhere, Brightman appears to have been taking classes at the Kate Bush vocal institute, sounding eerily similar to the English thrush on the quiet tracks "What You Never Know" and "Free," her writing collaboration with Sophie B. Hawkins. Retaining her classical leanings, Brightman successfully incorporates "Un Bel Di," from Puccini’s Madame Butterfly, into the surging beats of "It’s a Beautiful Day," her best attempt at creating a chart-worthy hit. Middle Eastern music stars like Kazem al-Saher and the late Ofra Haza lend an air of authenticity, while the tasteful arrangements by former Killing Joke frontman Jaz Coleman refrain from overpowering Brightman’s voice or sinking into an Arabian parody. The disc gets a bit long by the time it reaches the unnecessary standard "Stranger in Paradise," but Brightman’s Harem adventure is interesting enough to have listeners packed and ready to travel with her on another musical journey.

by Aaron Latham, allmusic

Sarah Brightman – Harem (2003):

Sarah Brightman - Harem (2003) [Limited Edition, Japan]

Tracklist CD:

1. Harem
2. What A Wonderful World
3. It’s A Beautiful Day
4. What You Never Know
5. The Journey Home
6. Free
7. Mysterious Days
8. The War Is Over
9. Misere Mei
10. Beautiful
11. Arabian Nights (Scimitar Moon/Voyage/Promise/Hamesha/Alone)
12. Stranger In Paradise
13. Until The End Of Time
14. Sarahbande
15. Tout Ce Que Je Sais
16. Gueri De Toi

EAC Log
Exact Audio Copy V0.99 prebeta 4 from 23. January 2008

Отчёт EAC об извлечении, выполненном 7. февраля 2009, 22:20

Sarah Brightman / Harem

Дисковод: PIONEER DVD-RW DVR-212 Adapter: 1 ID: 1

Режим чтения : Достоверность
Использование точного потока : Да
Отключение кэша аудио : Да
Использование указателей C2 : Нет

Коррекция смещения при чтении : 48
Способность читать области Lead-in и Lead-out : Нет
Заполнение пропущенных сэмплов тишиной : Да
Удаление блоков с тишиной в начале и конце : Нет
При вычислениях CRC использовались нулевые сэмплы : Да
Интерфейс : Встроенный Win32-интерфейс для Win NT/2000

Выходной формат : Внутренние WAV-операции
Формат сэмплов : 44.100 Гц; 16 бит; стерео

TOC извлечённого CD

Трек | Старт | Длительность | Начальный сектор | Конечный сектор
––––––––––––––––––––––––––––––––––-
1 | 0:00.00 | 5:45.17 | 0 | 25891
2 | 5:45.17 | 3:40.20 | 25892 | 42411
3 | 9:25.37 | 3:56.33 | 42412 | 60144
4 | 13:21.70 | 3:24.12 | 60145 | 75456
5 | 16:46.07 | 4:56.13 | 75457 | 97669
6 | 21:42.20 | 3:45.00 | 97670 | 114544
7 | 25:27.20 | 5:17.05 | 114545 | 138324
8 | 30:44.25 | 5:15.02 | 138325 | 161951
9 | 35:59.27 | 0:54.53 | 161952 | 166054
10 | 36:54.05 | 4:35.35 | 166055 | 186714
11 | 41:29.40 | 8:50.32 | 186715 | 226496
12 | 50:19.72 | 4:27.20 | 226497 | 246541
13 | 54:47.17 | 4:32.13 | 246542 | 266954
14 | 59:19.30 | 3:50.10 | 266955 | 284214
15 | 63:09.40 | 3:29.05 | 284215 | 299894
16 | 66:38.45 | 3:48.42 | 299895 | 317036
17 | 72:59.12 | 6:53.63 | 328437 | 359474

Характеристики диапазона извлечения и сообщения об ошибках

Выбранный диапазон

Имя файла D:Torrents – раздачиEAC ripsSarah Brightman – Harem (Japanese Deluxe Edition)Sarah Brightman – Harem.wav

Пиковый уровень 99.1 %
Качество диапазона 99.9 %
CRC копии E46D9B8B
Копирование… OK

Ошибок не произошло

AccurateRip: сводка

Трек 1 нет в базе данных
Трек 2 нет в базе данных
Трек 3 нет в базе данных
Трек 4 нет в базе данных
Трек 5 нет в базе данных
Трек 6 нет в базе данных
Трек 7 нет в базе данных
Трек 8 нет в базе данных
Трек 9 нет в базе данных
Трек 10 нет в базе данных
Трек 11 нет в базе данных
Трек 12 нет в базе данных
Трек 13 нет в базе данных
Трек 14 нет в базе данных
Трек 15 нет в базе данных
Трек 16 нет в базе данных

Ни одного трека нет в базе AccurateRip

Конец отчёта

DR Log
foobar2000 1.2.9 / Dynamic Range Meter 1.1.1
log date: 2017-07-09 14:56:11

––––––––––––––––––––––––––––––––––––––––
Analyzed: Sarah Brightman / Harem
––––––––––––––––––––––––––––––––––––––––

DR Peak RMS Duration Track
––––––––––––––––––––––––––––––––––––––––
DR7 -0.10 dB -9.78 dB 5:45 01-Harem
DR7 -0.10 dB -10.37 dB 3:40 02-What a Wonderful World
DR6 -0.10 dB -8.86 dB 3:56 03-It’s a Beautiful Day
DR7 -0.10 dB -10.74 dB 3:24 04-What You Never Know
DR7 -0.10 dB -9.88 dB 4:56 05-The Journey Home
DR7 -0.10 dB -10.65 dB 3:45 06-Free
DR7 -0.10 dB -8.90 dB 5:17 07-Mysterious Days
DR6 -0.10 dB -8.91 dB 5:15 08-The War is Over
DR9 -3.69 dB -17.00 dB 0:55 09-Misere Mei
DR7 -0.10 dB -8.53 dB 4:35 10-Beautiful
DR7 -0.07 dB -9.86 dB 8:50 11-Arabian Nights
DR9 -0.10 dB -13.02 dB 4:27 12-Stranger in Paradise
DR7 -0.10 dB -9.92 dB 4:32 13-Until the End of Time
DR4 -0.16 dB -7.52 dB 3:50 14-Sarahbande
DR7 -0.10 dB -10.77 dB 3:29 15-Tout Ce Que Je Sais
DR6 -0.10 dB -9.62 dB 3:49 16-Gueri De Toi
––––––––––––––––––––––––––––––––––––––––

Number of tracks: 16
Official DR value: DR7

Samplerate: 44100 Hz
Channels: 2
Bits per sample: 16
Bitrate: 918 kbps
Codec: FLAC

CUETools Log
[CUETools log; Date: 09.07.2017 14:55:57; Version: 2.1.4]
CD-Extra data track length 06:53:63.
[CTDB TOCID: .4FKs1jtRrUJuS_X6uc2uXsxEjc-] found.
Track | CTDB Status
1 | (2/2) Accurately ripped
2 | (2/2) Accurately ripped
3 | (2/2) Accurately ripped
4 | (2/2) Accurately ripped
5 | (2/2) Accurately ripped
6 | (2/2) Accurately ripped
7 | (2/2) Accurately ripped
8 | (2/2) Accurately ripped
9 | (2/2) Accurately ripped
10 | (2/2) Accurately ripped
11 | (2/2) Accurately ripped
12 | (2/2) Accurately ripped
13 | (2/2) Accurately ripped
14 | (2/2) Accurately ripped
15 | (2/2) Accurately ripped
16 | (2/2) Accurately ripped
[AccurateRip ID: 002a00eb-01fc0fb0-da12b911] found.
Track [ CRC | V2 ] Status
01 [8dbae17e|64179870] (1+1/2) Accurately ripped
02 [0bddcf71|b1f93a7d] (1+1/2) Accurately ripped
03 [52e8bd10|54002f63] (1+1/2) Accurately ripped
04 [4fba9c7d|97311ca7] (1+1/2) Accurately ripped
05 [7d5393c3|22283448] (1+1/2) Accurately ripped
06 [42fdb872|1b70e104] (1+1/2) Accurately ripped
07 [58c9f5bd|7a7481c7] (1+1/2) Accurately ripped
08 [27a8e65e|ffcd6efc] (1+1/2) Accurately ripped
09 [6939a23d|6ea809c5] (1+1/2) Accurately ripped
10 [59ef8d9c|28ac9ac5] (1+1/2) Accurately ripped
11 [b4d32ec5|50eb4fc6] (1+1/2) Accurately ripped
12 [b44c84f7|8bec676d] (1+1/2) Accurately ripped
13 [056b70a8|688c8155] (1+1/2) Accurately ripped
14 [9b468678|92d6915f] (1+1/2) Accurately ripped
15 [0974a277|bb514479] (1+1/2) Accurately ripped
16 [842c25a0|243d878f] (1+1/2) Accurately ripped

Track Peak [ CRC32 ] [W/O NULL] [ LOG ]
– 99,1 [E46D9B8B] [18F3C011] CRC32
01 98,8 [62DA7167] [C4EB8A66]
02 98,8 [1C074B2B] [15ED1807]
03 98,8 [F3839F22] [8F89FE85]
04 98,8 [144C57D8] [CD0161BC]
05 98,8 [8EBA554B] [05960AC0]
06 98,8 [AC41C7A6] [B3524E54]
07 98,8 [3E5B0234] [1B3A0271]
08 98,8 [1FD2F2F3] [33B62CAD]
09 65,4 [7F701280] [E677C289]
10 98,8 [1F7CD198] [AC8E97D8]
11 99,1 [E7A3C9E7] [C1EDDC62]
12 98,8 [B6E5E201] [FC3AF8CD]
13 98,8 [0F6091B3] [EBCC6170]
14 98,1 [C2CACD78] [15C0E2FE]
15 98,8 [233AA980] [598DFFFF]
16 98,8 [8F3F2F7F] [6F9B4D19]

Sarah Brightman - Harem (2003) [Limited Edition, Japan]

Tracklist DVD:

I. Making Of Harem
II. Harem Music Video
III. About Sarah
IV. Photo Gallery
V. About DVD

DVDinfo
Title: Sarah Brightman 2003 – Harem (Japanese Deluxe Edition) – DVD
Size: 2.85 Gb ( 2 985 452,00 KBytes ) – DVD-5
Enabled regions: 1, 2, 3, 4, 5, 6, 7, 8

VTS_01 :
Play Length: 00:39:10
Video: NTSC 4:3 (720×480) VBR
Audio:
Not specified, AC3, 2/0 (L,R) ch, 448 kbps, Delay 0 mSec

VTS_02 :
Play Length: 00:05:45+00:05:46
Video: NTSC 4:3 (720×480) VBR
Audio:
Not specified (Dolby AC3, 2 ch)

VTS_03 :
Play Length: 00:02:37
Video: NTSC 4:3 (720×480) VBR
Audio:
Not specified (LinearPCM, 2 ch)

Sarah Brightman - Harem (2003) [Limited Edition, Japan]

Sarah Brightman - Harem (2003) [Limited Edition, Japan]

Sarah Brightman - Harem (2003) [Limited Edition, Japan]

Sarah Brightman - Harem (2003) [Limited Edition, Japan]

Sarah Brightman - Harem (2003) [Limited Edition, Japan]

Sarah Brightman - Harem (2003) [Limited Edition, Japan]

* * *

Sarah Brightman - Harem (2003) [Limited Edition, Japan]

All thanks go to espoir

Sarah Brightman in my Blog

Download Sarah Brightman – Harem (2003):

Sarah Brightman – Harem (2003) [Limited Edition, Japan] Download, Warez, DDL, Free, Full Album, Torrent, Legal.

Download