Sandro – Muchacho (1970) [1999, Remastered with Bonus Tracks]

Download
Sandro - Muchacho (1970) [1999, Remastered with Bonus Tracks]

Sandro – Muchacho (1970) [1999, Remastered with Bonus Tracks]
Pop/Rock, Latin, Ballad | EAC Rip | FLAC, Tracks+CUE+LOG+Scans (JPEG) | 45:05 Min | 286,61 Mb
Label: Sony Music Entertainment (Argentina) S.A. | Released: 1999 (1970)

Roberto Sánchez-Ocampo (August 19, 1945 – January 4, 2010), better known by his artist names Sandro/Sandro de América (“Sandro of America”), Gitano (gypsy), and the Argentine Elvis, was a notable Argentine singer and actor. He is considered one of the first rock artists to sing in Spanish in Latin America. He edited 52 official records and sold 50 million copies although other sources state that he sold over 75 million. Some of his most successful songs are Dame fuego, Rosa, Rosa, Quiero llenarme de ti, Penumbras, Porque yo te amo, Así, Mi amigo el Puma, Tengo, Trigal and Una muchacha y una guitarra. Only the single Rosa, Rosa sold 2 million copies, being also his most recognizable and famous song. Other of his hits, “Tengo”, was placed 15th amongst the 100 best Argentine rock songs by both MTV channel and Rolling Stone magazine. Sandro was also the first Latin American artist to sing at the Felt Forum at Madison Square Garden, in 1970, Sandro was the first singer to-do a via satellite concert in the world.on April 1970 that a concert was transmitted live to an entire region, namely the Western hemisphere. In 2005 Sandro was awarded with a Latin Grammy honoring his career.

~Wikipedia
Sandro - Muchacho (1970) [1999, Remastered with Bonus Tracks]

Sandro - Muchacho (1970) [1999, Remastered with Bonus Tracks]

Release of this album: 1970 [LP CBS, Cat.# 19.010, Argentina]
Release of this CD: 1999 [CD Columbia Records (Argentina), Cat.# 2-484943 / UPC: 5099748494320]
This compilation ℗ 1999 Sony Music Entertainment (Argentina) S.A.
Made in Argentina

Tracklist:

01. Mi Barca Y El Rio (02:43)
02. Te Propongo (02:26)
03. La Vida Sigue Igual (03:02)
04. Te Quiero Tanto, Amada Mía (03:18)
05. Ave De Paso (02:54)
06. Que Tarde La De Esta Tarde (02:31)
07. Las Colinas Del Amor (02:21)
08. Se Te Nota (03:08)
09. Pupilas De Cielo Breve (03:20)
10. Trigal (03:27)
11. Pobre Mi Madre Querida (03:27)
Bonus Tracks:
12. El Arcon De Tus Poemas (02:16)
13. Las Colinas Del Amor (02:21)
14. Esta Bien (02:55)
15. Pobre Mi Madre Querida (04:57)

EAC log
Exact Audio Copy V1.1 from 23. June 2015

Archivo Log de extracciones desde 25. Febrero 2016, 14:05

Sandro / Muchacho (1970)

Usar unidad : ASUS DRW-24F1ST a Adapter: 1 ID: 0

Modo de Lectura : : Seguro
Utilizar corriente precisa : Sí
Caché de audio por defecto : No
Utilizar los punteros C2 : No

Corrección de Desplazamiento de Lectura : : 6
Sobreleer tanto en Lead-In como en Lead-Out : No
Rellenar las muestras faltantes con silencios : Sí
Eliminar silencios inicial y final : No
Muestras nulas usadas en los calculos de CRC : Sí
Interfaz usada : Interfaz propio de Win32 para Windowns NT y 2000
Manejo de huecos : No se detectó, por lo que anexa a la pista anterior

Formato de Salida utilizado : : Compresor definido por el Usuario
Velocidad de bits seleccionada : 768 kBit/s
Calidad : Alta
Añadir ID3 tag : No
linea de comandos del compresor : C:Program Files (x86)Exact Audio CopyFLACFLAC.EXE
Opciones adicionales en línea de comandos : : -6 -V -T "ARTIST=%artist%" -T "TITLE=%title%" -T "ALBUM=%albumtitle%" -T "DATE=%year%" -T "TRACKNUMBER=%tracknr%" -T "GENRE=%genre%" -T "COMMENT=%comment%" -T "BAND=%albuminterpret%" -T "ALBUMARTIST=%albuminterpret%" -T "COMPOSER=%composer%" %haslyrics%–tag-from-file=LYRICS="%lyricsfile%"%haslyrics% -T "DISCNUMBER=%cdnumber%" -T "TOTALDISCS=%totalcds%" -T "TOTALTRACKS=%numtracks%" %hascover%–picture="%coverfile%"%hascover% %source% -o %dest%

TOC extraídos del CD

Pista | Inicio | Longitud | Inicio del sector | Fin del sector
–––––––––––––––––––––––––––––––––
1 | 0:00.00 | 2:42.60 | 0 | 12209
2 | 2:42.60 | 2:25.62 | 12210 | 23146
3 | 5:08.47 | 3:02.13 | 23147 | 36809
4 | 8:10.60 | 3:18.10 | 36810 | 51669
5 | 11:28.70 | 2:54.30 | 51670 | 64749
6 | 14:23.25 | 2:30.62 | 64750 | 76061
7 | 16:54.12 | 2:21.03 | 76062 | 86639
8 | 19:15.15 | 3:08.37 | 86640 | 100776
9 | 22:23.52 | 3:19.38 | 100777 | 115739
10 | 25:43.15 | 3:26.52 | 115740 | 131241
11 | 29:09.67 | 3:27.00 | 131242 | 146766
12 | 32:36.67 | 2:15.45 | 146767 | 156936
13 | 34:52.37 | 2:20.50 | 156937 | 167486
14 | 37:13.12 | 2:54.43 | 167487 | 180579
15 | 40:07.55 | 4:57.30 | 180580 | 202884

Pista 1

Nombre de Archivo F:EAC1 Mi Barca Y El Rio.wav

Nivel Pico 99.9 %
Velocidad de extracción 2.9 X
Calidad de Pista 100.0 %
Copiar CRC C8261ED7
Pista sin datos en Accuraterip
Copia OK

Pista 2

Nombre de Archivo F:EAC2 Te Propongo.wav

Nivel Pico 99.9 %
Velocidad de extracción 3.1 X
Calidad de Pista 100.0 %
Copiar CRC DAD69B62
Pista sin datos en Accuraterip
Copia OK

Pista 3

Nombre de Archivo F:EAC3 La Vida Sigue Igual.wav

Nivel Pico 99.9 %
Velocidad de extracción 3.3 X
Calidad de Pista 100.0 %
Copiar CRC 0DC38D76
Pista sin datos en Accuraterip
Copia OK

Pista 4

Nombre de Archivo F:EAC4 Te Quiero Tanto, Amada Mía.wav

Nivel Pico 99.9 %
Velocidad de extracción 3.5 X
Calidad de Pista 100.0 %
Copiar CRC 2D7B79D0
Pista sin datos en Accuraterip
Copia OK

Pista 5

Nombre de Archivo F:EAC5 Ave De Paso.wav

Nivel Pico 99.9 %
Velocidad de extracción 3.7 X
Calidad de Pista 100.0 %
Copiar CRC BFEC83C5
Pista sin datos en Accuraterip
Copia OK

Pista 6

Nombre de Archivo F:EAC6 Que Tarde La De Esta Tarde.wav

Nivel Pico 99.9 %
Velocidad de extracción 3.9 X
Calidad de Pista 100.0 %
Copiar CRC F92B278B
Pista sin datos en Accuraterip
Copia OK

Pista 7

Nombre de Archivo F:EAC7 Las Colinas Del Amor.wav

Nivel Pico 99.9 %
Velocidad de extracción 4.0 X
Calidad de Pista 100.0 %
Copiar CRC 2CF5753D
Pista sin datos en Accuraterip
Copia OK

Pista 8

Nombre de Archivo F:EAC8 Se Te Nota.wav

Nivel Pico 100.0 %
Velocidad de extracción 4.2 X
Calidad de Pista 100.0 %
Copiar CRC 7F9A6F89
Pista sin datos en Accuraterip
Copia OK

Pista 9

Nombre de Archivo F:EAC9 Pupilas De Cielo Breve.wav

Nivel Pico 99.9 %
Velocidad de extracción 4.2 X
Calidad de Pista 99.9 %
Copiar CRC B3FB4163
Pista sin datos en Accuraterip
Copia OK

Pista 10

Nombre de Archivo F:EAC10 Trigal.wav

Nivel Pico 99.9 %
Velocidad de extracción 4.5 X
Calidad de Pista 100.0 %
Copiar CRC 057F52D0
Pista sin datos en Accuraterip
Copia OK

Pista 11

Nombre de Archivo F:EAC11 Pobre Mi Madre Querida.wav

Nivel Pico 99.9 %
Velocidad de extracción 4.7 X
Calidad de Pista 100.0 %
Copiar CRC 721FB5A7
Pista sin datos en Accuraterip
Copia OK

Pista 12

Nombre de Archivo F:EAC12 El Arcon De Tus Poemas.wav

Nivel Pico 100.0 %
Velocidad de extracción 4.8 X
Calidad de Pista 100.0 %
Copiar CRC B9D799D5
Pista sin datos en Accuraterip
Copia OK

Pista 13

Nombre de Archivo F:EAC13 Las Colinas Del Amor.wav

Nivel Pico 99.9 %
Velocidad de extracción 4.9 X
Calidad de Pista 100.0 %
Copiar CRC 98122E46
Pista sin datos en Accuraterip
Copia OK

Pista 14

Nombre de Archivo F:EAC14 Esta Bien.wav

Nivel Pico 99.9 %
Velocidad de extracción 5.0 X
Calidad de Pista 100.0 %
Copiar CRC DA32B127
Pista sin datos en Accuraterip
Copia OK

Pista 15

Nombre de Archivo F:EAC15 Pobre Mi Madre Querida.wav

Nivel Pico 100.0 %
Velocidad de extracción 5.3 X
Calidad de Pista 100.0 %
Copiar CRC 5266E3F4
Pista sin datos en Accuraterip
Copia OK

Ninguna pista tiene datos en AccurateRip

Sin Errores

Final del Informe

–– CUETools DB Plugin V2.1.6

[CTDB TOCID: A3BR6nC6Zlb5qwSieLroRQaHRUs-] disk not present in database
Submit result: A3BR6nC6Zlb5qwSieLroRQaHRUs- has been uploaded

Dynamic Range Meter log
––––––––––––––––––––––––––––––––––––––––
Analyzed: Sandro / Muchacho (1970)
––––––––––––––––––––––––––––––––––––––––

DR Peak RMS Duration Track
––––––––––––––––––––––––––––––––––––––––
DR11 0.00 dB -13.08 dB 2:43 01-Mi Barca Y El Rio
DR12 0.00 dB -16.08 dB 2:26 02-Te Propongo
DR12 0.00 dB -14.16 dB 3:02 03-La Vida Sigue Igual
DR11 0.00 dB -13.95 dB 3:18 04-Te Quiero Tanto, Amada Mía
DR13 0.00 dB -14.79 dB 2:54 05-Ave De Paso
DR14 0.00 dB -18.13 dB 2:31 06-Que Tarde La De Esta Tarde
DR13 0.00 dB -15.61 dB 2:21 07-Las Colinas Del Amor
DR11 0.00 dB -14.01 dB 3:08 08-Se Te Nota
DR14 0.00 dB -17.09 dB 3:20 09-Pupilas De Cielo Breve
DR11 0.00 dB -13.13 dB 3:27 10-Trigal
DR13 0.00 dB -15.77 dB 3:27 11-Pobre Mi Madre Querida
DR12 0.00 dB -15.09 dB 2:16 12-El Arcon De Tus Poemas
DR12 0.00 dB -16.00 dB 2:21 13-Las Colinas Del Amor
DR12 0.00 dB -15.19 dB 2:55 14-Esta Bien
DR12 0.00 dB -15.31 dB 4:57 15-Pobre Mi Madre Querida
––––––––––––––––––––––––––––––––––––––––

Number of tracks: 15
Official DR value: DR12

Samplerate: 44100 Hz
Channels: 2
Bits per sample: 16
Bitrate: 769 kbps
Codec: FLAC
================================================================================

All thanks to the original releaser

password: BlondStyle

Sandro – Muchacho (1970) [1999, Remastered with Bonus Tracks] Download, Warez, DDL, Free, Full Album, Torrent, Legal.

Download