Sandra – The Long Play (1985) [1988, Japan, 1st press]

Download
Sandra - The Long Play (1985) [1988, Japan, 1st press]

Sandra – The Long Play (1985) [1988, Japan, 1st press]
Pop/Rock, Electronic, Dance-Pop | EAC Rip | FLAC, Img+CUE+LOG+Scans (PNG) | 36:44 Min | 348,47 Mb
Label: Virgin Japan Ltd. (Japan) | Cat.# VJD-121 | Released: 1988-04-21 (1985-12-09)
Sandra - The Long Play (1985) [1988, Japan, 1st press]

“The Long Play” is the debut studio album by German pop singer Sandra, released on 9 December 1985. The album was a great commercial success. The lead single “(I’ll Never Be) Maria Magdalena” was released in March 1985 and went on to top the charts in 21 countries worldwide. It stayed in the German top 20 for 16 weeks, remaining her Sandra’s only chart-topper in her home country, and is now considered her signature song. “In the Heat of the Night” was chosen as the follow-up single to the very successful “Maria Magdalena” in late 1985. The song was another commercial triumph, peaking within top 5 in a number of European countries, later earning Sandra second place at the Tokyo Music Festival in 1986. The single version would only become available on CD on “The Platinum Collection” in 2009. The third and final commercial single taken from The Long Play was “Little Girl”, released in early 1986. The song’s music video was filmed entirely on location in Venice, Italy. “Little Girl” met with modest success in international music market. “Sisters and Brothers” was released in 1988 as a promotional single in Japan only. The song, dedicated to Sandra’s brother Gaston, is a cover version of Michael Cretu’s song “Zeitlose Reise” from his 1983 solo album Legionäre.

~Wikipedia

Sandra - The Long Play (1985) [1988, Japan, 1st press]

Sandra - The Long Play (1985) [1988, Japan, 1st press]

Release of the album: 1985, December, 9 [LP Virgin, Cat.# 207 356, Europe]
Release of this CD: 1988, April, 21 [CD Virgin Japan Ltd. (Japan), Cat.# VJD-121 / EAN: no barcode]
℗ & © 1985 Virgin Schallplatten GmbH MAMBO MUSIC.
℗ 1988 Virgin Japan Ltd.
Made in Japan by Virgin Japan Ltd.

Credits:

Arranged By, Producer – Michael Cretu
Backing Vocals – Hubert Kemmler, Michael Cretu
Cover [At Ink Studios] – Mike Schmidt
Guitar – Markus Löhr
Keyboards [Digital And Conventional], Drum Programming [Drum Computers] – Michael Cretu
Lead Vocals – Sandra
Photography By – Dieter Eikelpoth

Tracklist:

01. In The Heat Of The Night (05:22)
(Hubert Kemmler, Klaus Hirschburger, Markus Löhr, Michael Cretu)
02. On The Tray (Seven Years) (03:47)
(Hubert Kemmler, Michael Cretu)
03. Little Girl (03:14)
(Hubert Kemmler, Markus Löhr, Michael Cretu)
04. You And I (05:57)
(Michael Cretu, Richard Palmer-James)
05. (I’ll Never Be) Maria Magdalena (05:58)
(Hubert Kemmler, Markus Löhr, Michael Cretu, Richard Palmer-James)
06. Heartbeat (That’s Emotion) (04:56)
(Chris Chirney, Marc Cassandra, Reinhard Besser)
07. Sisters And Brothers (03:25)
(Michael Cretu, Richard Palmer-James)
08. Change Your Mind (04:05)
(Michael Cretu, Richard Palmer-James).

EAC log
Exact Audio Copy V1.0 beta 3 from 29. August 2011

EAC extraction logfile from 21. May 2016, 0:10

Sandra / The Long Play

Used drive : PIONEER BD-RW BDR-208D Adapter: 1 ID: 0

Read mode : Secure
Utilize accurate stream : Yes
Defeat audio cache : Yes
Make use of C2 pointers : No

Read offset correction : 667
Overread into Lead-In and Lead-Out : No
Fill up missing offset samples with silence : Yes
Delete leading and trailing silent blocks : No
Null samples used in CRC calculations : Yes
Used interface : Native Win32 interface for Win NT & 2000

Used output format : Internal WAV Routines
Sample format : 44.100 Hz; 16 Bit; Stereo

TOC of the extracted CD

Track | Start | Length | Start sector | End sector
––––––––––––––––––––––––––––-
1 | 0:00.37 | 5:21.63 | 37 | 24174
2 | 5:22.25 | 3:46.62 | 24175 | 41186
3 | 9:09.12 | 3:13.45 | 41187 | 55706
4 | 12:22.57 | 5:56.58 | 55707 | 82464
5 | 18:19.40 | 5:57.67 | 82465 | 109306
6 | 24:17.32 | 4:56.25 | 109307 | 131531
7 | 29:13.57 | 3:24.65 | 131532 | 146896
8 | 32:38.47 | 4:05.25 | 146897 | 165296

Range status and errors

Selected range

Filename D:BlondStyleSandra – The Long Play.wav

Peak level 94.2 %
Extraction speed 6.8 X
Range quality 100.0 %
Test CRC 46CE9476
Copy CRC 46CE9476
Copy OK

No errors occurred

AccurateRip summary

Track 1 accurately ripped (confidence 1) [9A86B927] (AR v1)
Track 2 accurately ripped (confidence 1) [B68C0086] (AR v1)
Track 3 accurately ripped (confidence 1) [E03B5465] (AR v1)
Track 4 accurately ripped (confidence 1) [01CDB7AE] (AR v1)
Track 5 accurately ripped (confidence 1) [6840497C] (AR v1)
Track 6 accurately ripped (confidence 1) [194DBD39] (AR v1)
Track 7 accurately ripped (confidence 1) [007B3D19] (AR v1)
Track 8 accurately ripped (confidence 1) [2177E449] (AR v1)

All tracks accurately ripped

End of status report

–– CUETools DB Plugin V2.1.3

[CTDB TOCID: SGK6A14lw_KkeLKibqwJsGbE.Eo-] found, Submit result: discs with pregaps not supported in this protocol version
[06f5c2d0] (1/1) Differs in 0 samples @
You can use CUETools to repair this rip.

==== Log checksum E1A99DC521E5867A426D9A83486662E34940D700D16660B720E5B888C8476CDB ====

AccurateRip log
[Disc ID: 000b8b7c-004d00f4-5d089b08]
Track [ CRC ] Status
01 [9a86b927] (01/01) Accurately ripped as in pressing(s) #1
02 [b68c0086] (01/01) Accurately ripped as in pressing(s) #1
03 [e03b5465] (01/01) Accurately ripped as in pressing(s) #1
04 [01cdb7ae] (01/01) Accurately ripped as in pressing(s) #1
05 [6840497c] (01/01) Accurately ripped as in pressing(s) #1
06 [194dbd39] (01/01) Accurately ripped as in pressing(s) #1
07 [007b3d19] (01/01) Accurately ripped as in pressing(s) #1
08 [2177e449] (01/01) Accurately ripped as in pressing(s) #1

Dynamic Range Meter log
––––––––––––––––––––––––––––––––––––––––
Analyzed: Sandra / The Long Play
––––––––––––––––––––––––––––––––––––––––

DR Peak RMS Duration Track
––––––––––––––––––––––––––––––––––––––––
DR13 -0.52 dB -16.55 dB 5:22 01-In The Heat Of The Night
DR13 -0.74 dB -15.87 dB 3:47 02-On The Tray (Seven Years)
DR13 -1.12 dB -16.38 dB 3:14 03-Little Girl
DR13 -1.57 dB -17.27 dB 5:57 04-You And I
DR13 -2.23 dB -17.06 dB 5:58 05-(I’ll Never Be) Maria Magdalena
DR13 -2.57 dB -17.85 dB 4:56 06-Heartbeat
DR12 -1.99 dB -17.22 dB 3:25 07-Sisters And Brothers
DR12 -1.77 dB -17.73 dB 4:05 08-Change Your Mind
––––––––––––––––––––––––––––––––––––––––

Number of tracks: 8
Official DR value: DR13

Samplerate: 44100 Hz
Channels: 2
Bits per sample: 16
Bitrate: 857 kbps
Codec: FLAC
================================================================================

password: BlondStyle

Sandra – The Long Play (1985) [1988, Japan, 1st press] Download, Warez, DDL, Free, Full Album, Torrent, Legal.

Download