Sandmann; Vierlinger; Ryan – Wien-Prag-Berlin- Romantische Duette (Dvorak, Schumann, Brahms, Mendelssohn) [2002]

Download
Sandmann; Vierlinger; Ryan - Wien-Prag-Berlin- Romantische Duette (Dvorak, Schumann, Brahms, Mendelssohn) [2002]

Doerthe Maria Sandmann; Lydia Vierlinger; Russell Ryan – Wien-Prag-Berlin- Romantische Duette (Dvorak, Schumann, Brahms, Mendelssohn) [2002]
EAC Rip | FLAC, IMG+CUE, LOG | Covers | 1cd, 206 MB
Classical | Label: ORF | Catalog Number: CD289 | TT: 55’17

Liederabend "Wien-Prag-Berlin". Geografisch bilden Wien, Prag und Berlin gewissermaßen die Nord-Süd-Achse Mitteleuropas.
Historisch sind diese drei Metropolen schicksalsträchtig miteinander verbunden; für die Ambivalenz zwischen Freundschaft und Feindschaft geben die drei Jahrhunderte seit dem Barock ein beredtes Zeugnis. In der Musik besteht eine lange Tradition der gegenseitigen Befruchtung zwischen diesen Städten, die nicht zueltzt im kompositorischen Netzwerk zum Ausdruck kommt, in welchem die Schöpfer der von einer Berlinerin und einer Wienerin gesungenen Duette verbunden sind.

Performer:
Doerthe Maria Sandmann – Sopran;
Lydia Vierlinger – Alt;
Russell Ryan – Klavier

Tracklisting:
01. Dvorak. Duette op.38 – Möglichkeit 01:43
02. Der Apfel 02:00
03. Kränzlein 01:36
04. Schmerz 02:13
05. Brahms. aus: Duette op.66 – Klänge 1 01:34
06. Klänge 2 02:11
07. Schuhmann. Duette op.103 – Mailied 01:20
08. Frühlingslied 01:29
09. An die Nachtigall 01:06
10. An den Abendstern 01:49
11. Mendelssohn. Duette op.63 – Ich wollt, meine Lieb ergösse sich 01:42
12. Abschiedslied der Zugvögel 02:13
13. Gruß 02:06
14. Herbstlied 02:04
15. Volkslied 02:23
16. Maiglöckchen und die Blümelein 02:07
17. Schumann. Duette op.43 – Wenn ich ein Vöglein wär 01:30
18. Herbstlied 02:02
19. Schön Blümelein 02:08
20. Brahms. Duette op.20 – Weg der Liebe 1 02:27
21. Weg der Liebe 2 02:35
22. Die Meere 02:22
23. Dvorak. aus: Duette op.32 ‘Klänge aus Mähren’ – Ich schwimm’ dir davon 02:26
24. Fliege, Vöglein 02:29
25. Wenn die Sense scharf geschliffen wäre 01:14
26. Freundlich laß uns scheiden 01:13
27. Der kleine Acker 01:39
28. Draufgabe: Mendelssohn. aus: Duette op.77 – Sonntagsmorgen 03:42

LOG
Exact Audio Copy V1.0 beta 3 from 29. August 2011

EAC extraction logfile from 7. March 2014, 5:20

Doerthe Maria Sandmann; Lydia Vierlinger; Russell Ryan / Wien-Prag-Berlin: Romantische Duette

Used drive : ATAPI iHAS122 C Adapter: 0 ID: 0

Read mode : Secure
Utilize accurate stream : Yes
Defeat audio cache : Yes
Make use of C2 pointers : No

Read offset correction : 6
Overread into Lead-In and Lead-Out : No
Fill up missing offset samples with silence : Yes
Delete leading and trailing silent blocks : No
Null samples used in CRC calculations : Yes
Used interface : Native Win32 interface for Win NT & 2000

Used output format : User Defined Encoder
Selected bitrate : 192 kBit/s
Quality : High
Add ID3 tag : No
Command line compressor : C:Program FilesExact Audio CopyFlacflac.exe
Additional command line options : -V -8 -T "Date=%year%" -T "Genre=%genre%" %source%

TOC of the extracted CD

Track | Start | Length | Start sector | End sector
––––––––––––––––––––––––––––-
1 | 0:00.00 | 1:42.51 | 0 | 7700
2 | 1:42.51 | 1:59.56 | 7701 | 16681
3 | 3:42.32 | 1:36.10 | 16682 | 23891
4 | 5:18.42 | 2:13.32 | 23892 | 33898
5 | 7:31.74 | 1:34.01 | 33899 | 40949
6 | 9:06.00 | 2:10.43 | 40950 | 50742
7 | 11:16.43 | 1:20.08 | 50743 | 56750
8 | 12:36.51 | 1:28.42 | 56751 | 63392
9 | 14:05.18 | 1:06.35 | 63393 | 68377
10 | 15:11.53 | 1:49.05 | 68378 | 76557
11 | 17:00.58 | 1:41.57 | 76558 | 84189
12 | 18:42.40 | 2:12.42 | 84190 | 94131
13 | 20:55.07 | 2:06.09 | 94132 | 103590
14 | 23:01.16 | 2:03.73 | 103591 | 112888
15 | 25:05.14 | 2:22.45 | 112889 | 123583
16 | 27:27.59 | 2:07.11 | 123584 | 133119
17 | 29:34.70 | 1:30.29 | 133120 | 139898
18 | 31:05.24 | 2:02.13 | 139899 | 149061
19 | 33:07.37 | 2:08.23 | 149062 | 158684
20 | 35:15.60 | 2:27.29 | 158685 | 169738
21 | 37:43.14 | 2:35.02 | 169739 | 181365
22 | 40:18.16 | 2:21.42 | 181366 | 191982
23 | 42:39.58 | 2:25.70 | 191983 | 202927
24 | 45:05.53 | 2:29.26 | 202928 | 214128
25 | 47:35.04 | 1:14.10 | 214129 | 219688
26 | 48:49.14 | 1:13.27 | 219689 | 225190
27 | 50:02.41 | 1:38.53 | 225191 | 232593
28 | 51:41.19 | 3:42.29 | 232594 | 249272

Range status and errors

Selected range

Filename C:Program FilesExact Audio CopyFlacWien-Prag-Berlin- Romantische Duette.wav

Peak level 92.8 %
Extraction speed 5.7 X
Range quality 99.9 %
Test CRC 98DBD38B
Copy CRC 98DBD38B
Copy OK

No errors occurred

AccurateRip summary

Track 1 not present in database
Track 2 not present in database
Track 3 not present in database
Track 4 not present in database
Track 5 not present in database
Track 6 not present in database
Track 7 not present in database
Track 8 not present in database
Track 9 not present in database
Track 10 not present in database
Track 11 not present in database
Track 12 not present in database
Track 13 not present in database
Track 14 not present in database
Track 15 not present in database
Track 16 not present in database
Track 17 not present in database
Track 18 not present in database
Track 19 not present in database
Track 20 not present in database
Track 21 not present in database
Track 22 not present in database
Track 23 not present in database
Track 24 not present in database
Track 25 not present in database
Track 26 not present in database
Track 27 not present in database
Track 28 not present in database

None of the tracks are present in the AccurateRip database

End of status report

==== Log checksum 52B20BEFC541780A91CFFB6622E249296AEC761FCF54467BDE6B1FA2E05FDBA9 ====

Sandmann; Vierlinger; Ryan – Wien-Prag-Berlin- Romantische Duette (Dvorak, Schumann, Brahms, Mendelssohn) [2002] Download, Warez, DDL, Free, Full Album, Torrent, Legal.

Download