Sam Most – From The Attic Of My Mind (1978) {Elemental Music–Xanadu Master Edition rel 2015} | ViralVideoPk

Daily Dose of Free Downloads

Sam Most – From The Attic Of My Mind (1978) {Elemental Music–Xanadu Master Edition rel 2015}

Download

Sam Most - From The Attic Of My Mind (1978) {Elemental Music--Xanadu Master Edition rel 2015}

Sam Most – From The Attic Of My Mind (1978) {Elemental Music–Xanadu Master Edition rel 2015}
EAC rip (secure mode) | FLAC (tracks)+CUE+LOG -> 267 Mb | MP3 @320 -> 112 Mb
Full Artwork @ 300 dpi (jpg) -> 31 Mb | 5% repair rar
© 1978, 2015 Xanadu / Elemental Music | 906074
Jazz / Bop / Cool / Flute

A tremendous album from flute man Sam Most – a record that really shines strongly amidst the rest of his catalog – and one that has us completely reevaluating our understanding of his sound! By the time of this set, Sam had been blowing for a few decades – most famously on Bethlehem Records sessions of the 50s, but also on a number of other records over the years – yet this album has the musician emerging as a stunningly strong voice on his instrument – playing the flute with all of these low, deep tones that are quite a change from more mainstream jazz flute of the decade – especially in fusion or crossover soul. There’s a wonderfully moody vibe to the album – laidback, but never sleepy – and cast out perfectly with a group that includes Kenny Barron on piano, George Mraz on bass, Walt Bolden on drums, and Warren Smith on percussion.

Sam Most - From The Attic Of My Mind (1978) {Elemental Music--Xanadu Master Edition rel 2015}

Personnel:
SAM MOST, Flute
KENNY BARRON, Piano
GEORGE MRAZ, Bass
WARREN SMITH, Percussion
WALTER BOLDEN, Drums

Recorded at RCA Studios, New York City, April 25, 1978, by Paul Goodman

Sam Most - From The Attic Of My Mind (1978) {Elemental Music--Xanadu Master Edition rel 2015}

tracklist:
01 – What Is Is
02 – Breath Of Love
03 – Blue Hue
04 – You Are Always The One
05 – Child Of The Forest
06 – One Forgotten Yesterday
07 – Keep Moving
08 – Out Of Sight In Mind

EAC log
Exact Audio Copy V1.1 from 23. June 2015

EAC extraction logfile from 21. January 2016, 18:26

Sam Most / From The Attic Of My Mind

Used drive : MATSHITADVD+-RW SW830 Adapter: 1 ID: 0

Read mode : Secure
Utilize accurate stream : Yes
Defeat audio cache : Yes
Make use of C2 pointers : No

Read offset correction : 6
Overread into Lead-In and Lead-Out : No
Fill up missing offset samples with silence : Yes
Delete leading and trailing silent blocks : No
Null samples used in CRC calculations : Yes
Used interface : Native Win32 interface for Win NT & 2000
Gap handling : Appended to previous track

Used output format : User Defined Encoder
Selected bitrate : 896 kBit/s
Quality : High
Add ID3 tag : No
Command line compressor : C:Program Files (x86)Exact Audio CopyFlacflac.exe
Additional command line options : -8 -V -T "ARTIST=%artist%" -T "TITLE=%title%" -T "ALBUM=%albumtitle%" -T "DATE=%year%" -T "TRACKNUMBER=%tracknr%" -T "TOTALTRACKS=%numtracks%" -T "GENRE=%genre%" -T "ALBUMARTIST=%albumartist%" -T "ALBUM ARTIST=%albumartist%" -T "COMMENT=EAC Secure Mode, Test & Copy, AccurateRip, FLAC -8" %source%

TOC of the extracted CD

Track | Start | Length | Start sector | End sector
––––––––––––––––––––––––––––-
1 | 0:00.00 | 5:38.04 | 0 | 25353
2 | 5:38.04 | 5:53.66 | 25354 | 51894
3 | 11:31.70 | 5:52.20 | 51895 | 78314
4 | 17:24.15 | 7:34.42 | 78315 | 112406
5 | 24:58.57 | 5:49.34 | 112407 | 138615
6 | 30:48.16 | 4:17.70 | 138616 | 157960
7 | 35:06.11 | 6:12.57 | 157961 | 185917
8 | 41:18.68 | 6:33.21 | 185918 | 215413

Track 1

Filename G:New RipsSam Most – From The Attic Of My Mind (1978) [FLAC]1 – What Is Is.wav

Pre-gap length 0:00:02.00

Peak level 78.9 %
Extraction speed 4.6 X
Track quality 100.0 %
Test CRC 64B980CC
Copy CRC 64B980CC
Accurately ripped (confidence 1) [6FF28D98] (AR v2)
Copy OK

Track 2

Filename G:New RipsSam Most – From The Attic Of My Mind (1978) [FLAC]2 – Breath Of Love.wav

Peak level 70.4 %
Extraction speed 4.6 X
Track quality 99.9 %
Test CRC 01DFC58D
Copy CRC 01DFC58D
Accurately ripped (confidence 1) [E8AFE32A] (AR v2)
Copy OK

Track 3

Filename G:New RipsSam Most – From The Attic Of My Mind (1978) [FLAC]3 – Blue Hue.wav

Pre-gap length 0:00:02.00

Peak level 94.5 %
Extraction speed 5.1 X
Track quality 99.9 %
Test CRC FE6F9D13
Copy CRC FE6F9D13
Accurately ripped (confidence 1) [5126A902] (AR v2)
Copy OK

Track 4

Filename G:New RipsSam Most – From The Attic Of My Mind (1978) [FLAC]4 – You Are Always The One.wav

Pre-gap length 0:00:02.00

Peak level 81.6 %
Extraction speed 6.6 X
Track quality 100.0 %
Test CRC F1C9A1DC
Copy CRC F1C9A1DC
Accurately ripped (confidence 1) [A69C814A] (AR v2)
Copy OK

Track 5

Filename G:New RipsSam Most – From The Attic Of My Mind (1978) [FLAC]5 – Child Of The Forest.wav

Pre-gap length 0:00:02.00

Peak level 66.7 %
Extraction speed 6.9 X
Track quality 100.0 %
Test CRC 5F5DCB4F
Copy CRC 5F5DCB4F
Accurately ripped (confidence 1) [191567E1] (AR v2)
Copy OK

Track 6

Filename G:New RipsSam Most – From The Attic Of My Mind (1978) [FLAC]6 – One Forgotten Yesterday.wav

Peak level 62.6 %
Extraction speed 5.9 X
Track quality 99.9 %
Test CRC 5A5C7F5E
Copy CRC 5A5C7F5E
Accurately ripped (confidence 1) [311E1BC0] (AR v2)
Copy OK

Track 7

Filename G:New RipsSam Most – From The Attic Of My Mind (1978) [FLAC]7 – Keep Moving.wav

Pre-gap length 0:00:02.00

Peak level 66.2 %
Extraction speed 7.7 X
Track quality 100.0 %
Test CRC A973FD3C
Copy CRC A973FD3C
Accurately ripped (confidence 1) [59F3011A] (AR v2)
Copy OK

Track 8

Filename G:New RipsSam Most – From The Attic Of My Mind (1978) [FLAC]8 – Out Of Sight In Mind.wav

Peak level 58.6 %
Extraction speed 8.2 X
Track quality 100.0 %
Test CRC A14DD40C
Copy CRC A14DD40C
Accurately ripped (confidence 1) [AF99AF31] (AR v2)
Copy OK

All tracks accurately ripped

No errors occurred

End of status report

–– CUETools DB Plugin V2.1.6

[CTDB TOCID: U3CS5F59hQiJLQxKl5Z15azSto0-] disk not present in database
Submit result: U3CS5F59hQiJLQxKl5Z15azSto0- has been uploaded

==== Log checksum 6AA4847650BAF408F29E6208A52B36608D947E57F95D212C10D894CF69A03863 ====

Sam Most - From The Attic Of My Mind (1978) {Elemental Music--Xanadu Master Edition rel 2015}

Sam Most - From The Attic Of My Mind (1978) {Elemental Music--Xanadu Master Edition rel 2015}

All thanks goes to the original releaser!

Sam Most – From The Attic Of My Mind (1978) {Elemental Music–Xanadu Master Edition rel 2015} Download, Warez, DDL, Free, Full Album, Torrent, Legal.

Download


  • Recent Posts

  • Recent Tags