Sam Brown – The A&M Years 1988-1990 (2016) {Caroline International}

Download
Sam Brown - The A&M Years 1988-1990 (2016) {Caroline International}

Sam Brown – The A&M Years 1988-1990 (2016)
EAC Rip | FLAC (tracks+.cue, log) | Front cover only I RAR | 1996 mb
Pop, Soul | Label: Caroline International / CAROLR059CD

Samantha Brown is an English female singer-songwriter, composer, multi-instrumentalist, arranger and record producer.
The box set has been an 18-month labour of love and has been curated by me (SDE Editor, Paul Sinclair), with the full support and enthusiasm of Sam Brown. It includes newly mastered versions of the albums Stop! (1988) and April Moon (1990) and three further discs offering B-sides, unreleased demos.

Tracklist:
Disc 1 – Stop! +Bonus Tracks (22 / 1:19:56)

01. Walking Back to Me
02. Your Love Is All
03. Stop!
04. It Makes Me Wonder
05. This Feeling
06. Tea
07. Piece of My Luck
08. Ball and Chain
09. Wrap Me Up
10. I’ll Be in Love
11. Merry Go Round
12. Sometimes You Just Don’t Know
13. Can I Get a Witness
14. High as a Kite
15. Nutbush City Limits
16. Stop! (7′ Edit)
17. This Feeling (7′ Remix)
18. Can I Get a Witness (Pete Brown 7′ Remix)
19. Stop! (Full Length Version)
20. Your Love Is All (Instrumental Remix)
21. This Feeling (Pete Smith Version)
22. Can I Get a Witness (Eric Thorngren 7′ Mix)

EAC log Disc 1
Exact Audio Copy V1.3 from 2. September 2016

EAC extraction logfile from 20. December 2016, 17:54

Sam Brown / The A&M Years 1988-1990: Stop! +Bonus Tracks

Used drive : TSSTcorpCDDVDW SN-208AB Adapter: 1 ID: 0

Read mode : Secure
Utilize accurate stream : Yes
Defeat audio cache : Yes
Make use of C2 pointers : No

Read offset correction : 6
Overread into Lead-In and Lead-Out : No
Fill up missing offset samples with silence : Yes
Delete leading and trailing silent blocks : No
Null samples used in CRC calculations : Yes
Used interface : Native Win32 interface for Win NT & 2000
Gap handling : Appended to previous track

Used output format : User Defined Encoder
Selected bitrate : 128 kBit/s
Quality : High
Add ID3 tag : No
Command line compressor : C:Program Files (x86)Exact Audio CopyFlacflac.exe
Additional command line options : -8 -V -T "ARTIST=%artist%" -T "TITLE=%title%" -T "ALBUM=%albumtitle%" -T "DATE=%year%" -T "TRACKNUMBER=%tracknr%" -T "GENRE=%genre%" -T "PERFORMER=%albuminterpret%" -T "COMPOSER=%composer%" %haslyrics%–tag-from-file=LYRICS="%lyricsfile%"%haslyrics% -T "ALBUMARTIST=%albumartist%" -T "DISCNUMBER=%cdnumber%" -T "TOTALDISCS=%totalcds%" -T "TOTALTRACKS=%numtracks%" -T "COMMENT=%comment%" %source% -o %dest%

TOC of the extracted CD

Track | Start | Length | Start sector | End sector
––––––––––––––––––––––––––––-
1 | 0:00.00 | 3:43.66 | 0 | 16790
2 | 3:43.66 | 4:09.41 | 16791 | 35506
3 | 7:53.32 | 4:56.01 | 35507 | 57707
4 | 12:49.33 | 4:33.72 | 57708 | 78254
5 | 17:23.30 | 3:16.44 | 78255 | 92998
6 | 20:39.74 | 0:43.64 | 92999 | 96287
7 | 21:23.63 | 2:57.33 | 96288 | 109595
8 | 24:21.21 | 4:38.70 | 109596 | 130515
9 | 29:00.16 | 3:11.00 | 130516 | 144840
10 | 32:11.16 | 5:16.05 | 144841 | 168545
11 | 37:27.21 | 3:08.59 | 168546 | 182704
12 | 40:36.05 | 3:07.30 | 182705 | 196759
13 | 43:43.35 | 3:00.06 | 196760 | 210265
14 | 46:43.41 | 3:25.67 | 210266 | 225707
15 | 50:09.33 | 4:27.61 | 225708 | 245793
16 | 54:37.19 | 4:03.24 | 245794 | 264042
17 | 58:40.43 | 3:15.60 | 264043 | 278727
18 | 61:56.28 | 2:55.42 | 278728 | 291894
19 | 64:51.70 | 4:55.34 | 291895 | 314053
20 | 69:47.29 | 3:47.08 | 314054 | 331086
21 | 73:34.37 | 3:10.29 | 331087 | 345365
22 | 76:44.66 | 3:11.42 | 345366 | 359732

Track 1

Filename D:FLAC from WhatSam Brown – The A&M Years 1988-1990Disc 1 – Stop! +Bonus Tracks101 – Walking Back to Me.wav

Pre-gap length 0:00:02.00

Peak level 99.2 %
Extraction speed 2.5 X
Track quality 100.0 %
Test CRC 01BC8274
Copy CRC 01BC8274
Track not present in AccurateRip database
Copy OK

Track 2

Filename D:FLAC from WhatSam Brown – The A&M Years 1988-1990Disc 1 – Stop! +Bonus Tracks102 – Your Love Is All.wav

Pre-gap length 0:00:01.16

Peak level 99.2 %
Extraction speed 2.7 X
Track quality 100.0 %
Test CRC F244CA51
Copy CRC F244CA51
Track not present in AccurateRip database
Copy OK

Track 3

Filename D:FLAC from WhatSam Brown – The A&M Years 1988-1990Disc 1 – Stop! +Bonus Tracks103 – Stop!.wav

Peak level 99.2 %
Extraction speed 3.0 X
Track quality 100.0 %
Test CRC 35116BB6
Copy CRC 35116BB6
Track not present in AccurateRip database
Copy OK

Track 4

Filename D:FLAC from WhatSam Brown – The A&M Years 1988-1990Disc 1 – Stop! +Bonus Tracks104 – It Makes Me Wonder.wav

Pre-gap length 0:00:00.65

Peak level 99.2 %
Extraction speed 3.2 X
Track quality 100.0 %
Test CRC DF8695F3
Copy CRC DF8695F3
Track not present in AccurateRip database
Copy OK

Track 5

Filename D:FLAC from WhatSam Brown – The A&M Years 1988-1990Disc 1 – Stop! +Bonus Tracks105 – This Feeling.wav

Pre-gap length 0:00:00.16

Peak level 99.2 %
Extraction speed 3.2 X
Track quality 100.0 %
Test CRC 522466C6
Copy CRC 522466C6
Track not present in AccurateRip database
Copy OK

Track 6

Filename D:FLAC from WhatSam Brown – The A&M Years 1988-1990Disc 1 – Stop! +Bonus Tracks106 – Tea.wav

Pre-gap length 0:00:01.33

Peak level 99.2 %
Extraction speed 2.0 X
Track quality 100.0 %
Test CRC 8AE2A48A
Copy CRC 8AE2A48A
Track not present in AccurateRip database
Copy OK

Track 7

Filename D:FLAC from WhatSam Brown – The A&M Years 1988-1990Disc 1 – Stop! +Bonus Tracks107 – Piece of My Luck.wav

Pre-gap length 0:00:01.13

Peak level 99.2 %
Extraction speed 3.3 X
Track quality 100.0 %
Test CRC E1812FB0
Copy CRC E1812FB0
Track not present in AccurateRip database
Copy OK

Track 8

Filename D:FLAC from WhatSam Brown – The A&M Years 1988-1990Disc 1 – Stop! +Bonus Tracks108 – Ball and Chain.wav

Peak level 99.2 %
Extraction speed 3.7 X
Track quality 100.0 %
Test CRC 4AA7DDDB
Copy CRC 4AA7DDDB
Track not present in AccurateRip database
Copy OK

Track 9

Filename D:FLAC from WhatSam Brown – The A&M Years 1988-1990Disc 1 – Stop! +Bonus Tracks109 – Wrap Me Up.wav

Pre-gap length 0:00:00.72

Peak level 97.9 %
Extraction speed 3.7 X
Track quality 100.0 %
Test CRC 91939AD1
Copy CRC 91939AD1
Track not present in AccurateRip database
Copy OK

Track 10

Filename D:FLAC from WhatSam Brown – The A&M Years 1988-1990Disc 1 – Stop! +Bonus Tracks110 – I’ll Be in Love.wav

Pre-gap length 0:00:00.18

Peak level 99.2 %
Extraction speed 3.2 X
Track quality 99.9 %
Test CRC C257C043
Copy CRC C257C043
Track not present in AccurateRip database
Copy OK

Track 11

Filename D:FLAC from WhatSam Brown – The A&M Years 1988-1990Disc 1 – Stop! +Bonus Tracks111 – Merry Go Round.wav

Peak level 99.2 %
Extraction speed 3.9 X
Track quality 100.0 %
Test CRC 3728DCEB
Copy CRC 3728DCEB
Track not present in AccurateRip database
Copy OK

Track 12

Filename D:FLAC from WhatSam Brown – The A&M Years 1988-1990Disc 1 – Stop! +Bonus Tracks112 – Sometimes You Just Don’t Know.wav

Pre-gap length 0:00:01.18

Peak level 99.2 %
Extraction speed 4.0 X
Track quality 100.0 %
Test CRC 370DDDF2
Copy CRC 370DDDF2
Track not present in AccurateRip database
Copy OK

Track 13

Filename D:FLAC from WhatSam Brown – The A&M Years 1988-1990Disc 1 – Stop! +Bonus Tracks113 – Can I Get a Witness.wav

Pre-gap length 0:00:01.68

Peak level 99.2 %
Extraction speed 4.1 X
Track quality 100.0 %
Test CRC FD53B77E
Copy CRC FD53B77E
Track not present in AccurateRip database
Copy OK

Track 14

Filename D:FLAC from WhatSam Brown – The A&M Years 1988-1990Disc 1 – Stop! +Bonus Tracks114 – High as a Kite.wav

Pre-gap length 0:00:00.55

Peak level 99.2 %
Extraction speed 4.3 X
Track quality 100.0 %
Test CRC F9CF6C41
Copy CRC F9CF6C41
Track not present in AccurateRip database
Copy OK

Track 15

Filename D:FLAC from WhatSam Brown – The A&M Years 1988-1990Disc 1 – Stop! +Bonus Tracks115 – Nutbush City Limits.wav

Pre-gap length 0:00:00.12

Peak level 99.2 %
Extraction speed 4.6 X
Track quality 100.0 %
Test CRC C0CDDD63
Copy CRC C0CDDD63
Track not present in AccurateRip database
Copy OK

Track 16

Filename D:FLAC from WhatSam Brown – The A&M Years 1988-1990Disc 1 – Stop! +Bonus Tracks116 – Stop! (7” Edit).wav

Pre-gap length 0:00:00.67

Peak level 99.2 %
Extraction speed 3.3 X
Track quality 99.9 %
Test CRC 5AAA1776
Copy CRC 5AAA1776
Track not present in AccurateRip database
Copy OK

Track 17

Filename D:FLAC from WhatSam Brown – The A&M Years 1988-1990Disc 1 – Stop! +Bonus Tracks117 – This Feeling (7” Remix).wav

Pre-gap length 0:00:00.73

Peak level 99.2 %
Extraction speed 4.5 X
Track quality 100.0 %
Test CRC 8BA071AA
Copy CRC 8BA071AA
Track not present in AccurateRip database
Copy OK

Track 18

Filename D:FLAC from WhatSam Brown – The A&M Years 1988-1990Disc 1 – Stop! +Bonus Tracks118 – Can I Get a Witness (Pete Brown 7” Remix).wav

Pre-gap length 0:00:01.28

Peak level 99.2 %
Extraction speed 4.5 X
Track quality 100.0 %
Test CRC 25C72F02
Copy CRC 25C72F02
Track not present in AccurateRip database
Copy OK

Track 19

Filename D:FLAC from WhatSam Brown – The A&M Years 1988-1990Disc 1 – Stop! +Bonus Tracks119 – Stop! (Full Length Version).wav

Pre-gap length 0:00:00.47

Peak level 99.2 %
Extraction speed 3.7 X
Track quality 99.9 %
Test CRC 699177E1
Copy CRC 699177E1
Track not present in AccurateRip database
Copy OK

Track 20

Filename D:FLAC from WhatSam Brown – The A&M Years 1988-1990Disc 1 – Stop! +Bonus Tracks120 – Your Love Is All (Instrumental Remix).wav

Pre-gap length 0:00:00.67

Peak level 99.2 %
Extraction speed 4.9 X
Track quality 100.0 %
Test CRC 62990FE1
Copy CRC 62990FE1
Track not present in AccurateRip database
Copy OK

Track 21

Filename D:FLAC from WhatSam Brown – The A&M Years 1988-1990Disc 1 – Stop! +Bonus Tracks121 – This Feeling (Pete Smith Version).wav

Peak level 99.2 %
Extraction speed 4.7 X
Track quality 100.0 %
Test CRC 370BC05B
Copy CRC 370BC05B
Track not present in AccurateRip database
Copy OK

Track 22

Filename D:FLAC from WhatSam Brown – The A&M Years 1988-1990Disc 1 – Stop! +Bonus Tracks122 – Can I Get a Witness (Eric Thorngren 7” Mix).wav

Peak level 99.2 %
Extraction speed 2.4 X
Track quality 99.9 %
Test CRC 2E9B5147
Copy CRC 2E9B5147
Track not present in AccurateRip database
Copy OK

None of the tracks are present in the AccurateRip database

No errors occurred

End of status report

–– CUETools DB Plugin V2.1.6

[CTDB TOCID: 7FzP4DFAgL6YUwme.W9o0HDNl2w-] found
Submit result: 7FzP4DFAgL6YUwme.W9o0HDNl2w- has been confirmed
Track | CTDB Status
1 | (2/2) Accurately ripped
2 | (2/2) Accurately ripped
3 | (2/2) Accurately ripped
4 | (2/2) Accurately ripped
5 | (2/2) Accurately ripped
6 | (2/2) Accurately ripped
7 | (2/2) Accurately ripped
8 | (2/2) Accurately ripped
9 | (2/2) Accurately ripped
10 | (2/2) Accurately ripped
11 | (2/2) Accurately ripped
12 | (2/2) Accurately ripped
13 | (2/2) Accurately ripped
14 | (2/2) Accurately ripped
15 | (2/2) Accurately ripped
16 | (2/2) Accurately ripped
17 | (2/2) Accurately ripped
18 | (2/2) Accurately ripped
19 | (2/2) Accurately ripped
20 | (2/2) Accurately ripped
21 | (2/2) Accurately ripped
22 | (2/2) Accurately ripped

==== Log checksum F68B9F44E0A9A42CF46EE1A5ACE98A58A6C6619D927130021C25937804419C51 ====

Disc 2 – Stop! – Bonus Material (B-sides, Extra Tracks & Demos) (21 / 1:19:01)

01. Tender Hearts
02. Living in Your Own World
03. Leave It Be
04. Blue Soldier
05. Poor Frank
06. Bones
07. Soldiers
08. Window People
09. Pitiful World
10. Walking After Midnight
11. Kids
12. Art of Persuasion
13. Your Love Is All (4-track Demo)
14. Stop! (Demo)
15. It Makes Me Wonder (Demo)
16. Merry Go Round (Demo)
17. Sometimes You Just Don’t Know (Demo)
18. Wasted Away (Demo)
19. I Cried (Demo)
20. Trick of the Imagination (Demo)
21. Hold Me (Demo)

EAC log Disc 2
Exact Audio Copy V1.3 from 2. September 2016

EAC extraction logfile from 20. December 2016, 19:28

Sam Brown / The A&M Years 1988-1990: Stop! – Bonus Material (B-sides, Extra Tracks & Demos)

Used drive : TSSTcorpCDDVDW SN-208AB Adapter: 1 ID: 0

Read mode : Secure
Utilize accurate stream : Yes
Defeat audio cache : Yes
Make use of C2 pointers : No

Read offset correction : 6
Overread into Lead-In and Lead-Out : No
Fill up missing offset samples with silence : Yes
Delete leading and trailing silent blocks : No
Null samples used in CRC calculations : Yes
Used interface : Native Win32 interface for Win NT & 2000
Gap handling : Appended to previous track

Used output format : User Defined Encoder
Selected bitrate : 128 kBit/s
Quality : High
Add ID3 tag : No
Command line compressor : C:Program Files (x86)Exact Audio CopyFlacflac.exe
Additional command line options : -8 -V -T "ARTIST=%artist%" -T "TITLE=%title%" -T "ALBUM=%albumtitle%" -T "DATE=%year%" -T "TRACKNUMBER=%tracknr%" -T "GENRE=%genre%" -T "PERFORMER=%albuminterpret%" -T "COMPOSER=%composer%" %haslyrics%–tag-from-file=LYRICS="%lyricsfile%"%haslyrics% -T "ALBUMARTIST=%albumartist%" -T "DISCNUMBER=%cdnumber%" -T "TOTALDISCS=%totalcds%" -T "TOTALTRACKS=%numtracks%" -T "COMMENT=%comment%" %source% -o %dest%

TOC of the extracted CD

Track | Start | Length | Start sector | End sector
––––––––––––––––––––––––––––-
1 | 0:00.00 | 4:01.69 | 0 | 18143
2 | 4:01.69 | 3:08.43 | 18144 | 32286
3 | 7:10.37 | 3:26.46 | 32287 | 47782
4 | 10:37.08 | 3:50.48 | 47783 | 65080
5 | 14:27.56 | 3:26.19 | 65081 | 80549
6 | 17:54.00 | 3:36.25 | 80550 | 96774
7 | 21:30.25 | 4:07.42 | 96775 | 115341
8 | 25:37.67 | 5:30.27 | 115342 | 140118
9 | 31:08.19 | 4:24.54 | 140119 | 159972
10 | 35:32.73 | 2:25.45 | 159973 | 170892
11 | 37:58.43 | 3:06.15 | 170893 | 184857
12 | 41:04.58 | 4:28.04 | 184858 | 204961
13 | 45:32.62 | 2:55.43 | 204962 | 218129
14 | 48:28.30 | 4:22.55 | 218130 | 237834
15 | 52:51.10 | 5:36.03 | 237835 | 263037
16 | 58:27.13 | 2:44.44 | 263038 | 275381
17 | 61:11.57 | 3:51.53 | 275382 | 292759
18 | 65:03.35 | 3:54.33 | 292760 | 310342
19 | 68:57.68 | 2:55.07 | 310343 | 323474
20 | 71:53.00 | 3:25.72 | 323475 | 338921
21 | 75:18.72 | 3:42.26 | 338922 | 355597

Track 1

Filename D:FLAC from WhatSam Brown – The A&M Years 1988-1990Disc 2 – Stop! – Bonus Material (B-sides, Extra Tracks & Demos)201 – Tender Hearts.wav

Pre-gap length 0:00:02.00

Peak level 89.6 %
Extraction speed 1.2 X
Track quality 100.0 %
Test CRC EB9B45BB
Copy CRC EB9B45BB
Track not present in AccurateRip database
Copy OK

Track 2

Filename D:FLAC from WhatSam Brown – The A&M Years 1988-1990Disc 2 – Stop! – Bonus Material (B-sides, Extra Tracks & Demos)202 – Living in Your Own World.wav

Pre-gap length 0:00:00.74

Peak level 99.2 %
Extraction speed 1.1 X
Track quality 99.9 %
Test CRC E353153F
Copy CRC E353153F
Track not present in AccurateRip database
Copy OK

Track 3

Filename D:FLAC from WhatSam Brown – The A&M Years 1988-1990Disc 2 – Stop! – Bonus Material (B-sides, Extra Tracks & Demos)203 – Leave It Be.wav

Pre-gap length 0:00:01.29

Peak level 99.2 %
Extraction speed 1.3 X
Track quality 100.0 %
Test CRC 1EACF2E5
Copy CRC 1EACF2E5
Track not present in AccurateRip database
Copy OK

Track 4

Filename D:FLAC from WhatSam Brown – The A&M Years 1988-1990Disc 2 – Stop! – Bonus Material (B-sides, Extra Tracks & Demos)204 – Blue Soldier.wav

Pre-gap length 0:00:01.14

Peak level 99.2 %
Extraction speed 1.5 X
Track quality 100.0 %
Test CRC E5D7C878
Copy CRC E5D7C878
Track not present in AccurateRip database
Copy OK

Track 5

Filename D:FLAC from WhatSam Brown – The A&M Years 1988-1990Disc 2 – Stop! – Bonus Material (B-sides, Extra Tracks & Demos)205 – Poor Frank.wav

Pre-gap length 0:00:00.28

Peak level 99.2 %
Extraction speed 1.5 X
Track quality 100.0 %
Test CRC 1C660C05
Copy CRC 1C660C05
Track not present in AccurateRip database
Copy OK

Track 6

Filename D:FLAC from WhatSam Brown – The A&M Years 1988-1990Disc 2 – Stop! – Bonus Material (B-sides, Extra Tracks & Demos)206 – Bones.wav

Pre-gap length 0:00:01.12

Peak level 99.2 %
Extraction speed 1.6 X
Track quality 100.0 %
Test CRC 7CCA4463
Copy CRC 7CCA4463
Track not present in AccurateRip database
Copy OK

Track 7

Filename D:FLAC from WhatSam Brown – The A&M Years 1988-1990Disc 2 – Stop! – Bonus Material (B-sides, Extra Tracks & Demos)207 – Soldiers.wav

Pre-gap length 0:00:00.30

Peak level 99.2 %
Extraction speed 1.7 X
Track quality 100.0 %
Test CRC 85BC69D7
Copy CRC 85BC69D7
Track not present in AccurateRip database
Copy OK

Track 8

Filename D:FLAC from WhatSam Brown – The A&M Years 1988-1990Disc 2 – Stop! – Bonus Material (B-sides, Extra Tracks & Demos)208 – Window People.wav

Pre-gap length 0:00:01.42

Peak level 99.2 %
Extraction speed 1.7 X
Track quality 99.9 %
Test CRC 44E53778
Copy CRC 44E53778
Track not present in AccurateRip database
Copy OK

Track 9

Filename D:FLAC from WhatSam Brown – The A&M Years 1988-1990Disc 2 – Stop! – Bonus Material (B-sides, Extra Tracks & Demos)209 – Pitiful World.wav

Peak level 99.2 %
Extraction speed 1.9 X
Track quality 100.0 %
Test CRC 107598D7
Copy CRC 107598D7
Track not present in AccurateRip database
Copy OK

Track 10

Filename D:FLAC from WhatSam Brown – The A&M Years 1988-1990Disc 2 – Stop! – Bonus Material (B-sides, Extra Tracks & Demos)210 – Walking After Midnight.wav

Pre-gap length 0:00:01.45

Peak level 99.2 %
Extraction speed 1.8 X
Track quality 100.0 %
Test CRC B61900CE
Copy CRC B61900CE
Track not present in AccurateRip database
Copy OK

Track 11

Filename D:FLAC from WhatSam Brown – The A&M Years 1988-1990Disc 2 – Stop! – Bonus Material (B-sides, Extra Tracks & Demos)211 – Kids.wav

Pre-gap length 0:00:00.62

Peak level 99.2 %
Extraction speed 1.9 X
Track quality 100.0 %
Test CRC 70822857
Copy CRC 70822857
Track not present in AccurateRip database
Copy OK

Track 12

Filename D:FLAC from WhatSam Brown – The A&M Years 1988-1990Disc 2 – Stop! – Bonus Material (B-sides, Extra Tracks & Demos)212 – Art of Persuasion.wav

Pre-gap length 0:00:01.10

Peak level 93.6 %
Extraction speed 2.1 X
Track quality 100.0 %
Test CRC CF23F3EC
Copy CRC CF23F3EC
Track not present in AccurateRip database
Copy OK

Track 13

Filename D:FLAC from WhatSam Brown – The A&M Years 1988-1990Disc 2 – Stop! – Bonus Material (B-sides, Extra Tracks & Demos)213 – Your Love Is All (4-track Demo).wav

Pre-gap length 0:00:01.63

Peak level 90.8 %
Extraction speed 2.0 X
Track quality 100.0 %
Test CRC E9C9908B
Copy CRC E9C9908B
Track not present in AccurateRip database
Copy OK

Track 14

Filename D:FLAC from WhatSam Brown – The A&M Years 1988-1990Disc 2 – Stop! – Bonus Material (B-sides, Extra Tracks & Demos)214 – Stop! (Demo).wav

Pre-gap length 0:00:01.41

Peak level 94.7 %
Extraction speed 2.2 X
Track quality 100.0 %
Test CRC 7173E17C
Copy CRC 7173E17C
Track not present in AccurateRip database
Copy OK

Track 15

Filename D:FLAC from WhatSam Brown – The A&M Years 1988-1990Disc 2 – Stop! – Bonus Material (B-sides, Extra Tracks & Demos)215 – It Makes Me Wonder (Demo).wav

Pre-gap length 0:00:01.34

Peak level 99.2 %
Extraction speed 2.3 X
Track quality 100.0 %
Test CRC 73EF76D7
Copy CRC 73EF76D7
Track not present in AccurateRip database
Copy OK

Track 16

Filename D:FLAC from WhatSam Brown – The A&M Years 1988-1990Disc 2 – Stop! – Bonus Material (B-sides, Extra Tracks & Demos)216 – Merry Go Round (Demo).wav

Pre-gap length 0:00:01.00

Peak level 99.2 %
Extraction speed 2.1 X
Track quality 100.0 %
Test CRC FAE28EDB
Copy CRC FAE28EDB
Track not present in AccurateRip database
Copy OK

Track 17

Filename D:FLAC from WhatSam Brown – The A&M Years 1988-1990Disc 2 – Stop! – Bonus Material (B-sides, Extra Tracks & Demos)217 – Sometimes You Just Don’t Know (Demo).wav

Pre-gap length 0:00:02.03

Peak level 90.5 %
Extraction speed 2.0 X
Track quality 99.9 %
Test CRC DF2D145A
Copy CRC DF2D145A
Track not present in AccurateRip database
Copy OK

Track 18

Filename D:FLAC from WhatSam Brown – The A&M Years 1988-1990Disc 2 – Stop! – Bonus Material (B-sides, Extra Tracks & Demos)218 – Wasted Away (Demo).wav

Pre-gap length 0:00:01.37

Peak level 81.5 %
Extraction speed 2.4 X
Track quality 100.0 %
Test CRC 8140EAE9
Copy CRC 8140EAE9
Track not present in AccurateRip database
Copy OK

Track 19

Filename D:FLAC from WhatSam Brown – The A&M Years 1988-1990Disc 2 – Stop! – Bonus Material (B-sides, Extra Tracks & Demos)219 – I Cried (Demo).wav

Pre-gap length 0:00:01.24

Peak level 99.2 %
Extraction speed 2.3 X
Track quality 100.0 %
Test CRC D2D0849D
Copy CRC D2D0849D
Track not present in AccurateRip database
Copy OK

Track 20

Filename D:FLAC from WhatSam Brown – The A&M Years 1988-1990Disc 2 – Stop! – Bonus Material (B-sides, Extra Tracks & Demos)220 – Trick of the Imagination (Demo).wav

Pre-gap length 0:00:01.44

Peak level 99.2 %
Extraction speed 2.4 X
Track quality 100.0 %
Test CRC 4F5C4444
Copy CRC 4F5C4444
Track not present in AccurateRip database
Copy OK

Track 21

Filename D:FLAC from WhatSam Brown – The A&M Years 1988-1990Disc 2 – Stop! – Bonus Material (B-sides, Extra Tracks & Demos)221 – Hold Me (Demo).wav

Pre-gap length 0:00:01.02

Peak level 70.9 %
Extraction speed 2.5 X
Track quality 100.0 %
Test CRC 3CEEA8D4
Copy CRC 3CEEA8D4
Track not present in AccurateRip database
Copy OK

None of the tracks are present in the AccurateRip database

No errors occurred

End of status report

–– CUETools DB Plugin V2.1.6

[CTDB TOCID: lYguGmaTFYI7znMREk.epcEHXaI-] found
Submit result: lYguGmaTFYI7znMREk.epcEHXaI- has been confirmed
Track | CTDB Status
1 | (3/3) Accurately ripped
2 | (3/3) Accurately ripped
3 | (3/3) Accurately ripped
4 | (3/3) Accurately ripped
5 | (3/3) Accurately ripped
6 | (3/3) Accurately ripped
7 | (3/3) Accurately ripped
8 | (3/3) Accurately ripped
9 | (3/3) Accurately ripped
10 | (3/3) Accurately ripped
11 | (3/3) Accurately ripped
12 | (3/3) Accurately ripped
13 | (3/3) Accurately ripped
14 | (3/3) Accurately ripped
15 | (3/3) Accurately ripped
16 | (3/3) Accurately ripped
17 | (3/3) Accurately ripped
18 | (3/3) Accurately ripped
19 | (3/3) Accurately ripped
20 | (3/3) Accurately ripped
21 | (3/3) Accurately ripped

==== Log checksum 46D7E7D70C4891D8471F8197400C46E3A222AD4CC7A1AC2BD48D6AF8594C184B ====

Disc 3 – April Moon +Bonus Tracks (19 / 1:15:31)

01. April Moon
02. With a Little Love
03. Mindworks
04. Kissing Gate
05. Where You Are
06. Contradictions
07. Once in Your Life
08. Hypnotised
09. As One
10. Eye for an Eye
11. Troubled Soul
12. S’Envoler
13. Henry
14. Pride and Joy
15. Now and Forever
16. The Way I Love You
17. With a Little Love (7" Remix)
18. Kissing Gate (7" Edit)
19. Once in Your Life (7" Remix)

EAC log Disc 3
Exact Audio Copy V1.3 from 2. September 2016

EAC extraction logfile from 20. December 2016, 21:00

Sam Brown / The A&M Years 1988-1990 – April Moon +Bonus Tracks

Used drive : TSSTcorpCDDVDW SN-208AB Adapter: 1 ID: 0

Read mode : Secure
Utilize accurate stream : Yes
Defeat audio cache : Yes
Make use of C2 pointers : No

Read offset correction : 6
Overread into Lead-In and Lead-Out : No
Fill up missing offset samples with silence : Yes
Delete leading and trailing silent blocks : No
Null samples used in CRC calculations : Yes
Used interface : Native Win32 interface for Win NT & 2000
Gap handling : Appended to previous track

Used output format : User Defined Encoder
Selected bitrate : 128 kBit/s
Quality : High
Add ID3 tag : No
Command line compressor : C:Program Files (x86)Exact Audio CopyFlacflac.exe
Additional command line options : -8 -V -T "ARTIST=%artist%" -T "TITLE=%title%" -T "ALBUM=%albumtitle%" -T "DATE=%year%" -T "TRACKNUMBER=%tracknr%" -T "GENRE=%genre%" -T "PERFORMER=%albuminterpret%" -T "COMPOSER=%composer%" %haslyrics%–tag-from-file=LYRICS="%lyricsfile%"%haslyrics% -T "ALBUMARTIST=%albumartist%" -T "DISCNUMBER=%cdnumber%" -T "TOTALDISCS=%totalcds%" -T "TOTALTRACKS=%numtracks%" -T "COMMENT=%comment%" %source% -o %dest%

TOC of the extracted CD

Track | Start | Length | Start sector | End sector
––––––––––––––––––––––––––––-
1 | 0:00.00 | 3:41.14 | 0 | 16588
2 | 3:41.14 | 3:50.11 | 16589 | 33849
3 | 7:31.25 | 4:09.07 | 33850 | 52531
4 | 11:40.32 | 3:22.53 | 52532 | 67734
5 | 15:03.10 | 3:49.21 | 67735 | 84930
6 | 18:52.31 | 4:39.62 | 84931 | 105917
7 | 23:32.18 | 4:15.69 | 105918 | 125111
8 | 27:48.12 | 4:28.23 | 125112 | 145234
9 | 32:16.35 | 2:48.44 | 145235 | 157878
10 | 35:05.04 | 4:18.56 | 157879 | 177284
11 | 39:23.60 | 6:49.08 | 177285 | 207967
12 | 46:12.68 | 2:59.15 | 207968 | 221407
13 | 49:12.08 | 3:19.36 | 221408 | 236368
14 | 52:31.44 | 4:32.38 | 236369 | 256806
15 | 57:04.07 | 4:36.31 | 256807 | 277537
16 | 61:40.38 | 2:37.58 | 277538 | 289370
17 | 64:18.21 | 3:49.69 | 289371 | 306614
18 | 68:08.15 | 2:44.74 | 306615 | 318988
19 | 70:53.14 | 4:38.04 | 318989 | 339842

Track 1

Filename D:FLAC from WhatSam Brown – The A&M Years 1988-1990Disc 3 – April Moon +Bonus Tracks301 – April Moon.wav

Pre-gap length 0:00:02.00

Peak level 97.9 %
Extraction speed 1.2 X
Track quality 100.0 %
Test CRC D6BC1473
Copy CRC D6BC1473
Track not present in AccurateRip database
Copy OK

Track 2

Filename D:FLAC from WhatSam Brown – The A&M Years 1988-1990Disc 3 – April Moon +Bonus Tracks302 – With a Little Love.wav

Pre-gap length 0:00:00.06

Peak level 97.9 %
Extraction speed 1.3 X
Track quality 100.0 %
Test CRC E02FBDEE
Copy CRC E02FBDEE
Track not present in AccurateRip database
Copy OK

Track 3

Filename D:FLAC from WhatSam Brown – The A&M Years 1988-1990Disc 3 – April Moon +Bonus Tracks303 – Mindworks.wav

Pre-gap length 0:00:00.14

Peak level 97.9 %
Extraction speed 1.4 X
Track quality 100.0 %
Test CRC E202E2E5
Copy CRC E202E2E5
Track not present in AccurateRip database
Copy OK

Track 4

Filename D:FLAC from WhatSam Brown – The A&M Years 1988-1990Disc 3 – April Moon +Bonus Tracks304 – Kissing Gate.wav

Pre-gap length 0:00:00.22

Peak level 97.9 %
Extraction speed 1.5 X
Track quality 100.0 %
Test CRC 28D47FF9
Copy CRC 28D47FF9
Track not present in AccurateRip database
Copy OK

Track 5

Filename D:FLAC from WhatSam Brown – The A&M Years 1988-1990Disc 3 – April Moon +Bonus Tracks305 – Where You Are.wav

Pre-gap length 0:00:00.46

Peak level 97.9 %
Extraction speed 1.6 X
Track quality 100.0 %
Test CRC 32A69A93
Copy CRC 32A69A93
Track not present in AccurateRip database
Copy OK

Track 6

Filename D:FLAC from WhatSam Brown – The A&M Years 1988-1990Disc 3 – April Moon +Bonus Tracks306 – Contradictions.wav

Pre-gap length 0:00:01.10

Peak level 92.7 %
Extraction speed 1.5 X
Track quality 99.9 %
Test CRC F96811BB
Copy CRC F96811BB
Track not present in AccurateRip database
Copy OK

Track 7

Filename D:FLAC from WhatSam Brown – The A&M Years 1988-1990Disc 3 – April Moon +Bonus Tracks307 – Once in Your Life.wav

Pre-gap length 0:00:00.43

Peak level 97.9 %
Extraction speed 1.8 X
Track quality 100.0 %
Test CRC 37DC2461
Copy CRC 37DC2461
Track not present in AccurateRip database
Copy OK

Track 8

Filename D:FLAC from WhatSam Brown – The A&M Years 1988-1990Disc 3 – April Moon +Bonus Tracks308 – Hypnotised.wav

Pre-gap length 0:00:00.53

Peak level 97.9 %
Extraction speed 1.9 X
Track quality 100.0 %
Test CRC A666006E
Copy CRC A666006E
Track not present in AccurateRip database
Copy OK

Track 9

Filename D:FLAC from WhatSam Brown – The A&M Years 1988-1990Disc 3 – April Moon +Bonus Tracks309 – As One.wav

Pre-gap length 0:00:00.19

Peak level 66.3 %
Extraction speed 1.7 X
Track quality 100.0 %
Test CRC 6F1B9B87
Copy CRC 6F1B9B87
Track not present in AccurateRip database
Copy OK

Track 10

Filename D:FLAC from WhatSam Brown – The A&M Years 1988-1990Disc 3 – April Moon +Bonus Tracks310 – Eye for an Eye.wav

Pre-gap length 0:00:01.11

Peak level 97.9 %
Extraction speed 2.0 X
Track quality 100.0 %
Test CRC 888181FF
Copy CRC 888181FF
Track not present in AccurateRip database
Copy OK

Track 11

Filename D:FLAC from WhatSam Brown – The A&M Years 1988-1990Disc 3 – April Moon +Bonus Tracks311 – Troubled Soul.wav

Peak level 97.9 %
Extraction speed 2.2 X
Track quality 100.0 %
Test CRC C1B1F275
Copy CRC C1B1F275
Track not present in AccurateRip database
Copy OK

Track 12

Filename D:FLAC from WhatSam Brown – The A&M Years 1988-1990Disc 3 – April Moon +Bonus Tracks312 – S’Envoler.wav

Pre-gap length 0:00:01.12

Peak level 97.9 %
Extraction speed 2.0 X
Track quality 100.0 %
Test CRC 3C5DB3BF
Copy CRC 3C5DB3BF
Track not present in AccurateRip database
Copy OK

Track 13

Filename D:FLAC from WhatSam Brown – The A&M Years 1988-1990Disc 3 – April Moon +Bonus Tracks313 – Henry.wav

Pre-gap length 0:00:01.07

Peak level 97.9 %
Extraction speed 2.1 X
Track quality 100.0 %
Test CRC 1E3ED3DF
Copy CRC 1E3ED3DF
Track not present in AccurateRip database
Copy OK

Track 14

Filename D:FLAC from WhatSam Brown – The A&M Years 1988-1990Disc 3 – April Moon +Bonus Tracks314 – Pride and Joy.wav

Peak level 97.9 %
Extraction speed 2.3 X
Track quality 100.0 %
Test CRC 9EDACBB5
Copy CRC 9EDACBB5
Track not present in AccurateRip database
Copy OK

Track 15

Filename D:FLAC from WhatSam Brown – The A&M Years 1988-1990Disc 3 – April Moon +Bonus Tracks315 – Now and Forever.wav

Peak level 94.1 %
Extraction speed 2.3 X
Track quality 100.0 %
Test CRC 396DB33C
Copy CRC 396DB33C
Track not present in AccurateRip database
Copy OK

Track 16

Filename D:FLAC from WhatSam Brown – The A&M Years 1988-1990Disc 3 – April Moon +Bonus Tracks316 – The Way I Love You.wav

Pre-gap length 0:00:00.24

Peak level 97.9 %
Extraction speed 2.1 X
Track quality 100.0 %
Test CRC 7F8229E1
Copy CRC 7F8229E1
Track not present in AccurateRip database
Copy OK

Track 17

Filename D:FLAC from WhatSam Brown – The A&M Years 1988-1990Disc 3 – April Moon +Bonus Tracks317 – With a Little Love (7” Remix).wav

Pre-gap length 0:00:00.24

Peak level 97.9 %
Extraction speed 2.3 X
Track quality 100.0 %
Test CRC 248FBC8B
Copy CRC 248FBC8B
Track not present in AccurateRip database
Copy OK

Track 18

Filename D:FLAC from WhatSam Brown – The A&M Years 1988-1990Disc 3 – April Moon +Bonus Tracks318 – Kissing Gate (7” Edit).wav

Pre-gap length 0:00:00.22

Peak level 97.9 %
Extraction speed 1.9 X
Track quality 99.9 %
Test CRC 491C76D1
Copy CRC 491C76D1
Track not present in AccurateRip database
Copy OK

Track 19

Filename D:FLAC from WhatSam Brown – The A&M Years 1988-1990Disc 3 – April Moon +Bonus Tracks319 – Once in Your Life (7” Remix).wav

Pre-gap length 0:00:00.27

Peak level 97.9 %
Extraction speed 2.5 X
Track quality 100.0 %
Test CRC 91B95953
Copy CRC 91B95953
Track not present in AccurateRip database
Copy OK

None of the tracks are present in the AccurateRip database

No errors occurred

End of status report

–– CUETools DB Plugin V2.1.6

[CTDB TOCID: 3l1An0gM1cmBTMzLcivCKEW7EQQ-] found
Submit result: 3l1An0gM1cmBTMzLcivCKEW7EQQ- has been confirmed
Track | CTDB Status
1 | (3/3) Accurately ripped
2 | (3/3) Accurately ripped
3 | (3/3) Accurately ripped
4 | (3/3) Accurately ripped
5 | (3/3) Accurately ripped
6 | (3/3) Accurately ripped
7 | (3/3) Accurately ripped
8 | (3/3) Accurately ripped
9 | (3/3) Accurately ripped
10 | (3/3) Accurately ripped
11 | (3/3) Accurately ripped
12 | (3/3) Accurately ripped
13 | (3/3) Accurately ripped
14 | (3/3) Accurately ripped
15 | (3/3) Accurately ripped
16 | (3/3) Accurately ripped
17 | (3/3) Accurately ripped
18 | (3/3) Accurately ripped
19 | (3/3) Accurately ripped

==== Log checksum EB6CA3E837CE7BB3E1B9C889FB637BFDE729C18A75A7E293CD0BE4E103234A88 ====

Disc 4 – April Moon – Bonus Material (B-sides, Extra Tracks & Demos) (19 / 1:14:51)

01. Long Way Down
02. Dolly Mixture
03. Is It Mustard or Mango?
04. Here You Are Again
05. Trick of the Imagination
06. No Man Is an Island
07. The Tune with No Name
08. Feel Like Making Love
09. So Far So Good
10. Hold Me
11. Think About Your Troubles
12. Tune with No Name (Part II)
13. Smile
14. April Afternoon (4-track Demo)
15. Where You Are (Demo)
16. Once In Your Life (Demo)
17. Hypnotised (Demo)
18. Troubled Soul (Demo)
19. Henry (Demo)

EAC log Disc 4
Exact Audio Copy V1.3 from 2. September 2016

EAC extraction logfile from 20. December 2016, 22:39

Sam Brown / The A&M Years 1988-1990: April Moon (Bonus Material)

Used drive : TSSTcorpCDDVDW SN-208AB Adapter: 1 ID: 0

Read mode : Secure
Utilize accurate stream : Yes
Defeat audio cache : Yes
Make use of C2 pointers : No

Read offset correction : 6
Overread into Lead-In and Lead-Out : No
Fill up missing offset samples with silence : Yes
Delete leading and trailing silent blocks : No
Null samples used in CRC calculations : Yes
Used interface : Native Win32 interface for Win NT & 2000
Gap handling : Appended to previous track

Used output format : User Defined Encoder
Selected bitrate : 128 kBit/s
Quality : High
Add ID3 tag : No
Command line compressor : C:Program Files (x86)Exact Audio CopyFlacflac.exe
Additional command line options : -8 -V -T "ARTIST=%artist%" -T "TITLE=%title%" -T "ALBUM=%albumtitle%" -T "DATE=%year%" -T "TRACKNUMBER=%tracknr%" -T "GENRE=%genre%" -T "PERFORMER=%albuminterpret%" -T "COMPOSER=%composer%" %haslyrics%–tag-from-file=LYRICS="%lyricsfile%"%haslyrics% -T "ALBUMARTIST=%albumartist%" -T "DISCNUMBER=%cdnumber%" -T "TOTALDISCS=%totalcds%" -T "TOTALTRACKS=%numtracks%" -T "COMMENT=%comment%" %source% -o %dest%

TOC of the extracted CD

Track | Start | Length | Start sector | End sector
––––––––––––––––––––––––––––-
1 | 0:00.00 | 3:32.05 | 0 | 15904
2 | 3:32.05 | 3:22.10 | 15905 | 31064
3 | 6:54.15 | 3:11.16 | 31065 | 45405
4 | 10:05.31 | 3:42.34 | 45406 | 62089
5 | 13:47.65 | 5:19.56 | 62090 | 86070
6 | 19:07.46 | 4:45.19 | 86071 | 107464
7 | 23:52.65 | 3:07.17 | 107465 | 121506
8 | 27:00.07 | 5:06.70 | 121507 | 144526
9 | 32:07.02 | 4:17.41 | 144527 | 163842
10 | 36:24.43 | 2:58.72 | 163843 | 177264
11 | 39:23.40 | 2:35.24 | 177265 | 188913
12 | 41:58.64 | 3:36.05 | 188914 | 205118
13 | 45:34.69 | 1:39.05 | 205119 | 212548
14 | 47:13.74 | 3:44.62 | 212549 | 229410
15 | 50:58.61 | 4:50.25 | 229411 | 251185
16 | 55:49.11 | 3:58.50 | 251186 | 269085
17 | 59:47.61 | 4:06.21 | 269086 | 287556
18 | 63:54.07 | 5:43.08 | 287557 | 313289
19 | 69:37.15 | 5:14.03 | 313290 | 336842

Track 1

Filename D:FLAC from WhatSam Brown – The A&M Years 1988-1990Disc 4 – April Moon – Bonus Material (B-sides, Extra Tracks & Demos)401 – Long Way Down.wav

Pre-gap length 0:00:02.00

Peak level 97.9 %
Extraction speed 1.2 X
Track quality 100.0 %
Test CRC 9DD06B3D
Copy CRC 9DD06B3D
Track not present in AccurateRip database
Copy OK

Track 2

Filename D:FLAC from WhatSam Brown – The A&M Years 1988-1990Disc 4 – April Moon – Bonus Material (B-sides, Extra Tracks & Demos)402 – Dolly Mixture.wav

Pre-gap length 0:00:01.26

Peak level 97.9 %
Extraction speed 1.2 X
Track quality 100.0 %
Test CRC E8B1B5D2
Copy CRC E8B1B5D2
Track not present in AccurateRip database
Copy OK

Track 3

Filename D:FLAC from WhatSam Brown – The A&M Years 1988-1990Disc 4 – April Moon – Bonus Material (B-sides, Extra Tracks & Demos)403 – Is It Mustard or Mango.wav

Pre-gap length 0:00:00.55

Peak level 97.9 %
Extraction speed 1.1 X
Track quality 99.9 %
Test CRC BC20DB64
Copy CRC BC20DB64
Track not present in AccurateRip database
Copy OK

Track 4

Filename D:FLAC from WhatSam Brown – The A&M Years 1988-1990Disc 4 – April Moon – Bonus Material (B-sides, Extra Tracks & Demos)404 – Here You Are Again.wav

Pre-gap length 0:00:01.46

Peak level 97.9 %
Extraction speed 1.3 X
Track quality 99.9 %
Test CRC D16211E9
Copy CRC D16211E9
Track not present in AccurateRip database
Copy OK

Track 5

Filename D:FLAC from WhatSam Brown – The A&M Years 1988-1990Disc 4 – April Moon – Bonus Material (B-sides, Extra Tracks & Demos)405 – Trick of the Imagination.wav

Pre-gap length 0:00:00.21

Peak level 97.9 %
Extraction speed 1.6 X
Track quality 100.0 %
Test CRC 92219A52
Copy CRC 92219A52
Track not present in AccurateRip database
Copy OK

Track 6

Filename D:FLAC from WhatSam Brown – The A&M Years 1988-1990Disc 4 – April Moon – Bonus Material (B-sides, Extra Tracks & Demos)406 – No Man Is an Island.wav

Pre-gap length 0:00:00.52

Peak level 97.9 %
Extraction speed 1.7 X
Track quality 100.0 %
Test CRC C2C9D649
Copy CRC C2C9D649
Track not present in AccurateRip database
Copy OK

Track 7

Filename D:FLAC from WhatSam Brown – The A&M Years 1988-1990Disc 4 – April Moon – Bonus Material (B-sides, Extra Tracks & Demos)407 – The Tune with No Name.wav

Pre-gap length 0:00:00.07

Peak level 97.9 %
Extraction speed 1.4 X
Track quality 99.9 %
Test CRC 289A8329
Copy CRC 289A8329
Track not present in AccurateRip database
Copy OK

Track 8

Filename D:FLAC from WhatSam Brown – The A&M Years 1988-1990Disc 4 – April Moon – Bonus Material (B-sides, Extra Tracks & Demos)408 – Feel Like Making Love.wav

Pre-gap length 0:00:01.33

Peak level 97.9 %
Extraction speed 1.9 X
Track quality 100.0 %
Test CRC 15ECA3C4
Copy CRC 15ECA3C4
Track not present in AccurateRip database
Copy OK

Track 9

Filename D:FLAC from WhatSam Brown – The A&M Years 1988-1990Disc 4 – April Moon – Bonus Material (B-sides, Extra Tracks & Demos)409 – So Far So Good.wav

Pre-gap length 0:00:00.70

Peak level 94.2 %
Extraction speed 1.9 X
Track quality 100.0 %
Test CRC 87E66929
Copy CRC 87E66929
Track not present in AccurateRip database
Copy OK

Track 10

Filename D:FLAC from WhatSam Brown – The A&M Years 1988-1990Disc 4 – April Moon – Bonus Material (B-sides, Extra Tracks & Demos)410 – Hold Me.wav

Pre-gap length 0:00:01.55

Peak level 97.9 %
Extraction speed 1.6 X
Track quality 99.9 %
Test CRC 57EA4E23
Copy CRC 57EA4E23
Track not present in AccurateRip database
Copy OK

Track 11

Filename D:FLAC from WhatSam Brown – The A&M Years 1988-1990Disc 4 – April Moon – Bonus Material (B-sides, Extra Tracks & Demos)411 – Think About Your Troubles.wav

Pre-gap length 0:00:00.04

Peak level 86.2 %
Extraction speed 1.8 X
Track quality 100.0 %
Test CRC 766590FF
Copy CRC 766590FF
Track not present in AccurateRip database
Copy OK

Track 12

Filename D:FLAC from WhatSam Brown – The A&M Years 1988-1990Disc 4 – April Moon – Bonus Material (B-sides, Extra Tracks & Demos)412 – Tune with No Name (Part II).wav

Peak level 78.4 %
Extraction speed 2.0 X
Track quality 100.0 %
Test CRC A19F8559
Copy CRC A19F8559
Track not present in AccurateRip database
Copy OK

Track 13

Filename D:FLAC from WhatSam Brown – The A&M Years 1988-1990Disc 4 – April Moon – Bonus Material (B-sides, Extra Tracks & Demos)413 – Smile.wav

Peak level 97.9 %
Extraction speed 1.7 X
Track quality 100.0 %
Test CRC E9158FC3
Copy CRC E9158FC3
Track not present in AccurateRip database
Copy OK

Track 14

Filename D:FLAC from WhatSam Brown – The A&M Years 1988-1990Disc 4 – April Moon – Bonus Material (B-sides, Extra Tracks & Demos)414 – April Afternoon (4-track Demo).wav

Pre-gap length 0:00:01.23

Peak level 84.4 %
Extraction speed 2.1 X
Track quality 100.0 %
Test CRC 6614BBB4
Copy CRC 6614BBB4
Track not present in AccurateRip database
Copy OK

Track 15

Filename D:FLAC from WhatSam Brown – The A&M Years 1988-1990Disc 4 – April Moon – Bonus Material (B-sides, Extra Tracks & Demos)415 – Where You Are (Demo).wav

Pre-gap length 0:00:01.55

Peak level 92.4 %
Extraction speed 2.2 X
Track quality 100.0 %
Test CRC F79196C5
Copy CRC F79196C5
Track not present in AccurateRip database
Copy OK

Track 16

Filename D:FLAC from WhatSam Brown – The A&M Years 1988-1990Disc 4 – April Moon – Bonus Material (B-sides, Extra Tracks & Demos)416 – Once In Your Life (Demo).wav

Pre-gap length 0:00:01.39

Peak level 97.9 %
Extraction speed 2.2 X
Track quality 100.0 %
Test CRC 10C5158B
Copy CRC 10C5158B
Track not present in AccurateRip database
Copy OK

Track 17

Filename D:FLAC from WhatSam Brown – The A&M Years 1988-1990Disc 4 – April Moon – Bonus Material (B-sides, Extra Tracks & Demos)417 – Hypnotised (Demo).wav

Pre-gap length 0:00:01.40

Peak level 97.9 %
Extraction speed 2.3 X
Track quality 100.0 %
Test CRC 5383C5D9
Copy CRC 5383C5D9
Track not present in AccurateRip database
Copy OK

Track 18

Filename D:FLAC from WhatSam Brown – The A&M Years 1988-1990Disc 4 – April Moon – Bonus Material (B-sides, Extra Tracks & Demos)418 – Troubled Soul (Demo).wav

Pre-gap length 0:00:01.04

Peak level 96.6 %
Extraction speed 2.4 X
Track quality 100.0 %
Test CRC D830518A
Copy CRC D830518A
Track not present in AccurateRip database
Copy OK

Track 19

Filename D:FLAC from WhatSam Brown – The A&M Years 1988-1990Disc 4 – April Moon – Bonus Material (B-sides, Extra Tracks & Demos)419 – Henry (Demo).wav

Pre-gap length 0:00:01.52

Peak level 96.6 %
Extraction speed 2.3 X
Track quality 99.9 %
Test CRC 99C5D87A
Copy CRC 99C5D87A
Track not present in AccurateRip database
Copy OK

None of the tracks are present in the AccurateRip database

No errors occurred

End of status report

–– CUETools DB Plugin V2.1.6

[CTDB TOCID: 6v8l2JPWC7QPyqbAg7kGNeb0BhQ-] found
Submit result: 6v8l2JPWC7QPyqbAg7kGNeb0BhQ- has been confirmed
Track | CTDB Status
1 | (3/3) Accurately ripped
2 | (3/3) Accurately ripped
3 | (3/3) Accurately ripped
4 | (3/3) Accurately ripped
5 | (3/3) Accurately ripped
6 | (3/3) Accurately ripped
7 | (3/3) Accurately ripped
8 | (3/3) Accurately ripped
9 | (3/3) Accurately ripped
10 | (3/3) Accurately ripped
11 | (3/3) Accurately ripped
12 | (3/3) Accurately ripped
13 | (3/3) Accurately ripped
14 | (3/3) Accurately ripped
15 | (3/3) Accurately ripped
16 | (3/3) Accurately ripped
17 | (3/3) Accurately ripped
18 | (3/3) Accurately ripped
19 | (3/3) Accurately ripped

==== Log checksum 7DE180283327CB8DD7B3D7B9DB24B316A24022A30E6C8F6A8818B0083113B8CB ====

Thanks to the Original customer.

Sam Brown – The A&M Years 1988-1990 (2016) {Caroline International} Download, Warez, DDL, Free, Full Album, Torrent, Legal.

Download