Sainkho Namtchylak – Like a Bird or Spirit, Not a Face (2016)

Download
Sainkho Namtchylak - Like a Bird or Spirit, Not a Face (2016)

Sainkho Namtchylak – Like a Bird or Spirit, Not a Face
Folk, World, Blues | FLAC (tracks)+cue, log, booklet | 46:14 min | 271 MB
Label: Ponderosa Music & Art | Tracks: 10 | Rls.date: 2016

Listening to Tuvan throat singer Sainkho is a musical experience like no other. Her voice is an extraordinary instrument, producing sounds which seem to come from an unknown distant world.

Continuing her endless quest for experimentation and new musical collaborations this album was recorded over a couple of days with the Tuareg band Tinariwen, thus combining two nomadic traditions. Sung in Tuvan, Russian, and English, steppe punk-rock, droning mood-pieces and epic ballads are all present but this is music which is ultimately unclassifiable.

TRACKLIST
01. Nomadic Mood (4:26)
02. The Road Back (6:39)
03. Dushkan Ezim To (5:58)
04. So Strange! So Strange! (3:07)
05. Worker Song (Nomads Dance Around the Fire) (3:27)
06. Erge Chokka To (6:37)
07. Melody in My Heart (3:43)
08. Nomadic Blues (2:06)
09. The Snow Fall Without You (7:36)
10. Nostalgia To (2:32)

BAND
Sainkho Namtchylak: vocals, guitar;
Eyadou Ag Leche: bass, guitars, vocals;
Said Ag Ayad: percussion
Ian Brennan: loops

EAC Log
Exact Audio Copy V1.1 from 23. June 2015

EAC extraction logfile from 1. September 2016, 16:14

Sainkho Namtchylak / Like A Bird or Spirit, Not a Face

Used drive : LITE-ON DVDRW LH-20A1S Adapter: 1 ID: 0

Read mode : Secure
Utilize accurate stream : Yes
Defeat audio cache : Yes
Make use of C2 pointers : No

Read offset correction : 6
Overread into Lead-In and Lead-Out : No
Fill up missing offset samples with silence : Yes
Delete leading and trailing silent blocks : No
Null samples used in CRC calculations : Yes
Used interface : Native Win32 interface for Win NT & 2000
Gap handling : Appended to previous track

Used output format : User Defined Encoder
Selected bitrate : 1024 kBit/s
Quality : High
Add ID3 tag : No
Command line compressor : C:Program Files (x86)Exact Audio CopyFlacflac.exe
Additional command line options : -8 -e -V -T "ARTIST=%artist%" -T "TITLE=%title%" -T "ALBUM=%albumtitle%" -T "DATE=%year%" -T "TRACKNUMBER=%tracknr%" -T "GENRE=%genre%" -T "PERFORMER=%albuminterpret%" -T "COMPOSER=%composer%" %haslyrics%–tag-from-file=LYRICS="%lyricsfile%"%haslyrics% -T "ALBUMARTIST=%albumartist%" -T "DISCNUMBER=%cdnumber%" -T "TOTALDISCS=%totalcds%" -T "TOTALTRACKS=%numtracks%" -T "COMMENT=%comment%" %source% -o %dest%

TOC of the extracted CD

Track | Start | Length | Start sector | End sector
––––––––––––––––––––––––––––-
1 | 0:00.00 | 4:27.61 | 0 | 20085
2 | 4:27.61 | 6:42.00 | 20086 | 50235
3 | 11:09.61 | 5:58.02 | 50236 | 77087
4 | 17:07.63 | 3:07.38 | 77088 | 91150
5 | 20:15.26 | 3:27.34 | 91151 | 106709
6 | 23:42.60 | 6:37.12 | 106710 | 136496
7 | 30:19.72 | 3:44.00 | 136497 | 153296
8 | 34:03.72 | 2:06.16 | 153297 | 162762
9 | 36:10.13 | 7:36.54 | 162763 | 197016
10 | 43:46.67 | 2:29.73 | 197017 | 208264

Track 1

Filename D:EAC ripsSainkho Namtchylak – Like a Bird or Spirit, Not a Face (2016) [FLAC]1 – Nomadic Mood.wav

Pre-gap length 0:00:02.00

Peak level 98.9 %
Extraction speed 1.8 X
Track quality 100.0 %
Test CRC 56D27B3F
Copy CRC 56D27B3F
Accurately ripped (confidence 2) [444F44F0] (AR v2)
Copy OK

Track 2

Filename D:EAC ripsSainkho Namtchylak – Like a Bird or Spirit, Not a Face (2016) [FLAC]2 – The Road Back.wav

Peak level 98.9 %
Extraction speed 2.2 X
Track quality 100.0 %
Test CRC 9B86AC37
Copy CRC 9B86AC37
Accurately ripped (confidence 2) [E48E1D66] (AR v2)
Copy OK

Track 3

Filename D:EAC ripsSainkho Namtchylak – Like a Bird or Spirit, Not a Face (2016) [FLAC]3 – Dushkan Ezim To.wav

Peak level 98.9 %
Extraction speed 2.5 X
Track quality 100.0 %
Test CRC B3AAA653
Copy CRC B3AAA653
Accurately ripped (confidence 2) [A08F4D6A] (AR v2)
Copy OK

Track 4

Filename D:EAC ripsSainkho Namtchylak – Like a Bird or Spirit, Not a Face (2016) [FLAC]4 – So Strange! So Strange!.wav

Peak level 98.9 %
Extraction speed 2.4 X
Track quality 100.0 %
Test CRC 0BAACE71
Copy CRC 0BAACE71
Accurately ripped (confidence 2) [4F34FBCE] (AR v2)
Copy OK

Track 5

Filename D:EAC ripsSainkho Namtchylak – Like a Bird or Spirit, Not a Face (2016) [FLAC]5 – Worker Song (Nomads Dance Around the Fire).wav

Peak level 98.9 %
Extraction speed 2.1 X
Track quality 99.9 %
Test CRC 9628A4AF
Copy CRC 9628A4AF
Accurately ripped (confidence 2) [0910238D] (AR v2)
Copy OK

Track 6

Filename D:EAC ripsSainkho Namtchylak – Like a Bird or Spirit, Not a Face (2016) [FLAC]6 – Erge Chokka To.wav

Peak level 98.9 %
Extraction speed 3.0 X
Track quality 100.0 %
Test CRC B1D01C54
Copy CRC B1D01C54
Accurately ripped (confidence 2) [71E8F21B] (AR v2)
Copy OK

Track 7

Filename D:EAC ripsSainkho Namtchylak – Like a Bird or Spirit, Not a Face (2016) [FLAC]7 – Melody in My Heart.wav

Peak level 98.9 %
Extraction speed 3.0 X
Track quality 100.0 %
Test CRC 3CC0DD9E
Copy CRC 3CC0DD9E
Accurately ripped (confidence 2) [CAD62EFB] (AR v2)
Copy OK

Track 8

Filename D:EAC ripsSainkho Namtchylak – Like a Bird or Spirit, Not a Face (2016) [FLAC]8 – Nomadic Blues.wav

Peak level 98.9 %
Extraction speed 2.8 X
Track quality 100.0 %
Test CRC 3247B6FF
Copy CRC 3247B6FF
Accurately ripped (confidence 2) [6C4DFEF0] (AR v2)
Copy OK

Track 9

Filename D:EAC ripsSainkho Namtchylak – Like a Bird or Spirit, Not a Face (2016) [FLAC]9 – The Snow Fall Without You.wav

Peak level 98.9 %
Extraction speed 3.4 X
Track quality 100.0 %
Test CRC 9ECCAEA1
Copy CRC 9ECCAEA1
Accurately ripped (confidence 2) [E410E75A] (AR v2)
Copy OK

Track 10

Filename D:EAC ripsSainkho Namtchylak – Like a Bird or Spirit, Not a Face (2016) [FLAC]10 – Nostalgia To.wav

Peak level 98.9 %
Extraction speed 3.1 X
Track quality 100.0 %
Test CRC 23901763
Copy CRC 23901763
Accurately ripped (confidence 2) [44F1124F] (AR v2)
Copy OK

All tracks accurately ripped

No errors occurred

End of status report

–– CUETools DB Plugin V2.1.6

[CTDB TOCID: LM7c9iqsKAsEwk9b94wyb.zb2sU-] found
Submit result: LM7c9iqsKAsEwk9b94wyb.zb2sU- has been confirmed
Track | CTDB Status
1 | (2/3) Accurately ripped
2 | (2/3) Accurately ripped
3 | (2/3) Accurately ripped
4 | (2/3) Accurately ripped
5 | (2/3) Accurately ripped
6 | (2/3) Accurately ripped
7 | (2/3) Accurately ripped
8 | (2/3) Accurately ripped
9 | (2/3) Accurately ripped
10 | (2/3) Accurately ripped

==== Log checksum 567A90300F1112B1C2AD6A47BD259F7FC0F8AA22A4FF5300590B54B6F5105F31 ====

Sainkho Namtchylak - Like a Bird or Spirit, Not a Face (2016)

Thanks to the Original customer.
My Blog mp3, flac & HDtracks

Sainkho Namtchylak – Like a Bird or Spirit, Not a Face (2016) Download, Warez, DDL, Free, Full Album, Torrent, Legal.

Download