Saafir – Boxcar Sessions (1994) {Qwest} | ViralVideoPk

Daily Dose of Free Downloads

Saafir – Boxcar Sessions (1994) {Qwest}

Download

Saafir - Boxcar Sessions (1994) {Qwest}

Saafir – Boxcar Sessions (1994) {Qwest}
EAC Rip | FLAC with CUE and log | scans | 370 mb
MP3 CBR 320kbps | RAR | 137 mb
Genre: hip-hop, rap

Boxcar Sessions is the 1994 debut album by Reggie Gibson, better known under the mononym Saafir. Released on 10 May, 1994, this was released on Quincy Jones’ Warner Bros.-distributed label, Qwest.

Saafir - Boxcar Sessions (1994) {Qwest}

1. Grab The Train
2. Swig Of The Stew
3. Poke Martian
4. Playa Hayta
5. Pee Wee
6. Battle Drill
7. Westside
8. Worship The "D"
9. Light Sleeper
10. Rashinel
11. Can-U-Feel-Me?
12. No Return (Goin’ Crazy)
13. Big Nose
14. Just Riden’
15. Hype Shit
16. Real Circus
17. Bent
18. The Instructor
19. Joint Custody

Track 3 featuring Poke Martian
Track 7 featuring King Saan
Track 10 featuring Rashinel
Track 13 featuring Big Nose

Tracks 10, 13 produced & mixed by The Big Nose
Tracks: 4, 6, 15, 17, 19 produced by J Groove
Tracks 1 to 3, 5, 8, 9, 11, 12, 14, 16, 18 produced by Jay-Z

Tracks 3, 4, 8, 9, 12, 15 to 19 mixed by Saafir
Tracks 4, 17, 19 mixed by J Groove
Tracks: 1 to 3, 5, 8, 9, 11, 12, 14, 16, 18 mixed by Jay-Z
Track 10 mixed by Rashinel

Mastered by Brian "Big Bass" Gardner

Saafir - Boxcar Sessions (1994) {Qwest}
EAC Log
Exact Audio Copy V1.1 from 23. June 2015

EAC extraction logfile from 11. December 2016, 11:17

Saafir / Boxcar Sessions

Used drive : TEAC DVD-ROM DV-28SW Adapter: 1 ID: 0

Read mode : Secure
Utilize accurate stream : Yes
Defeat audio cache : Yes
Make use of C2 pointers : No

Read offset correction : 6
Overread into Lead-In and Lead-Out : No
Fill up missing offset samples with silence : Yes
Delete leading and trailing silent blocks : No
Null samples used in CRC calculations : Yes
Used interface : Native Win32 interface for Win NT & 2000
Gap handling : Appended to previous track

Used output format : Internal WAV Routines
Sample format : 44.100 Hz; 16 Bit; Stereo

TOC of the extracted CD

Track | Start | Length | Start sector | End sector
––––––––––––––––––––––––––––-
1 | 0:00.32 | 1:20.60 | 32 | 6091
2 | 1:21.17 | 3:57.68 | 6092 | 23934
3 | 5:19.10 | 0:52.07 | 23935 | 27841
4 | 6:11.17 | 3:36.00 | 27842 | 44041
5 | 9:47.17 | 2:50.23 | 44042 | 56814
6 | 12:37.40 | 3:57.67 | 56815 | 74656
7 | 16:35.32 | 1:05.20 | 74657 | 79551
8 | 17:40.52 | 4:05.35 | 79552 | 97961
9 | 21:46.12 | 3:28.20 | 97962 | 113581
10 | 25:14.32 | 1:34.05 | 113582 | 120636
11 | 26:48.37 | 3:49.65 | 120637 | 137876
12 | 30:38.27 | 4:34.03 | 137877 | 158429
13 | 35:12.30 | 3:28.40 | 158430 | 174069
14 | 38:40.70 | 3:39.20 | 174070 | 190514
15 | 42:20.15 | 2:53.17 | 190515 | 203506
16 | 45:13.32 | 4:12.68 | 203507 | 222474
17 | 49:26.25 | 4:29.10 | 222475 | 242659
18 | 53:55.35 | 0:44.50 | 242660 | 246009
19 | 54:40.10 | 4:00.67 | 246010 | 264076

Track 1

Filename C:My DocumentsMy FLACSaafir – Boxcar Sessions (1994) [FLAC] {Qwest}1 – Grab The Train.wav

Pre-gap length 0:00:02.32

Peak level 98.6 %
Extraction speed 2.0 X
Track quality 100.0 %
Test CRC E062C404
Copy CRC E062C404
Accurately ripped (confidence 6) [A8B33BDB] (AR v2)
Copy OK

Track 2

Filename C:My DocumentsMy FLACSaafir – Boxcar Sessions (1994) [FLAC] {Qwest}2 – Swig Of The Stew.wav

Pre-gap length 0:00:00.02

Peak level 97.9 %
Extraction speed 2.8 X
Track quality 100.0 %
Test CRC 5731CF88
Copy CRC 5731CF88
Accurately ripped (confidence 6) [39979071] (AR v2)
Copy OK

Track 3

Filename C:My DocumentsMy FLACSaafir – Boxcar Sessions (1994) [FLAC] {Qwest}3 – Poke Martian.wav

Pre-gap length 0:00:00.03

Peak level 97.9 %
Extraction speed 1.2 X
Track quality 99.7 %
Test CRC C7999288
Copy CRC C7999288
Accurately ripped (confidence 6) [52DC8E23] (AR v2)
Copy OK

Track 4

Filename C:My DocumentsMy FLACSaafir – Boxcar Sessions (1994) [FLAC] {Qwest}4 – Playa Hayta.wav

Pre-gap length 0:00:00.02

Peak level 100.0 %
Extraction speed 3.1 X
Track quality 100.0 %
Test CRC E5E5D93A
Copy CRC E5E5D93A
Accurately ripped (confidence 6) [1566CE30] (AR v2)
Copy OK

Track 5

Filename C:My DocumentsMy FLACSaafir – Boxcar Sessions (1994) [FLAC] {Qwest}5 – Pee Wee.wav

Pre-gap length 0:00:00.02

Peak level 90.7 %
Extraction speed 2.5 X
Track quality 99.9 %
Test CRC 205059C9
Copy CRC 205059C9
Accurately ripped (confidence 6) [3F0A5EE6] (AR v2)
Copy OK

Track 6

Filename C:My DocumentsMy FLACSaafir – Boxcar Sessions (1994) [FLAC] {Qwest}6 – Battle Drill.wav

Pre-gap length 0:00:00.03

Peak level 98.6 %
Extraction speed 3.2 X
Track quality 100.0 %
Test CRC CE572AE4
Copy CRC CE572AE4
Accurately ripped (confidence 6) [0FC145E7] (AR v2)
Copy OK

Track 7

Filename C:My DocumentsMy FLACSaafir – Boxcar Sessions (1994) [FLAC] {Qwest}7 – Westside.wav

Pre-gap length 0:00:00.02

Peak level 88.6 %
Extraction speed 2.3 X
Track quality 100.0 %
Test CRC 49374FF3
Copy CRC 49374FF3
Accurately ripped (confidence 6) [B8D4F6D0] (AR v2)
Copy OK

Track 8

Filename C:My DocumentsMy FLACSaafir – Boxcar Sessions (1994) [FLAC] {Qwest}8 – Worship The D.wav

Pre-gap length 0:00:00.02

Peak level 96.6 %
Extraction speed 3.5 X
Track quality 100.0 %
Test CRC D9BC84EE
Copy CRC D9BC84EE
Accurately ripped (confidence 6) [F103EB5B] (AR v2)
Copy OK

Track 9

Filename C:My DocumentsMy FLACSaafir – Boxcar Sessions (1994) [FLAC] {Qwest}9 – Light Sleeper.wav

Pre-gap length 0:00:00.27

Peak level 96.3 %
Extraction speed 3.5 X
Track quality 100.0 %
Test CRC 1C444C06
Copy CRC 1C444C06
Accurately ripped (confidence 6) [3C2B779D] (AR v2)
Copy OK

Track 10

Filename C:My DocumentsMy FLACSaafir – Boxcar Sessions (1994) [FLAC] {Qwest}10 – Rashinel.wav

Pre-gap length 0:00:00.02

Peak level 99.4 %
Extraction speed 2.4 X
Track quality 100.0 %
Test CRC 9A0F9CD7
Copy CRC 9A0F9CD7
Accurately ripped (confidence 6) [BFD9B01A] (AR v2)
Copy OK

Track 11

Filename C:My DocumentsMy FLACSaafir – Boxcar Sessions (1994) [FLAC] {Qwest}11 – Can-U-Feel-Me.wav

Pre-gap length 0:00:00.02

Peak level 97.1 %
Extraction speed 3.8 X
Track quality 100.0 %
Test CRC 1DDE15F5
Copy CRC 1DDE15F5
Accurately ripped (confidence 6) [A2FE7B8F] (AR v2)
Copy OK

Track 12

Filename C:My DocumentsMy FLACSaafir – Boxcar Sessions (1994) [FLAC] {Qwest}12 – No Return (Goin’ Crazy).wav

Pre-gap length 0:00:00.02

Peak level 96.8 %
Extraction speed 3.6 X
Track quality 100.0 %
Test CRC 45F9A1ED
Copy CRC 45F9A1ED
Accurately ripped (confidence 6) [1CEB99A0] (AR v2)
Copy OK

Track 13

Filename C:My DocumentsMy FLACSaafir – Boxcar Sessions (1994) [FLAC] {Qwest}13 – Big Nose.wav

Pre-gap length 0:00:00.03

Peak level 97.9 %
Extraction speed 4.0 X
Track quality 100.0 %
Test CRC 96B0E256
Copy CRC 96B0E256
Accurately ripped (confidence 6) [94766DE2] (AR v2)
Copy OK

Track 14

Filename C:My DocumentsMy FLACSaafir – Boxcar Sessions (1994) [FLAC] {Qwest}14 – Just Riden’.wav

Pre-gap length 0:00:00.03

Peak level 96.5 %
Extraction speed 3.5 X
Track quality 100.0 %
Test CRC 4CCB4AFA
Copy CRC 4CCB4AFA
Accurately ripped (confidence 6) [D23D4352] (AR v2)
Copy OK

Track 15

Filename C:My DocumentsMy FLACSaafir – Boxcar Sessions (1994) [FLAC] {Qwest}15 – Hype Shit.wav

Pre-gap length 0:00:00.20

Peak level 100.0 %
Extraction speed 3.2 X
Track quality 100.0 %
Test CRC 803F52F5
Copy CRC 803F52F5
Accurately ripped (confidence 6) [F1F2D21C] (AR v2)
Copy OK

Track 16

Filename C:My DocumentsMy FLACSaafir – Boxcar Sessions (1994) [FLAC] {Qwest}16 – Real Circus.wav

Pre-gap length 0:00:00.02

Peak level 100.0 %
Extraction speed 0.6 X
Track quality 100.0 %
Test CRC A5E62C5E
Copy CRC A5E62C5E
Accurately ripped (confidence 6) [E58069A4] (AR v2)
Copy OK

Track 17

Filename C:My DocumentsMy FLACSaafir – Boxcar Sessions (1994) [FLAC] {Qwest}17 – Bent.wav

Pre-gap length 0:00:00.05

Peak level 100.0 %
Extraction speed 3.3 X
Track quality 100.0 %
Test CRC 5A9A7838
Copy CRC 5A9A7838
Accurately ripped (confidence 6) [243E554A] (AR v2)
Copy OK

Track 18

Filename C:My DocumentsMy FLACSaafir – Boxcar Sessions (1994) [FLAC] {Qwest}18 – The Instructor.wav

Pre-gap length 0:00:00.03

Peak level 95.4 %
Extraction speed 2.3 X
Track quality 100.0 %
Test CRC 1D53EC08
Copy CRC 1D53EC08
Accurately ripped (confidence 6) [B8091FA6] (AR v2)
Copy OK

Track 19

Filename C:My DocumentsMy FLACSaafir – Boxcar Sessions (1994) [FLAC] {Qwest}19 – Joint Custody.wav

Pre-gap length 0:00:00.03

Peak level 95.7 %
Extraction speed 4.0 X
Track quality 100.0 %
Test CRC 0082F9EA
Copy CRC 0082F9EA
Accurately ripped (confidence 6) [A7E65ABF] (AR v2)
Copy OK

All tracks accurately ripped

No errors occurred

End of status report

–– CUETools DB Plugin V2.1.6

[CTDB TOCID: 97FJt_RLnzfk6UMeshcDdr36g1k-] found
Submit result: 97FJt_RLnzfk6UMeshcDdr36g1k- has been confirmed
Track | CTDB Status
1 | (6/6) Accurately ripped
2 | (6/6) Accurately ripped
3 | (6/6) Accurately ripped
4 | (6/6) Accurately ripped
5 | (6/6) Accurately ripped
6 | (6/6) Accurately ripped
7 | (6/6) Accurately ripped
8 | (6/6) Accurately ripped
9 | (6/6) Accurately ripped
10 | (6/6) Accurately ripped
11 | (6/6) Accurately ripped
12 | (6/6) Accurately ripped
13 | (6/6) Accurately ripped
14 | (6/6) Accurately ripped
15 | (6/6) Accurately ripped
16 | (6/6) Accurately ripped
17 | (6/6) Accurately ripped
18 | (6/6) Accurately ripped
19 | (6/6) Accurately ripped

==== Log checksum C1E847BD78632FDF2013213BB21BE69D5D42F72E8A28BEFCA93BA2E29ED4DA6D ====

Saafir - Boxcar Sessions (1994) {Qwest}

Saafir – Boxcar Sessions (1994) {Qwest} Download, Warez, DDL, Free, Full Album, Torrent, Legal.

Download


  • Recent Posts

  • Recent Tags