Rush – Permanent Waves (1980) (MFSL) | ViralVideoPk

Daily Dose of Free Downloads

Rush – Permanent Waves (1980) (MFSL)

Download

Rush - Permanent Waves (1980) (MFSL)

Rush – Permanent Waves (1980) (MFSL)
Rock | 1cd | EAC Rip | Flac + Cue + Log | covers
MFSL UDCD-772 | rem: 2007 | 250Mb

Since Neil Peart joined the band in time for 1975’s Fly by Night, Rush had been experimenting and growing musically with each successive release. By 1980’s Permanent Waves, the modern sounds of new wave (the Police, Peter Gabriel, etc.) began to creep into Rush’s sound, but the trio still kept their hard rock roots intact. The new approach paid off – two of their most popular songs, the "make a difference" anthem "Freewill," and a tribute to the Toronto radio station CFNY, "The Spirit of Radio" (the latter a U.K. Top 15 hit), are spectacular highlights. Also included were two "epics," the stormy "Jacob’s Ladder" and the album-closing "Natural Science," which contains a middle section that contains elements of reggae. Geddy Lee also began singing in a slightly lower register around this time, which made their music more accessible to fans outside of the heavy prog rock circle. The album proved to be the final breakthrough Rush needed to become an arena headliner throughout the world, beginning a string of albums that would reach inside the Top Five of the U.S. Billboard album charts. Permanent Waves is an undisputed hard rock classic, but Rush would outdo themselves with their next release. ~Allmusic

Track listing
01. The Spirit of Radio (5:00)
02. Freewill (5:22)
03. Jacob’s Ladder (7:31)
04. Entre Nous (4:38)
05. Different Strings (3:50)
06. Natural Science (9:18)

Personnel
– Geddy Lee – lead vocals, bass guitar, Oberheim polyphonic, Minimoog
– Alex Lifeson – electric and acoustic six- and twelve-string guitars
– Neil Peart – drums, timpani, timbales

eac log:
Exact Audio Copy V0.99 prebeta 4 from 23. January 2008

EAC extraction logfile from 16. April 2009, 15:38

Rush / Permanent Waves (MFSL UDCD-772)

Used drive : PLEXTOR DVDR PX-810SA Adapter: 2 ID: 0

Read mode : Secure
Utilize accurate stream : Yes
Defeat audio cache : Yes
Make use of C2 pointers : No

Read offset correction : 48
Overread into Lead-In and Lead-Out : No
Fill up missing offset samples with silence : Yes
Delete leading and trailing silent blocks : No
Null samples used in CRC calculations : Yes
Used interface : Installed external ASPI interface

Used output format : Internal WAV Routines
Sample format : 44.100 Hz; 16 Bit; Stereo

TOC of the extracted CD

Track | Start | Length | Start sector | End sector
––––––––––––––––––––––––––––-
1 | 0:00.00 | 5:02.51 | 0 | 22700
2 | 5:02.51 | 5:25.37 | 22701 | 47112
3 | 10:28.13 | 7:31.05 | 47113 | 80942
4 | 17:59.18 | 4:39.46 | 80943 | 101913
5 | 22:38.64 | 3:53.03 | 101914 | 119391
6 | 26:31.67 | 9:18.25 | 119392 | 161266

Range status and errors

Selected range

Filename D:LosslessRush – Permanent Waves (2007 MFSL UDCD-772)Rush – Permanent Waves (MFSL UDCD-772).wav

Peak level 97.7 %
Range quality 100.0 %
Test CRC 3B0C7257
Copy CRC 3B0C7257
Copy OK

No errors occurred

AccurateRip summary

Track 1 accurately ripped (confidence 29) [EBBC5E64]
Track 2 accurately ripped (confidence 29) [424EFDEA]
Track 3 accurately ripped (confidence 29) [4E5B4A3A]
Track 4 accurately ripped (confidence 29) [8B4D5D81]
Track 5 accurately ripped (confidence 29) [6E346483]
Track 6 accurately ripped (confidence 29) [C6919BDC]

All tracks accurately ripped

End of status report

cuetools report:
[CUETools log; Date: 2016. 12. 15. 23:12:14; Version: 2.1.6]
[CTDB TOCID: BClkod3Ois0jLuZMAM9t5.FDwnk-] found.
Track | CTDB Status
1 | (62/63) Accurately ripped
2 | (61/63) Accurately ripped
3 | (61/63) Accurately ripped
4 | (61/63) Accurately ripped
5 | (62/63) Accurately ripped
6 | (61/63) Accurately ripped
[AccurateRip ID: 00082352-002bb899-38086606] found.
Track [ CRC | V2 ] Status
01 [ebbc5e64|e3c8b18a] (090+071/163) Accurately ripped
02 [424efdea|cee6a927] (091+071/164) Accurately ripped
03 [4e5b4a3a|83ab56ea] (092+072/166) Accurately ripped
04 [8b4d5d81|445cf633] (091+072/165) Accurately ripped
05 [6e346483|1cc50ed9] (091+072/167) Accurately ripped
06 [c6919bdc|a2398b1f] (092+072/166) Accurately ripped
Offsetted by 6:
01 [fbf578f0] (002/163) Accurately ripped
02 [970047fa] (002/164) Accurately ripped
03 [ed2549b8] (002/166) Accurately ripped
04 [630016d9] (002/165) Accurately ripped
05 [3a388881] (002/167) Accurately ripped
06 [354b09ce] (002/166) Accurately ripped
Offsetted by -348:
01 [3ecc5aac] (000/163) No match
02 [1224364a] (000/164) No match
03 [549767ae] (000/166) No match
04 [accf5f91] (000/165) No match
05 [35443cf7] (000/167) No match (V2 was not tested)
06 [b08eb308] (000/166) No match

Track Peak [ CRC32 ] [W/O NULL] [ LOG ]
– 97,7 [3B0C7257] [B483CD2E] CRC32
01 97,7 [BC8F040F] [5DCC7091]
02 97,7 [0D1416BB] [44560149]
03 97,7 [4E836258] [94533611]
04 97,7 [E3F511CD] [AFA653BB]
05 97,7 [69443397] [7D035435]
06 97,7 [38B52343] [16F7374D]

Thx to erro

Rush – Permanent Waves (1980) (MFSL) Download, Warez, DDL, Free, Full Album, Torrent, Legal.

Download


  • Recent Posts

  • Recent Tags