Rupert Holmes – Pursuit Of Happiness (1978) [2010]

Download
Rupert Holmes - Pursuit Of Happiness (1978) [2010]

Rupert Holmes – Pursuit Of Happiness (1978) [2010]
EAC Rip | FLAC (Tracks) +CUE, LOG | 296 MB | Covers Included
Genre: Soft Rock, Soul, Folk | Label: MCA Records | Catalog Number: UICY-94739

A singer/songwriter and poet, Rupert Holmes has performed and written for many music legends, and gained fame on his own with a series of successful pop singles during the 1970s and ’80s. Although a reserved playwright and book writer, his contributions to the rock music industry and Broadway have been numerous. Holmes was born in England because of his father’s involvement in the U.S. Air Force. After the family moved to New York, Holmes developed an interest in music. He attended the Manhattan School of Music and, after graduation, began seriously considering a career as a songwriter. He played piano with the Cuff Links and the Buoys in the ’70s, also arranging and composing songs for Gene Pitney, the Platters, the Drifters, and the Partridge Family. In 1971, at the age of 24, Holmes gained a hit on both the American and U.K. charts with "Timothy."
Widescreen After this first hit, Holmes decided to pursue a singing career of his own. He released his first album, Widescreen, in 1974, and then produced albums for Barbra Streisand, Sparks, and Sailor. He released several more albums in the ’70s, including Rupert Holmes, Singles, and Pursuit of Happiness. The ’80s took Holmes into a new realm of success. Although known as a singer/songwriter, he acquired international fame with "Escape (The Pina Colada Song)" and "Him," which placed on both the U.K. and American charts. It only added to the success of the albums Partners in Crime, Adventure, and Full Circle.
Holmes later turned his attention to Broadway, and became a playwright. His 1986 Broadway musical, The Mystery of Edwin Drood, was the recipient of five Tony Awards. (Two awards, Best Book of a Musical and Original Score, were given to Holmes himself.) He also recorded the theme for the AMC film channel’s original series, Remember WENN. Holmes also began work on another musical, The Picture of Dorian Gray, based on the Oscar Wilde book of the same name.

EAC Log
Exact Audio Copy V1.0 beta 2 from 29. April 2011

Отчёт EAC об извлечении, выполненном 17. июля 2017, 14:58

Rupert Holmes / Pursuit Of Happiness

Дисковод: PLEXTOR BDDVDRPX-B330SA Adapter: 0 ID: 1

Режим чтения : Достоверность
Использование точного потока : Да
Отключение кэша аудио : Да
Использование указателей C2 : Нет

Коррекция смещения при чтении : 702
Способность читать области Lead-in и Lead-out : Нет
Заполнение пропущенных сэмплов тишиной : Да
Удаление блоков с тишиной в начале и конце : Нет
При вычислениях CRC использовались нулевые сэмплы : Да
Интерфейс : Встроенный Win32-интерфейс для Win NT/2000
Обработка зазоров : Добавлено к предыдущему треку

Выходной формат : Пользовательский кодировщик
Выбранный битрейт : 128 kBit/s
Качество : Высокий
Добавление ID3-тега : Нет
Утилита сжатия : C:Program FilesExact Audio CopyFLACFLAC.EXE
Дополнительные параметры : -6 -V -T "ARTIST=%artist%" -T "TITLE=%title%" -T "ALBUM=%albumtitle%" -T "DATE=%year%" -T "TRACKNUMBER=%tracknr%" -T "GENRE=%genre%" -T "COMMENT=%comment%" -T "BAND=%albuminterpret%" -T "COMPOSER=%composer%" %haslyrics%–tag-from-

TOC извлечённого CD

Трек | Старт | Длительность | Начальный сектор | Конечный сектор
––––––––––––––––––––––––––––––––––-
1 | 0:00.00 | 4:32.32 | 0 | 20431
2 | 4:32.32 | 3:01.26 | 20432 | 34032
3 | 7:33.58 | 4:43.67 | 34033 | 55324
4 | 12:17.50 | 3:21.62 | 55325 | 70461
5 | 15:39.37 | 5:23.00 | 70462 | 94686
6 | 21:02.37 | 3:32.74 | 94687 | 110660
7 | 24:35.36 | 3:20.73 | 110661 | 125733
8 | 27:56.34 | 4:24.16 | 125734 | 145549
9 | 32:20.50 | 3:29.62 | 145550 | 161286
10 | 35:50.37 | 3:44.17 | 161287 | 178103
11 | 39:34.54 | 3:46.02 | 178104 | 195055

Трек 1

Имя файла D:FLAC1 Less Is More.wav

Длина предзазора 0:00:02.00

Пиковый уровень 98.8 %
Скорость извлечения 5.1 X
Качество трека 100.0 %
CRC теста 23154CB6
CRC копии 23154CB6
Точность не определена (достоверность 3) [DEF5A56A], AccurateRip вернул [7C04EFFF] (AR v2)
Копирование… OK

Трек 2

Имя файла D:FLAC2 Show Me Where It Says.wav

Длина предзазора 0:00:03.20

Пиковый уровень 98.8 %
Скорость извлечения 5.0 X
Качество трека 100.0 %
CRC теста 5C7DEF7F
CRC копии 5C7DEF7F
Точность не определена (достоверность 3) [D8D592B5], AccurateRip вернул [A4B98C1B] (AR v2)
Копирование… OK

Трек 3

Имя файла D:FLAC3 Speechless.wav

Длина предзазора 0:00:02.41

Пиковый уровень 98.8 %
Скорость извлечения 6.0 X
Качество трека 100.0 %
CRC теста E738F083
CRC копии E738F083
Точность не определена (достоверность 3) [E347DD95], AccurateRip вернул [B3BD30B3] (AR v2)
Копирование… OK

Трек 4

Имя файла D:FLAC4 Cradle Me.wav

Длина предзазора 0:00:00.52

Пиковый уровень 98.8 %
Скорость извлечения 5.5 X
Качество трека 99.9 %
CRC теста EFA86C64
CRC копии EFA86C64
Точность не определена (достоверность 3) [CD31A457], AccurateRip вернул [BCA3FE17] (AR v2)
Копирование… OK

Трек 5

Имя файла D:FLAC5 So Beautiful It Hurts.wav

Длина предзазора 0:00:02.72

Пиковый уровень 98.8 %
Скорость извлечения 6.3 X
Качество трека 99.9 %
CRC теста C175280E
CRC копии C175280E
Точность не определена (достоверность 3) [44D459ED], AccurateRip вернул [AA190902] (AR v2)
Копирование… OK

Трек 6

Имя файла D:FLAC6 Let’s Get Crazy Tonight.wav

Длина предзазора 0:00:02.51

Пиковый уровень 98.8 %
Скорость извлечения 7.1 X
Качество трека 100.0 %
CRC теста 448C2AE4
CRC копии 448C2AE4
Точность не определена (достоверность 3) [8532BAF0], AccurateRip вернул [FDA16C16] (AR v2)
Копирование… OK

Трек 7

Имя файла D:FLAC7 Bedside Companions.wav

Длина предзазора 0:00:03.39

Пиковый уровень 98.8 %
Скорость извлечения 7.0 X
Качество трека 100.0 %
CRC теста 525D77BD
CRC копии 525D77BD
Точность не определена (достоверность 3) [128B754D], AccurateRip вернул [16F00A97] (AR v2)
Копирование… OK

Трек 8

Имя файла D:FLAC8 Guitars.wav

Длина предзазора 0:00:00.48

Пиковый уровень 98.8 %
Скорость извлечения 7.7 X
Качество трека 100.0 %
CRC теста 33F7E431
CRC копии 33F7E431
Точность не определена (достоверность 3) [FC836911], AccurateRip вернул [5EE5A73E] (AR v2)
Копирование… OK

Трек 9

Имя файла D:FLAC9 The Long Way Home.wav

Длина предзазора 0:00:01.64

Пиковый уровень 98.8 %
Скорость извлечения 7.0 X
Качество трека 99.9 %
CRC теста 804B540C
CRC копии 804B540C
Точность не определена (достоверность 3) [9FBABDCA], AccurateRip вернул [986AD486] (AR v2)
Копирование… OK

Трек 10

Имя файла D:FLAC10 Town Square.wav

Длина предзазора 0:00:01.51

Пиковый уровень 98.8 %
Скорость извлечения 8.3 X
Качество трека 100.0 %
CRC теста C104F0EE
CRC копии C104F0EE
Точность не определена (достоверность 3) [53940387], AccurateRip вернул [C9D81776] (AR v2)
Копирование… OK

Трек 11

Имя файла D:FLAC11 The Old School.wav

Пиковый уровень 98.8 %
Скорость извлечения 4.5 X
Качество трека 100.0 %
CRC теста 770BBF8E
CRC копии 770BBF8E
Точность не определена (достоверность 3) [9BBD6BDC], AccurateRip вернул [8214BB8E] (AR v2)
Копирование… OK

Ни один трек не прошёл проверки на точность
В вашей базе может быть иной вариант штамповки диска

Ошибок не произошло

Конец отчёта

–– CUETools DB Plugin V2.1.4

[CTDB TOCID: fDZ9HCdqra8kazSzH3icOE2brt0-] found
Submit result: fDZ9HCdqra8kazSzH3icOE2brt0- has been confirmed
Track | CTDB Status
1 | (12/12) Accurately ripped
2 | (12/12) Accurately ripped
3 | (12/12) Accurately ripped
4 | (12/12) Accurately ripped
5 | (12/12) Accurately ripped
6 | (10/12) Accurately ripped
7 | ( 8/12) Accurately ripped
8 | (10/12) Accurately ripped
9 | ( 9/12) Accurately ripped
10 | ( 9/12) Accurately ripped
11 | ( 9/12) Accurately ripped

==== Контрольная сумма отчёта 827C58C87EF131FA17D9C4C4990025A075266017A2E6E8931ED7277B8181D740 ====

Tracklist:
01 Less Is More (04:32)
02 Show Me Where It Says (03:01)
03 Speechless (04:43)
04 Cradle Me (03:21)
05 So Beautiful It Hurts (05:23)
06 Let’s Get Crazy Tonight (03:32)
07 Bedside Companions (03:20)
08 Guitars (04:24)
09 The Long Way Home (03:29)
10 Town Square (03:44)
11 The Old School (03:46)

Thanks to the original ripper

Rupert Holmes – Pursuit Of Happiness (1978) [2010] Download, Warez, DDL, Free, Full Album, Torrent, Legal.

Download