Rufus Harley – Courage: The Atlantic Recordings (2006) 2CDs

Download
Rufus Harley - Courage: The Atlantic Recordings (2006) 2CDs

Rufus Harley – Courage: The Atlantic Recordings (2006) 2CDs
XLD | FLAC | Tracks (Cue&Log) ~ 1 Gb (incl 5%) | Scans ~ 83 Mb | Time: 02:38:42
Hard Bop, Soul Jazz, Post-Bop, Ethnic Jazz, Bagpipes | Atlantic/Rhino | # RHM2 7725

At the heart of Courage: The Atlantic Recordings (2006) are the four out-of-print LPs that multi-instrumentalist Rufus Harley (bagpipes/flute/sax) cut for the label during the mid- to late 1960s. Also featured are a previously unissued cover of "Where Have All the Flowers Gone" as well as "Pipin’ the Blues," a Harley/Stitt duet from Sonny Stitt’s Deuces Wild (1967) platter. Although criminally dismissed by many as a novelty, Harley successfully integrated the seemingly limited B flat and F drone of the bagpipes into the realm of (concurrently) modern jazz. Harley’s early life was a struggle with poverty, during which his alcoholic mother would often pawn his treasured C-melody sax for liquor money. Proving his sincerity to the music, Harley without fail would retrieve his instrument via odd jobs. However, his focus changed on November 25, 1963 as Harley – along with the rest of the free world – tuned in to the memorial of President John F. Kennedy. When Harley heard the pipers from the Black Watch of the Royal Highlanders Regiment during the funeral procession, the sound struck him as producing the same tonality that he had been unsuccessfully trying to coax out of his sax. It was then a matter of hooking up with Joel Dorn, a fellow Philly resident and local jazz disc jockey. Dorn was also carving himself out a niche as a record producer of some renown, having worked with Sonny Stitt, David "Fathead" Newman, and Rahsaan Roland Kirk, among others. Dorn obviously appreciated Harley’s remarkable talents, eventually going on to produce his entire Atlantic Records output. The first two LPs, Bagpipe Blues (1966) and Scotch and Soul (1966), are stylistically akin, blending originals with the occasional jazz and show tune/Great American Songbook entry. Harley vacillates between the bagpipes, flute and saxes. He even turns the tables on himself by playing some fiery soprano sax on the traditional Irish "Kerry Dancers" – the one tune that, by most accounts, should have been executed on the bagpipes. On the samba-friendly "More," Harley’s lyricism as a flautist gets its due, while the emotive take of "Sometimes I Feel Like a Motherless Child" is nothing short of tear-inducing. Tribute to Courage (1967) followed with a half-dozen works, four of which were dedicated to Harley’s respective heroes. The fallen American leader is parenthetically praised on "A Tribute to Courage (JFK)," while "Ali" is a sonic salute to the sports demigod who had been stripped of his title for refusing to fight in Vietnam. "X" was a nod to slain civil rights activist Malcolm X and "About ‘Trane" was Harley’s heartfelt homage to his friend, the very recently departed John Coltrane which, suitably, Harley performs on tenor sax. Kings/Queens (1969) is the final album included on this anthology, although Harley would go on to record again after a brief sabbatical to raise his family. The effort is markedly different from the others as the selections are considerably more pop oriented and Harley’s small combo has been replaced by studio session stalwarts. The readings of "Windy" and "Eight Miles High" are stunning keepers, while the extended centerpieces "King" and "Queens" are mini-masterworks whose social importance may well rival its musical magnitude.

Review by Lindsay Planer, Allmusic.com

Rufus Harley - Courage: The Atlantic Recordings (2006) 2CDs

Rufus Harley at Allmusic
Rufus Harley at Wiki

Tracklist:

CD1:

01. Bagpipe Blues (02:43)
02. Kerry Dancers (06:06)
03. Who Can I Turn To (When Nobody Needs Me) (04:00)
04. More (06:42)
05. Chim Chim Cheree (02:29)
06. Sportin’ (05:10)
07. Sometimes I Feel Like a Motherless Child (05:42)
08. Feeling Good (07:34)
09. If You Could See Me Now (06:18)
10. Taurus the 20th (06:59)
11. Scotch & Soul (05:06)
12. Passing the Cup Around (04:07)
13. A Nightingale Sang in Berkeley Square (05:06)
14. Sufur (04:53)
15. Pipin’ the Blues (05:53)

CD2:

01. Sunny (07:09)
02. A Tribute to Courage (JFK) (07:49)
03. Swing Low Sweet Chariot (05:38)
04. Ali (05:06)
05. ‘X’ (03:33)
06. About Trane (07:49)
07. Eight Miles High (06:00)
08. Moon River (06:04)
09. Love Is Blue (06:36)
10. Windy (04:11)
11. King (07:34)
12. Queens (09:02)
13. Where Have All the Flowers Gone? (03:10)

XLD log CD1
X Lossless Decoder version 20141129a (148.2)

XLD extraction logfile from 2015-08-28 14:19:04 -0400

Rufus Harley / Courage: The Atlantic Recordings [Disc 1]

Used drive : HL-DT-ST BD-RE WH16NS40 (revision 1.00)
Media type : Pressed CD

Ripper mode : XLD Secure Ripper
Disable audio cache : OK for the drive with a cache less than 1375KiB
Make use of C2 pointers : NO
Read offset correction : 6
Max retry count : 100
Gap status : Analyzed, Appended (except HTOA)

TOC of the extracted CD
Track | Start | Length | Start sector | End sector
––––––––––––––––––––––––––––-
1 | 00:00:00 | 02:43:16 | 0 | 12240
2 | 02:43:16 | 06:06:51 | 12241 | 39741
3 | 08:49:67 | 04:00:57 | 39742 | 57798
4 | 12:50:49 | 06:42:60 | 57799 | 88008
5 | 19:33:34 | 02:29:10 | 88009 | 99193
6 | 22:02:44 | 05:10:29 | 99194 | 122472
7 | 27:12:73 | 05:42:64 | 122473 | 148186
8 | 32:55:62 | 07:34:67 | 148187 | 182303
9 | 40:30:54 | 06:18:53 | 182304 | 210706
10 | 46:49:32 | 06:59:36 | 210707 | 242167
11 | 53:48:68 | 05:06:29 | 242168 | 265146
12 | 58:55:22 | 04:07:31 | 265147 | 283702
13 | 63:02:53 | 05:06:37 | 283703 | 306689
14 | 68:09:15 | 04:53:20 | 306690 | 328684
15 | 73:02:35 | 05:53:50 | 328685 | 355209

AccurateRip Summary (DiscID: 0029d7f3-01e2d0ad-cd12800f)
Track 01 : OK (v2, confidence 2/2)
Track 02 : OK (v2, confidence 2/2)
Track 03 : OK (v2, confidence 2/2)
Track 04 : OK (v2, confidence 2/2)
Track 05 : OK (v2, confidence 2/2)
Track 06 : OK (v2, confidence 2/2)
Track 07 : OK (v2, confidence 2/2)
Track 08 : OK (v2, confidence 2/2)
Track 09 : OK (v2, confidence 2/2)
Track 10 : OK (v2, confidence 2/2)
Track 11 : OK (v2, confidence 2/2)
Track 12 : OK (v2, confidence 2/2)
Track 13 : OK (v2, confidence 2/2)
Track 14 : OK (v2, confidence 2/2)
Track 15 : OK (v2, confidence 1/2)
->All tracks accurately ripped.

All Tracks
Album gain : -2.88 dB
Peak : 0.892059
Statistics
Read error : 0
Jitter error (maybe fixed) : 0
Retry sector count : 0
Damaged sector count : 0

Track 01
Filename : /Volumes/Master/XLD Rips/Rufus Harley – Courageпјљ The Atlantic Recordings [Disc 1] [ALAC]/01 – Bagpipe Blues.m4a
/Volumes/Master/XLD Rips/Rufus Harley – Courageпјљ The Atlantic Recordings [Disc 1] [FLAC]/01 – Bagpipe Blues.flac
Pre-gap length : 00:02:00

Track gain : -3.34 dB
Peak : 0.822235
CRC32 hash (test run) : 4DD6215D
CRC32 hash : 4DD6215D
CRC32 hash (skip zero) : 2F7A794B
AccurateRip v1 signature : A768D016
AccurateRip v2 signature : B737E1D3
->Accurately ripped (v2, confidence 2/2)
Statistics
Read error : 0
Jitter error (maybe fixed) : 0
Retry sector count : 0
Damaged sector count : 0

Track 02
Filename : /Volumes/Master/XLD Rips/Rufus Harley – Courageпјљ The Atlantic Recordings [Disc 1] [ALAC]/02 – Kerry Dancers.m4a
/Volumes/Master/XLD Rips/Rufus Harley – Courageпјљ The Atlantic Recordings [Disc 1] [FLAC]/02 – Kerry Dancers.flac
Pre-gap length : 00:01:30

Track gain : -2.76 dB
Peak : 0.867615
CRC32 hash (test run) : AED21C49
CRC32 hash : AED21C49
CRC32 hash (skip zero) : 191A5F68
AccurateRip v1 signature : 518B91AC
AccurateRip v2 signature : 0AF54253
->Accurately ripped (v2, confidence 2/2)
Statistics
Read error : 0
Jitter error (maybe fixed) : 0
Retry sector count : 0
Damaged sector count : 0

Track 03
Filename : /Volumes/Master/XLD Rips/Rufus Harley – Courageпјљ The Atlantic Recordings [Disc 1] [ALAC]/03 – Who Can I Turn To (When Nobody Needs Me).m4a
/Volumes/Master/XLD Rips/Rufus Harley – Courageпјљ The Atlantic Recordings [Disc 1] [FLAC]/03 – Who Can I Turn To (When Nobody Needs Me).flac
Pre-gap length : 00:01:13

Track gain : 1.35 dB
Peak : 0.518494
CRC32 hash (test run) : A9F9B134
CRC32 hash : A9F9B134
CRC32 hash (skip zero) : 28F435DD
AccurateRip v1 signature : 1CDC8DE7
AccurateRip v2 signature : 0DE5844B
->Accurately ripped (v2, confidence 2/2)
Statistics
Read error : 0
Jitter error (maybe fixed) : 0
Retry sector count : 0
Damaged sector count : 0

Track 04
Filename : /Volumes/Master/XLD Rips/Rufus Harley – Courageпјљ The Atlantic Recordings [Disc 1] [ALAC]/04 – More.m4a
/Volumes/Master/XLD Rips/Rufus Harley – Courageпјљ The Atlantic Recordings [Disc 1] [FLAC]/04 – More.flac
Pre-gap length : 00:02:33

Track gain : -1.42 dB
Peak : 0.791870
CRC32 hash (test run) : 03BE0D32
CRC32 hash : 03BE0D32
CRC32 hash (skip zero) : 9D93F2DE
AccurateRip v1 signature : DFB87BD9
AccurateRip v2 signature : 4BA2B353
->Accurately ripped (v2, confidence 2/2)
Statistics
Read error : 0
Jitter error (maybe fixed) : 0
Retry sector count : 0
Damaged sector count : 0

Track 05
Filename : /Volumes/Master/XLD Rips/Rufus Harley – Courageпјљ The Atlantic Recordings [Disc 1] [ALAC]/05 – Chim Chim Cher-ee.m4a
/Volumes/Master/XLD Rips/Rufus Harley – Courageпјљ The Atlantic Recordings [Disc 1] [FLAC]/05 – Chim Chim Cher-ee.flac
Pre-gap length : 00:01:70

Track gain : -3.29 dB
Peak : 0.847137
CRC32 hash (test run) : 3E5D8663
CRC32 hash : 3E5D8663
CRC32 hash (skip zero) : FB54412D
AccurateRip v1 signature : C9BC5880
AccurateRip v2 signature : 6DD9CC74
->Accurately ripped (v2, confidence 2/2)
Statistics
Read error : 0
Jitter error (maybe fixed) : 0
Retry sector count : 0
Damaged sector count : 0

Track 06
Filename : /Volumes/Master/XLD Rips/Rufus Harley – Courageпјљ The Atlantic Recordings [Disc 1] [ALAC]/06 – Sportin’.m4a
/Volumes/Master/XLD Rips/Rufus Harley – Courageпјљ The Atlantic Recordings [Disc 1] [FLAC]/06 – Sportin’.flac
Pre-gap length : 00:02:16

Track gain : -0.94 dB
Peak : 0.739929
CRC32 hash (test run) : C6BFB518
CRC32 hash : C6BFB518
CRC32 hash (skip zero) : C68C74B2
AccurateRip v1 signature : 04A565C6
AccurateRip v2 signature : 1F80C1A9
->Accurately ripped (v2, confidence 2/2)
Statistics
Read error : 0
Jitter error (maybe fixed) : 0
Retry sector count : 0
Damaged sector count : 0

Track 07
Filename : /Volumes/Master/XLD Rips/Rufus Harley – Courageпјљ The Atlantic Recordings [Disc 1] [ALAC]/07 – Sometimes I Feel Like a Motherless Child.m4a
/Volumes/Master/XLD Rips/Rufus Harley – Courageпјљ The Atlantic Recordings [Disc 1] [FLAC]/07 – Sometimes I Feel Like a Motherless Child.flac
Pre-gap length : 00:02:22

Track gain : 2.42 dB
Peak : 0.579102
CRC32 hash (test run) : 9620C140
CRC32 hash : 9620C140
CRC32 hash (skip zero) : 26A59668
AccurateRip v1 signature : AD3FA6F0
AccurateRip v2 signature : 0B5F1E6A
->Accurately ripped (v2, confidence 2/2)
Statistics
Read error : 0
Jitter error (maybe fixed) : 0
Retry sector count : 0
Damaged sector count : 0

Track 08
Filename : /Volumes/Master/XLD Rips/Rufus Harley – Courageпјљ The Atlantic Recordings [Disc 1] [ALAC]/08 – Feeling Good.m4a
/Volumes/Master/XLD Rips/Rufus Harley – Courageпјљ The Atlantic Recordings [Disc 1] [FLAC]/08 – Feeling Good.flac
Pre-gap length : 00:05:39

Track gain : -3.64 dB
Peak : 0.819031
CRC32 hash (test run) : 399E4FD3
CRC32 hash : 399E4FD3
CRC32 hash (skip zero) : 214A8C6B
AccurateRip v1 signature : C1E46FA1
AccurateRip v2 signature : 09B44854
->Accurately ripped (v2, confidence 2/2)
Statistics
Read error : 0
Jitter error (maybe fixed) : 0
Retry sector count : 0
Damaged sector count : 0

Track 09
Filename : /Volumes/Master/XLD Rips/Rufus Harley – Courageпјљ The Atlantic Recordings [Disc 1] [ALAC]/09 – If You Could See Me Now.m4a
/Volumes/Master/XLD Rips/Rufus Harley – Courageпјљ The Atlantic Recordings [Disc 1] [FLAC]/09 – If You Could See Me Now.flac
Pre-gap length : 00:02:57

Track gain : -2.86 dB
Peak : 0.892059
CRC32 hash (test run) : F5BFEE1A
CRC32 hash : F5BFEE1A
CRC32 hash (skip zero) : 2439DBA7
AccurateRip v1 signature : 4F0F1E4A
AccurateRip v2 signature : F1E06E67
->Accurately ripped (v2, confidence 2/2)
Statistics
Read error : 0
Jitter error (maybe fixed) : 0
Retry sector count : 0
Damaged sector count : 0

Track 10
Filename : /Volumes/Master/XLD Rips/Rufus Harley – Courageпјљ The Atlantic Recordings [Disc 1] [ALAC]/10 – Taurus the 20th.m4a
/Volumes/Master/XLD Rips/Rufus Harley – Courageпјљ The Atlantic Recordings [Disc 1] [FLAC]/10 – Taurus the 20th.flac
Pre-gap length : 00:04:48

Track gain : 0.02 dB
Peak : 0.769745
CRC32 hash (test run) : 467C9243
CRC32 hash : 467C9243
CRC32 hash (skip zero) : 0DE83EA4
AccurateRip v1 signature : 5FE824A4
AccurateRip v2 signature : D4EA9A2A
->Accurately ripped (v2, confidence 2/2)
Statistics
Read error : 0
Jitter error (maybe fixed) : 0
Retry sector count : 0
Damaged sector count : 0

Track 11
Filename : /Volumes/Master/XLD Rips/Rufus Harley – Courageпјљ The Atlantic Recordings [Disc 1] [ALAC]/11 – Scotch and Soul.m4a
/Volumes/Master/XLD Rips/Rufus Harley – Courageпјљ The Atlantic Recordings [Disc 1] [FLAC]/11 – Scotch and Soul.flac
Pre-gap length : 00:03:05

Track gain : -3.56 dB
Peak : 0.831879
CRC32 hash (test run) : F28F40A1
CRC32 hash : F28F40A1
CRC32 hash (skip zero) : 1C29482C
AccurateRip v1 signature : D6ED31E3
AccurateRip v2 signature : 5148E1F5
->Accurately ripped (v2, confidence 2/2)
Statistics
Read error : 0
Jitter error (maybe fixed) : 0
Retry sector count : 0
Damaged sector count : 0

Track 12
Filename : /Volumes/Master/XLD Rips/Rufus Harley – Courageпјљ The Atlantic Recordings [Disc 1] [ALAC]/12 – Passing the Cup Around.m4a
/Volumes/Master/XLD Rips/Rufus Harley – Courageпјљ The Atlantic Recordings [Disc 1] [FLAC]/12 – Passing the Cup Around.flac
Pre-gap length : 00:02:09

Track gain : -1.54 dB
Peak : 0.886902
CRC32 hash (test run) : 09EB3F2A
CRC32 hash : 09EB3F2A
CRC32 hash (skip zero) : 8A4123ED
AccurateRip v1 signature : 62562528
AccurateRip v2 signature : F5B40F7F
->Accurately ripped (v2, confidence 2/2)
Statistics
Read error : 0
Jitter error (maybe fixed) : 0
Retry sector count : 0
Damaged sector count : 0

Track 13
Filename : /Volumes/Master/XLD Rips/Rufus Harley – Courageпјљ The Atlantic Recordings [Disc 1] [ALAC]/13 – A Nightingale Sang in Berkeley Square.m4a
/Volumes/Master/XLD Rips/Rufus Harley – Courageпјљ The Atlantic Recordings [Disc 1] [FLAC]/13 – A Nightingale Sang in Berkeley Square.flac
Pre-gap length : 00:03:57

Track gain : -3.49 dB
Peak : 0.889069
CRC32 hash (test run) : 4A055635
CRC32 hash : 4A055635
CRC32 hash (skip zero) : 013A6A58
AccurateRip v1 signature : 7087E115
AccurateRip v2 signature : B62B2713
->Accurately ripped (v2, confidence 2/2)
Statistics
Read error : 0
Jitter error (maybe fixed) : 0
Retry sector count : 0
Damaged sector count : 0

Track 14
Filename : /Volumes/Master/XLD Rips/Rufus Harley – Courageпјљ The Atlantic Recordings [Disc 1] [ALAC]/14 – Sufur.m4a
/Volumes/Master/XLD Rips/Rufus Harley – Courageпјљ The Atlantic Recordings [Disc 1] [FLAC]/14 – Sufur.flac
Pre-gap length : 00:02:68

Track gain : -4.04 dB
Peak : 0.844147
CRC32 hash (test run) : 011CC02A
CRC32 hash : 011CC02A
CRC32 hash (skip zero) : F9518C60
AccurateRip v1 signature : AF9E95C5
AccurateRip v2 signature : 56C02265
->Accurately ripped (v2, confidence 2/2)
Statistics
Read error : 0
Jitter error (maybe fixed) : 0
Retry sector count : 0
Damaged sector count : 0

Track 15
Filename : /Volumes/Master/XLD Rips/Rufus Harley – Courageпјљ The Atlantic Recordings [Disc 1] [ALAC]/15 – Pipin’ the Blues.m4a
/Volumes/Master/XLD Rips/Rufus Harley – Courageпјљ The Atlantic Recordings [Disc 1] [FLAC]/15 – Pipin’ the Blues.flac
Pre-gap length : 00:03:39

Track gain : -4.32 dB
Peak : 0.868011
CRC32 hash (test run) : 3BA7AD82
CRC32 hash : 3BA7AD82
CRC32 hash (skip zero) : 617CAA66
AccurateRip v1 signature : 17303931
AccurateRip v2 signature : BB6D69FD
->Accurately ripped (v2, confidence 1/2)
Statistics
Read error : 0
Jitter error (maybe fixed) : 0
Retry sector count : 0
Damaged sector count : 0

No errors occurred

End of status report

––-BEGIN XLD SIGNATURE––-
xUfMIk.EQx03GaVY4dfqaEwQ7I2yhZdWdB.ijubgt.EPwXVsDepOA.lIe8E2cpPNiRsrcibgJrBlvU5KIvravxIT_FJDNQye9hyN5WC
––-END XLD SIGNATURE––-

DR log CD1
foobar2000 1.2 / Dynamic Range Meter 1.1.1
log date: 2017-02-08 23:59:27

––––––––––––––––––––––––––––––––––––––––
Analyzed: Rufus Harley / Courage: The Atlantic Recordings CD1
––––––––––––––––––––––––––––––––––––––––

DR Peak RMS Duration Track
––––––––––––––––––––––––––––––––––––––––
DR10 -1.70 dB -15.76 dB 2:43 01-Bagpipe Blues
DR11 -1.23 dB -16.20 dB 6:07 02-Kerry Dancers
DR13 -5.71 dB -23.25 dB 4:01 03-Who Can I Turn To (When Nobody Needs Me)
DR11 -2.03 dB -16.47 dB 6:43 04-More
DR11 -1.44 dB -14.56 dB 2:29 05-Chim Chim Cheree
DR11 -2.62 dB -17.27 dB 5:10 06-Sportin’
DR13 -4.74 dB -21.48 dB 5:43 07-Sometimes I Feel Like a Motherless Child
DR12 -1.73 dB -16.27 dB 7:35 08-Feeling Good
DR13 -0.99 dB -17.49 dB 6:19 09-If You Could See Me Now
DR13 -2.27 dB -18.81 dB 6:59 10-Taurus the 20th
DR12 -1.60 dB -16.11 dB 5:06 11-Scotch & Soul
DR10 -1.04 dB -16.19 dB 4:07 12-Passing the Cup Around
DR12 -1.02 dB -15.33 dB 5:06 13-A Nightingale Sang in Berkeley Square
DR11 -1.47 dB -15.28 dB 4:53 14-Sufur
DR11 -1.23 dB -15.26 dB 5:54 15-Pipin’ the Blues
––––––––––––––––––––––––––––––––––––––––

Number of tracks: 15
Official DR value: DR12

Samplerate: 44100 Hz
Channels: 2
Bits per sample: 16
Bitrate: 900 kbps
Codec: FLAC
================================================================================

XLD log CD2
X Lossless Decoder version 20141129a (148.2)

XLD extraction logfile from 2015-08-28 14:47:18 -0400

Rufus Harley / Courage: The Atlantic Recordings [Disc 2]

Used drive : HL-DT-ST BD-RE WH16NS40 (revision 1.00)
Media type : Pressed CD

Ripper mode : XLD Secure Ripper
Disable audio cache : OK for the drive with a cache less than 1375KiB
Make use of C2 pointers : NO
Read offset correction : 6
Max retry count : 100
Gap status : Analyzed, Appended (except HTOA)

TOC of the extracted CD
Track | Start | Length | Start sector | End sector
––––––––––––––––––––––––––––-
1 | 00:00:00 | 07:09:70 | 0 | 32244
2 | 07:09:70 | 07:49:74 | 32245 | 67493
3 | 14:59:69 | 05:38:14 | 67494 | 92857
4 | 20:38:08 | 05:06:04 | 92858 | 115811
5 | 25:44:12 | 03:33:34 | 115812 | 131820
6 | 29:17:46 | 07:49:58 | 131821 | 167053
7 | 37:07:29 | 06:00:25 | 167054 | 194078
8 | 43:07:54 | 06:04:19 | 194079 | 221397
9 | 49:11:73 | 06:36:30 | 221398 | 251127
10 | 55:48:28 | 04:11:11 | 251128 | 269963
11 | 59:59:39 | 07:34:43 | 269964 | 304056
12 | 67:34:07 | 09:02:00 | 304057 | 344706
13 | 76:36:07 | 03:10:27 | 344707 | 358983

AccurateRip Summary (DiscID: 0026ef31-0182f49e-b912b20d)
Track 01 : OK (v2, confidence 2/2)
Track 02 : OK (v2, confidence 2/2)
Track 03 : OK (v2, confidence 2/2)
Track 04 : OK (v2, confidence 2/2)
Track 05 : OK (v2, confidence 2/2)
Track 06 : OK (v2, confidence 2/2)
Track 07 : OK (v2, confidence 2/2)
Track 08 : OK (v2, confidence 2/2)
Track 09 : OK (v2, confidence 2/2)
Track 10 : OK (v2, confidence 2/2)
Track 11 : OK (v2, confidence 2/2)
Track 12 : OK (v2, confidence 2/2)
Track 13 : OK (v2, confidence 2/2)
->All tracks accurately ripped.

All Tracks
Album gain : -4.01 dB
Peak : 0.999969
Statistics
Read error : 0
Jitter error (maybe fixed) : 0
Retry sector count : 0
Damaged sector count : 0

Track 01
Filename : /Volumes/Master/XLD Rips/Rufus Harley – Courageпјљ The Atlantic Recordings [Disc 2] [ALAC]/01 – Sunny.m4a
/Volumes/Master/XLD Rips/Rufus Harley – Courageпјљ The Atlantic Recordings [Disc 2] [FLAC]/01 – Sunny.flac
Pre-gap length : 00:02:00

Track gain : -4.03 dB
Peak : 0.882172
CRC32 hash (test run) : 4C9E6439
CRC32 hash : 4C9E6439
CRC32 hash (skip zero) : 58E9EB1A
AccurateRip v1 signature : EAF77A1F
AccurateRip v2 signature : 248D33FF
->Accurately ripped (v2, confidence 2/2)
Statistics
Read error : 0
Jitter error (maybe fixed) : 0
Retry sector count : 0
Damaged sector count : 0

Track 02
Filename : /Volumes/Master/XLD Rips/Rufus Harley – Courageпјљ The Atlantic Recordings [Disc 2] [ALAC]/02 – A Tribute to Courage (JFK).m4a
/Volumes/Master/XLD Rips/Rufus Harley – Courageпјљ The Atlantic Recordings [Disc 2] [FLAC]/02 – A Tribute to Courage (JFK).flac
Pre-gap length : 00:03:01

Track gain : -3.46 dB
Peak : 0.864197
CRC32 hash (test run) : 7F3D2D0F
CRC32 hash : 7F3D2D0F
CRC32 hash (skip zero) : BBF085F7
AccurateRip v1 signature : ED0FAC0B
AccurateRip v2 signature : 2E5FE58F
->Accurately ripped (v2, confidence 2/2)
Statistics
Read error : 0
Jitter error (maybe fixed) : 0
Retry sector count : 0
Damaged sector count : 0

Track 03
Filename : /Volumes/Master/XLD Rips/Rufus Harley – Courageпјљ The Atlantic Recordings [Disc 2] [ALAC]/03 – Swing Low Sweet Chariot.m4a
/Volumes/Master/XLD Rips/Rufus Harley – Courageпјљ The Atlantic Recordings [Disc 2] [FLAC]/03 – Swing Low Sweet Chariot.flac
Pre-gap length : 00:03:24

Track gain : -3.35 dB
Peak : 0.858002
CRC32 hash (test run) : B6FEE6B7
CRC32 hash : B6FEE6B7
CRC32 hash (skip zero) : 5C2C338B
AccurateRip v1 signature : 98C37DA9
AccurateRip v2 signature : 4274D304
->Accurately ripped (v2, confidence 2/2)
Statistics
Read error : 0
Jitter error (maybe fixed) : 0
Retry sector count : 0
Damaged sector count : 0

Track 04
Filename : /Volumes/Master/XLD Rips/Rufus Harley – Courageпјљ The Atlantic Recordings [Disc 2] [ALAC]/04 – Ali.m4a
/Volumes/Master/XLD Rips/Rufus Harley – Courageпјљ The Atlantic Recordings [Disc 2] [FLAC]/04 – Ali.flac
Pre-gap length : 00:05:43

Track gain : -4.72 dB
Peak : 0.918396
CRC32 hash (test run) : 61F1BB88
CRC32 hash : 61F1BB88
CRC32 hash (skip zero) : 0DFBC73E
AccurateRip v1 signature : 00CE2131
AccurateRip v2 signature : 8B0AD681
->Accurately ripped (v2, confidence 2/2)
Statistics
Read error : 0
Jitter error (maybe fixed) : 0
Retry sector count : 0
Damaged sector count : 0

Track 05
Filename : /Volumes/Master/XLD Rips/Rufus Harley – Courageпјљ The Atlantic Recordings [Disc 2] [ALAC]/05 – _X_.m4a
/Volumes/Master/XLD Rips/Rufus Harley – Courageпјљ The Atlantic Recordings [Disc 2] [FLAC]/05 – _X_.flac
Pre-gap length : 00:01:68

Track gain : -4.18 dB
Peak : 0.900269
CRC32 hash (test run) : F1028BC6
CRC32 hash : F1028BC6
CRC32 hash (skip zero) : D8809534
AccurateRip v1 signature : A8F727A4
AccurateRip v2 signature : A99ABA74
->Accurately ripped (v2, confidence 2/2)
Statistics
Read error : 0
Jitter error (maybe fixed) : 0
Retry sector count : 0
Damaged sector count : 0

Track 06
Filename : /Volumes/Master/XLD Rips/Rufus Harley – Courageпјљ The Atlantic Recordings [Disc 2] [ALAC]/06 – About Trane.m4a
/Volumes/Master/XLD Rips/Rufus Harley – Courageпјљ The Atlantic Recordings [Disc 2] [FLAC]/06 – About Trane.flac
Pre-gap length : 00:01:12

Track gain : -3.06 dB
Peak : 0.877502
CRC32 hash (test run) : 02A66027
CRC32 hash : 02A66027
CRC32 hash (skip zero) : 2C0E0A20
AccurateRip v1 signature : F8E12BFE
AccurateRip v2 signature : 2DD37EFA
->Accurately ripped (v2, confidence 2/2)
Statistics
Read error : 0
Jitter error (maybe fixed) : 0
Retry sector count : 0
Damaged sector count : 0

Track 07
Filename : /Volumes/Master/XLD Rips/Rufus Harley – Courageпјљ The Atlantic Recordings [Disc 2] [ALAC]/07 – Eight Miles High.m4a
/Volumes/Master/XLD Rips/Rufus Harley – Courageпјљ The Atlantic Recordings [Disc 2] [FLAC]/07 – Eight Miles High.flac
Pre-gap length : 00:04:24

Track gain : -6.48 dB
Peak : 0.999969
CRC32 hash (test run) : C8B89970
CRC32 hash : C8B89970
CRC32 hash (skip zero) : F0CF3C98
AccurateRip v1 signature : 96C0B73A
AccurateRip v2 signature : 5E36E84B
->Accurately ripped (v2, confidence 2/2)
Statistics
Read error : 0
Jitter error (maybe fixed) : 0
Retry sector count : 0
Damaged sector count : 0

Track 08
Filename : /Volumes/Master/XLD Rips/Rufus Harley – Courageпјљ The Atlantic Recordings [Disc 2] [ALAC]/08 – Moon River.m4a
/Volumes/Master/XLD Rips/Rufus Harley – Courageпјљ The Atlantic Recordings [Disc 2] [FLAC]/08 – Moon River.flac
Pre-gap length : 00:01:37

Track gain : -1.88 dB
Peak : 0.800842
CRC32 hash (test run) : 0DF2E872
CRC32 hash : 0DF2E872
CRC32 hash (skip zero) : 5750479E
AccurateRip v1 signature : 6E8AF012
AccurateRip v2 signature : 72085101
->Accurately ripped (v2, confidence 2/2)
Statistics
Read error : 0
Jitter error (maybe fixed) : 0
Retry sector count : 0
Damaged sector count : 0

Track 09
Filename : /Volumes/Master/XLD Rips/Rufus Harley – Courageпјљ The Atlantic Recordings [Disc 2] [ALAC]/09 – Love Is Blue.m4a
/Volumes/Master/XLD Rips/Rufus Harley – Courageпјљ The Atlantic Recordings [Disc 2] [FLAC]/09 – Love Is Blue.flac
Pre-gap length : 00:01:03

Track gain : -3.97 dB
Peak : 0.874908
CRC32 hash (test run) : B6275D0A
CRC32 hash : B6275D0A
CRC32 hash (skip zero) : 6E8784D4
AccurateRip v1 signature : AAB29B80
AccurateRip v2 signature : BD64D660
->Accurately ripped (v2, confidence 2/2)
Statistics
Read error : 0
Jitter error (maybe fixed) : 0
Retry sector count : 0
Damaged sector count : 0

Track 10
Filename : /Volumes/Master/XLD Rips/Rufus Harley – Courageпјљ The Atlantic Recordings [Disc 2] [ALAC]/10 – Windy.m4a
/Volumes/Master/XLD Rips/Rufus Harley – Courageпјљ The Atlantic Recordings [Disc 2] [FLAC]/10 – Windy.flac
Pre-gap length : 00:02:60

Track gain : -5.92 dB
Peak : 0.957733
CRC32 hash (test run) : 37241CBD
CRC32 hash : 37241CBD
CRC32 hash (skip zero) : 644CB260
AccurateRip v1 signature : FE84EF54
AccurateRip v2 signature : 1B6CAA88
->Accurately ripped (v2, confidence 2/2)
Statistics
Read error : 0
Jitter error (maybe fixed) : 0
Retry sector count : 0
Damaged sector count : 0

Track 11
Filename : /Volumes/Master/XLD Rips/Rufus Harley – Courageпјљ The Atlantic Recordings [Disc 2] [ALAC]/11 – King.m4a
/Volumes/Master/XLD Rips/Rufus Harley – Courageпјљ The Atlantic Recordings [Disc 2] [FLAC]/11 – King.flac

Track gain : -1.77 dB
Peak : 0.702606
CRC32 hash (test run) : F816E927
CRC32 hash : F816E927
CRC32 hash (skip zero) : 5058D72B
AccurateRip v1 signature : 731E6C92
AccurateRip v2 signature : ED95FDFD
->Accurately ripped (v2, confidence 2/2)
Statistics
Read error : 0
Jitter error (maybe fixed) : 0
Retry sector count : 0
Damaged sector count : 0

Track 12
Filename : /Volumes/Master/XLD Rips/Rufus Harley – Courageпјљ The Atlantic Recordings [Disc 2] [ALAC]/12 – Queens.m4a
/Volumes/Master/XLD Rips/Rufus Harley – Courageпјљ The Atlantic Recordings [Disc 2] [FLAC]/12 – Queens.flac
Pre-gap length : 00:01:03

Track gain : 2.02 dB
Peak : 0.666168
CRC32 hash (test run) : 5669DFD5
CRC32 hash : 5669DFD5
CRC32 hash (skip zero) : D17AB2C7
AccurateRip v1 signature : 71E1A1DC
AccurateRip v2 signature : 7981A8E8
->Accurately ripped (v2, confidence 2/2)
Statistics
Read error : 0
Jitter error (maybe fixed) : 0
Retry sector count : 0
Damaged sector count : 0

Track 13
Filename : /Volumes/Master/XLD Rips/Rufus Harley – Courageпјљ The Atlantic Recordings [Disc 2] [ALAC]/13 – Where Have All the Flowers Gone_.m4a
/Volumes/Master/XLD Rips/Rufus Harley – Courageпјљ The Atlantic Recordings [Disc 2] [FLAC]/13 – Where Have All the Flowers Gone_.flac
Pre-gap length : 00:03:40

Track gain : -2.39 dB
Peak : 0.836578
CRC32 hash (test run) : DCBEC7F0
CRC32 hash : DCBEC7F0
CRC32 hash (skip zero) : A2C19D99
AccurateRip v1 signature : 28ACC2F7
AccurateRip v2 signature : BC18983B
->Accurately ripped (v2, confidence 2/2)
Statistics
Read error : 0
Jitter error (maybe fixed) : 0
Retry sector count : 0
Damaged sector count : 0

No errors occurred

End of status report

––-BEGIN XLD SIGNATURE––-
GHc4i0Vm1W7C2DE9lag4JZ3ooVuDxTi00c7B2cdl_NEBAu1NcWVrKCoF3Rx5WWBLD.qj1PZjXEJ0qdQC.x9VbSmHuNTHn722fW3rMj0
––-END XLD SIGNATURE––-

DR log CD2
foobar2000 1.2 / Dynamic Range Meter 1.1.1
log date: 2017-02-08 23:59:57

––––––––––––––––––––––––––––––––––––––––
Analyzed: Rufus Harley / Courage: The Atlantic Recordings CD2
––––––––––––––––––––––––––––––––––––––––

DR Peak RMS Duration Track
––––––––––––––––––––––––––––––––––––––––
DR11 -1.09 dB -13.39 dB 7:10 01-Sunny
DR11 -1.27 dB -15.17 dB 7:50 02-A Tribute to Courage (JFK)
DR11 -1.33 dB -14.48 dB 5:38 03-Swing Low Sweet Chariot
DR11 -0.74 dB -13.85 dB 5:06 04-Ali
DR10 -0.91 dB -13.92 dB 3:33 05-‘X’
DR12 -1.14 dB -16.04 dB 7:50 06-About Trane
DR10 0.00 dB -12.42 dB 6:00 07-Eight Miles High
DR12 -1.93 dB -16.56 dB 6:04 08-Moon River
DR12 -1.16 dB -14.72 dB 6:36 09-Love Is Blue
DR10 -0.38 dB -13.25 dB 4:11 10-Windy
DR11 -3.07 dB -18.32 dB 7:35 11-King
DR13 -3.53 dB -23.37 dB 9:02 12-Queens
DR12 -1.55 dB -15.88 dB 3:10 13-Where Have All the Flowers Gone?
––––––––––––––––––––––––––––––––––––––––

Number of tracks: 13
Official DR value: DR11

Samplerate: 44100 Hz
Channels: 2
Bits per sample: 16
Bitrate: 828 kbps
Codec: FLAC
================================================================================

Rufus Harley - Courage: The Atlantic Recordings (2006) 2CDs

All thanks to original releaser

More interesting music in My Blog

Rufus Harley – Courage: The Atlantic Recordings (2006) 2CDs Download, Warez, DDL, Free, Full Album, Torrent, Legal.

Download