Royal Concertgebouw Orchestra & Mariss Jansons – Prokofiev: Symphony No. 5 (2016) | ViralVideoPk

Daily Dose of Free Downloads

Royal Concertgebouw Orchestra & Mariss Jansons – Prokofiev: Symphony No. 5 (2016)

Download

Royal Concertgebouw Orchestra & Mariss Jansons - Prokofiev: Symphony No. 5 (2016)

Royal Concertgebouw Orchestra & Mariss Jansons – Prokofiev: Symphony No. 5
Classical | FLAC (tracks)+cue, log, booklet | 43:07 min | 200 MB
Label: RCO Live | Tracks: 04 | Rls.date: 2016

In this recording of Sergei Prokofiev’s masterful Fifth Symphony, Mariss Jansons and the Royal Concertgebouw Orchestra find themselves on familiar ground. Already in 1948 (four years after the world premiere) Eduard van Beinum introduced it to the orchestra. A long line of famous conductors followed, including André Previn, George Szell, Vladimir Ashkenazy and Valery Gergiev. The fact that this music is part of Mariss Jansons’ musical DNA, may explain the feeling of authenticity in this recording.

‘This Jansons version is one of the finest I ve encountered. His is a version that demonstrates the symphony s stature. It s a great shame that the playing time is so meagre but, for once, that s a secondary issue: the quality of the performance, interpretation and recorded sound trump the issue of the playing time.’ –John Quinn MusicWeb International, May 2016

TRACKLIST
01 Symphony No.5 in B flat Major, Op.100 – I. Andante
02 Symphony No.5 in B flat Major, Op.100 – II. Allegro marcato
03 Symphony No.5 in B flat Major, Op.100 – III. Adagio
04 Symphony No.5 in B flat Major, Op.100 – IV. Allegro giocoso

EAC Log
Exact Audio Copy V1.1 from 23. June 2015

EAC extraction logfile from 12. May 2016, 0:50

Mariss Jansons, Royal Concertgebouw Orchestra / Prokofiev – Symphony No.5

Used drive : ATAPI iHAS424 Y Adapter: 1 ID: 4

Read mode : Secure
Utilize accurate stream : Yes
Defeat audio cache : Yes
Make use of C2 pointers : No

Read offset correction : 48
Overread into Lead-In and Lead-Out : No
Fill up missing offset samples with silence : Yes
Delete leading and trailing silent blocks : No
Null samples used in CRC calculations : Yes
Used interface : Installed external ASPI interface
Gap handling : Appended to previous track

Used output format : User Defined Encoder
Selected bitrate : 1024 kBit/s
Quality : High
Add ID3 tag : No
Command line compressor : E:Program Files (Portable)flac-1.3.1-winwin64flac.exe
Additional command line options : -8 -V -T "ARTIST=%artist%" -T "TITLE=%title%" -T "ALBUM=%albumtitle%" -T "DATE=%year%" -T "TRACKNUMBER=%tracknr%" -T "GENRE=%genre%" -T "COMMENT=EAC Secure mode, Test & Copy, AccurateRip, FLAC -8" %hascover%–picture="%coverfile%"%hascover% %source% -o %dest%

TOC of the extracted CD

Track | Start | Length | Start sector | End sector
––––––––––––––––––––––––––––-
1 | 0:00.00 | 12:52.41 | 0 | 57940
2 | 12:52.41 | 8:53.68 | 57941 | 97983
3 | 21:46.34 | 11:22.36 | 97984 | 149169
4 | 33:08.70 | 10:00.56 | 149170 | 194225

Track 1

Filename F:UploadsProkofiev – Symphony No.5 – Jansons, RCO [RCO Live 16002]1 Symphony No.5 in B flat Major, Op.100 – I. Andante.wav

Pre-gap length 0:00:02.00

Peak level 98.2 %
Extraction speed 3.0 X
Track quality 99.9 %
Test CRC 743A40DD
Copy CRC 743A40DD
Track not present in AccurateRip database
Copy OK

Track 2

Filename F:UploadsProkofiev – Symphony No.5 – Jansons, RCO [RCO Live 16002]2 Symphony No.5 in B flat Major, Op.100 – II. Allegro marcato.wav

Peak level 71.3 %
Extraction speed 3.7 X
Track quality 100.0 %
Test CRC 5E69E7AF
Copy CRC 5E69E7AF
Track not present in AccurateRip database
Copy OK

Track 3

Filename F:UploadsProkofiev – Symphony No.5 – Jansons, RCO [RCO Live 16002]3 Symphony No.5 in B flat Major, Op.100 – III. Adagio.wav

Peak level 78.5 %
Extraction speed 4.2 X
Track quality 100.0 %
Test CRC 340A03AB
Copy CRC 340A03AB
Track not present in AccurateRip database
Copy OK

Track 4

Filename F:UploadsProkofiev – Symphony No.5 – Jansons, RCO [RCO Live 16002]4 Symphony No.5 in B flat Major, Op.100 – IV. Allegro giocoso.wav

Peak level 96.3 %
Extraction speed 4.6 X
Track quality 100.0 %
Test CRC D991667D
Copy CRC D991667D
Track not present in AccurateRip database
Copy OK

None of the tracks are present in the AccurateRip database

No errors occurred

End of status report

–– CUETools DB Plugin V2.1.6

[CTDB TOCID: 3aV3ddLuiKrw4NdFjgCw3aY3SiI-] disk not present in database
Submit result: 3aV3ddLuiKrw4NdFjgCw3aY3SiI- has been uploaded

==== Log checksum 64F2C7AB1200FBBA58DE25EE7E2AAB0B21F126863C0855BAEF15DBE12D0196A2 ====

Royal Concertgebouw Orchestra & Mariss Jansons - Prokofiev: Symphony No. 5 (2016)
Thanks to the Original customer.
My Blog mp3, flac & HDtracks

Royal Concertgebouw Orchestra & Mariss Jansons – Prokofiev: Symphony No. 5 (2016) Download, Warez, DDL, Free, Full Album, Torrent, Legal.

Download


  • Recent Posts

  • Recent Tags