Roxette – Live, Travelling the World (2013) [Blu-ray]

Download
Roxette - Live, Travelling the World (2013) [Blu-ray]

Roxette – Live, Travelling the World (2013)
Blu-ray | BDMV | MPEG4 Video (H264) 1920×1080 25fps 37.4 Mbps | 44.41 GB
Audio: DTS-HD / 5.1 / 48 kHz / 4841 kbps / 24-bit; Dolby Digital Audio / 5.1 / 48 kHz / 448 kbps;
Dolby Digital Audio / 2.0 / 48 kHz / 192 kbps | Length: 01:35:13 + 01:01:42
Rock, Pop

Live: Traveling the World is the first live album by Swedish pop duo Roxette, released on 6 December 2013. The DVD/Blu-ray Disc features live footage filmed at Orfeo Superdomo (Córdoba), Teatro Caupolicán (Santiago) and Teatro Positivo (Curitiba) during the South American leg of the tour.

Roxette - Live, Travelling the World (2013) [Blu-ray]

Roxette - Live, Travelling the World (2013) [Blu-ray]

Roxette - Live, Travelling the World (2013) [Blu-ray]

Roxette - Live, Travelling the World (2013) [Blu-ray]

Roxette - Live, Travelling the World (2013) [Blu-ray]

Tracklist
01. Dressed For Success
02. Sleeping In My Car
03. The Big L
04. Silver Blue
05. Stars
06. She’s Got Nothing On (But The Radio)
07. Perfect Day
08. Things Will Never Be The Same
09. It Must Have Been Love
10. It’s Possible
11. 7Twenty7
12. Fading Like A Flower
13. Crash! Boom! Bang!
14. How Do You Do!
15. Dangerous
16. Joyride
17. Spending My Time
18. The Look
19. Listen To Your Heart
20. Church Of Your Heart

Documentary:
It All Begins Where It Ends – The Incredible Story Of Roxette
Extras:
Gessle Cam: Part 1 ”So, Christoffer?”
Gessle Cam: Part 2 ”Studio Work”
Gessle Cam: Part 3 ”Travelling”
Mikael Nogueira-Svensson – The secret life of a guitar tech

BDInfo
Disc Title: Roxette – Live Travelling the World Blu-ray 2013
Disc Size: 47 685 375 639 bytes
Protection: AACS
BD-Java: No
Extras: 50Hz Content
BDInfo: 0.5.8

Notes:

BDINFO HOME:
Cinema Squid
http://www.cinemasquid.com/blu-ray/tools/bdinfo

INCLUDES FORUMS REPORT FOR:
AVS Forum Blu-ray Audio and Video Specifications Thread
http://www.avsforum.com/avs-vb/showthread.php?t=1155731

********************
PLAYLIST: 00001.MPLS
********************

<–- BEGIN FORUMS PASTE –->
Код:
Total Video
Title Codec Length Movie Size Disc Size Bitrate Bitrate Main Audio Track Secondary Audio Track
––- ––– –––- ––––––– ––––––– –––- –––- ––––––––– ––––––––––-
00001.MPLS AVC 1:35:13 26 702 757 888 47 685 375 639 37,39 30,00 DTS-HD Master 5.1 4841Kbps (48kHz/24-bit) DD AC3 5.1 448Kbps
Код:
DISC INFO:

Disc Title: Roxette – Live Travelling the World Blu-ray 2013
Disc Size: 47 685 375 639 bytes
Protection: AACS
BD-Java: No
Extras: 50Hz Content
BDInfo: 0.5.8

PLAYLIST REPORT:

Name: 00001.MPLS
Length: 1:35:13.479 (h:m:s.ms)
Size: 26 702 757 888 bytes
Total Bitrate: 37,39 Mbps

VIDEO:

Codec Bitrate Description
––- –––- –––––-
MPEG-4 AVC Video 30000 kbps 1080i / 25 fps / 16:9 / High Profile 4.1

AUDIO:

Codec Language Bitrate Description
––- –––– –––- –––––-
DTS-HD Master Audio Swedish 4841 kbps 5.1 / 48 kHz / 4841 kbps / 24-bit (DTS Core: 5.1 / 48 kHz / 1509 kbps / 24-bit)
Dolby Digital Audio Swedish 448 kbps 5.1 / 48 kHz / 448 kbps
Dolby Digital Audio Swedish 192 kbps 2.0 / 48 kHz / 192 kbps

FILES:

Name Time In Length Size Total Bitrate
–– –––- ––– –– ––––––-
00001.M2TS 0:00:00.000 1:35:13.479 26 702 757 888 37 389

CHAPTERS:

Number Time In Length Avg Video Rate Max 1-Sec Rate Max 1-Sec Time Max 5-Sec Rate Max 5-Sec Time Max 10Sec Rate Max 10Sec Time Avg Frame Size Max Frame Size Max Frame Time
––– –––- ––– ––––––– ––––––– ––––––– ––––––– ––––––– ––––––– ––––––– ––––––– ––––––– –––––––
1 0:00:00.000 0:00:36.480 30 407 kbps 58 755 kbps 00:00:03.799 35 739 kbps 00:00:00.039 32 789 kbps 00:00:03.080 151 869 bytes 943 703 bytes 00:00:04.519
2 0:00:36.480 0:04:26.400 30 004 kbps 47 613 kbps 00:00:45.600 32 736 kbps 00:02:38.399 31 383 kbps 00:00:45.639 150 018 bytes 523 090 bytes 00:04:44.679
3 0:05:02.880 0:03:46.080 29 981 kbps 45 247 kbps 00:06:04.120 32 495 kbps 00:07:26.160 31 199 kbps 00:06:04.160 149 904 bytes 481 404 bytes 00:05:31.440
4 0:08:48.960 0:04:50.879 30 019 kbps 46 738 kbps 00:09:28.040 32 898 kbps 00:11:38.599 31 609 kbps 00:13:27.079 150 095 bytes 507 087 bytes 00:11:11.520
5 0:13:39.839 0:04:57.120 29 973 kbps 51 195 kbps 00:15:22.640 33 162 kbps 00:15:35.960 31 881 kbps 00:15:27.400 149 867 bytes 656 098 bytes 00:18:36.760
6 0:18:36.960 0:03:30.240 30 024 kbps 43 746 kbps 00:19:56.200 32 512 kbps 00:19:42.520 31 139 kbps 00:19:22.640 150 121 bytes 483 498 bytes 00:20:09.720
7 0:22:07.200 0:04:36.479 30 003 kbps 44 038 kbps 00:24:08.520 32 417 kbps 00:25:53.719 31 043 kbps 00:24:00.600 150 014 bytes 493 467 bytes 00:23:22.760
8 0:26:43.679 0:04:32.160 30 004 kbps 49 902 kbps 00:27:29.520 33 980 kbps 00:27:25.520 31 929 kbps 00:27:20.480 150 020 bytes 726 887 bytes 00:27:29.920
9 0:31:15.840 0:03:27.359 29 993 kbps 39 271 kbps 00:34:26.320 31 899 kbps 00:32:54.760 31 299 kbps 00:32:54.760 149 967 bytes 494 999 bytes 00:33:35.320
10 0:34:43.200 0:05:59.520 29 971 kbps 49 286 kbps 00:36:02.480 33 306 kbps 00:39:12.400 31 576 kbps 00:36:02.680 149 854 bytes 587 819 bytes 00:40:32.520
11 0:40:42.719 0:02:57.600 30 027 kbps 44 975 kbps 00:43:09.920 32 866 kbps 00:42:27.000 31 490 kbps 00:43:09.840 150 136 bytes 548 471 bytes 00:42:46.400
12 0:43:40.320 0:05:21.599 29 985 kbps 45 845 kbps 00:43:40.760 32 789 kbps 00:45:30.280 31 468 kbps 00:46:06.200 149 927 bytes 598 656 bytes 00:44:24.000
13 0:49:01.920 0:05:03.840 30 019 kbps 46 419 kbps 00:52:17.480 33 140 kbps 00:53:25.520 31 627 kbps 00:53:22.280 150 095 bytes 582 552 bytes 00:50:32.560
14 0:54:05.760 0:05:26.880 30 013 kbps 50 128 kbps 00:55:16.440 33 222 kbps 00:54:45.800 31 517 kbps 00:54:14.160 150 065 bytes 703 748 bytes 00:55:16.840
15 0:59:32.640 0:02:51.359 29 993 kbps 42 236 kbps 01:00:56.360 32 086 kbps 01:00:34.080 31 097 kbps 01:00:56.320 149 967 bytes 550 676 bytes 01:00:26.000
16 1:02:24.000 0:04:09.600 29 992 kbps 47 055 kbps 01:06:21.040 33 050 kbps 01:06:21.280 31 366 kbps 01:06:21.200 149 961 bytes 514 167 bytes 01:03:29.439
17 1:06:33.600 0:05:09.119 30 017 kbps 48 159 kbps 01:06:34.200 33 094 kbps 01:11:37.720 31 432 kbps 01:11:32.680 150 084 bytes 789 115 bytes 01:11:42.400
18 1:11:42.720 0:05:49.439 29 995 kbps 46 616 kbps 01:12:44.520 32 823 kbps 01:12:40.520 31 349 kbps 01:12:44.640 149 973 bytes 697 041 bytes 01:12:44.880
19 1:17:32.160 0:07:28.800 29 966 kbps 41 247 kbps 01:18:15.880 32 620 kbps 01:24:42.000 31 503 kbps 01:19:36.160 149 828 bytes 521 618 bytes 01:24:46.640
20 1:25:00.960 0:05:39.359 30 046 kbps 47 581 kbps 01:29:18.280 33 312 kbps 01:28:11.800 31 492 kbps 01:28:06.360 150 232 bytes 497 194 bytes 01:28:08.439
21 1:30:40.320 0:04:33.159 29 937 kbps 44 443 kbps 01:31:51.720 33 217 kbps 01:32:41.120 31 294 kbps 01:33:06.120 149 707 bytes 502 161 bytes 01:31:23.680

STREAM DIAGNOSTICS:

File PID Type Codec Language Seconds Bitrate Bytes Packets
–– –- –– ––- –––– ––––––– ––––––– ––––––- ––-
00001.M2TS 4113 (0x1011) 0x1B AVC 5713,400 30 000 21 425 275 778 116 526 126
00001.M2TS 4352 (0x1100) 0x86 DTS-HD MA swe (Swedish) 5713,400 4 841 3 457 456 000 19 681 177
00001.M2TS 4353 (0x1101) 0x81 AC3 swe (Swedish) 5713,400 448 319 949 056 1 785 430
00001.M2TS 4354 (0x1102) 0x81 AC3 swe (Swedish) 5713,400 192 137 121 024 892 715
<–– END FORUMS PASTE ––>

QUICK SUMMARY:

Disc Title: Roxette – Live Travelling the World Blu-ray 2013
Disc Size: 47 685 375 639 bytes
Protection: AACS
BD-Java: No
Playlist: 00001.MPLS
Size: 26 702 757 888 bytes
Length: 1:35:13.479
Total Bitrate: 37,39 Mbps
Video: MPEG-4 AVC Video / 30000 kbps / 1080i / 25 fps / 16:9 / High Profile 4.1
Audio: Swedish / DTS-HD Master Audio / 5.1 / 48 kHz / 4841 kbps / 24-bit (DTS Core: 5.1 / 48 kHz / 1509 kbps / 24-bit)
Audio: Swedish / Dolby Digital Audio / 5.1 / 48 kHz / 448 kbps
Audio: Swedish / Dolby Digital Audio / 2.0 / 48 kHz / 192 kbps

********************
PLAYLIST: 00002.MPLS
********************

<–- BEGIN FORUMS PASTE –->
Код:
Total Video
Title Codec Length Movie Size Disc Size Bitrate Bitrate Main Audio Track Secondary Audio Track
––- ––– –––- ––––––– ––––––– –––- –––- ––––––––– ––––––––––-
00002.MPLS AVC 1:01:42 11 258 923 008 47 685 375 639 24,33 22,94 DD AC3 2.0 192Kbps
Код:
DISC INFO:

Disc Title: Roxette – Live Travelling the World Blu-ray 2013
Disc Size: 47 685 375 639 bytes
Protection: AACS
BD-Java: No
Extras: 50Hz Content
BDInfo: 0.5.8

PLAYLIST REPORT:

Name: 00002.MPLS
Length: 1:01:42.800 (h:m:s.ms)
Size: 11 258 923 008 bytes
Total Bitrate: 24,33 Mbps

VIDEO:

Codec Bitrate Description
––- –––- –––––-
MPEG-4 AVC Video 22940 kbps 1080i / 25 fps / 16:9 / High Profile 4.1

AUDIO:

Codec Language Bitrate Description
––- –––– –––- –––––-
Dolby Digital Audio Swedish 192 kbps 2.0 / 48 kHz / 192 kbps / DN -4dB

SUBTITLES:

Codec Language Bitrate Description
––- –––– –––- –––––-
Presentation Graphics English 20,863 kbps
Presentation Graphics Spanish 21,016 kbps
Presentation Graphics German 24,969 kbps

FILES:

Name Time In Length Size Total Bitrate
–– –––- ––– –– ––––––-
00004.M2TS 0:00:00.000 1:01:42.800 11 258 923 008 24 325

CHAPTERS:

Number Time In Length Avg Video Rate Max 1-Sec Rate Max 1-Sec Time Max 5-Sec Rate Max 5-Sec Time Max 10Sec Rate Max 10Sec Time Avg Frame Size Max Frame Size Max Frame Time
––– –––- ––– ––––––– ––––––– ––––––– ––––––– ––––––– ––––––– ––––––– ––––––– ––––––– –––––––
1 0:00:00.000 0:10:00.000 23 037 kbps 58 798 kbps 00:00:40.279 35 754 kbps 00:00:40.279 32 866 kbps 00:00:40.280 115 179 bytes 931 863 bytes 00:00:16.399
2 0:10:00.000 0:10:00.000 22 997 kbps 43 896 kbps 00:19:58.480 27 805 kbps 00:19:43.119 24 994 kbps 00:10:52.280 114 985 bytes 728 774 bytes 00:19:58.720
3 0:20:00.000 0:10:00.000 22 987 kbps 58 432 kbps 00:27:36.600 35 735 kbps 00:28:00.400 31 982 kbps 00:28:00.400 114 937 bytes 928 540 bytes 00:27:36.639
4 0:30:00.000 0:10:00.000 22 995 kbps 44 915 kbps 00:39:50.840 27 607 kbps 00:30:03.400 25 192 kbps 00:30:03.400 114 973 bytes 686 004 bytes 00:33:24.960
5 0:40:00.000 0:10:00.000 22 997 kbps 58 460 kbps 00:42:43.520 33 493 kbps 00:42:43.520 29 892 kbps 00:42:43.520 114 983 bytes 888 731 bytes 00:42:43.560
6 0:50:00.000 0:10:00.000 23 001 kbps 41 933 kbps 00:59:06.720 28 375 kbps 00:59:06.800 25 669 kbps 00:59:06.720 115 005 bytes 673 867 bytes 00:59:06.840
7 1:00:00.000 0:01:41.000 21 111 kbps 58 787 kbps 01:01:34.000 27 303 kbps 01:00:29.800 25 900 kbps 01:00:37.360 105 557 bytes 661 901 bytes 01:01:34.040
8 1:01:41.000 0:00:01.800 204 kbps 304 kbps 01:01:41.000 0 kbps 00:00:00.000 0 kbps 00:00:00.000 1 043 bytes 5 311 bytes 01:01:41.320

STREAM DIAGNOSTICS:

File PID Type Codec Language Seconds Bitrate Bytes Packets
–– –- –– ––- –––– ––––––– ––––––– ––––––- ––-
00004.M2TS 4113 (0x1011) 0x1B AVC 3702,680 22 940 10 617 622 716 57 758 919
00004.M2TS 4352 (0x1100) 0x81 AC3 swe (Swedish) 3702,680 192 88 867 584 578 565
00004.M2TS 4608 (0x1200) 0x90 PGS eng (English) 3702,680 21 9 656 565 55 611
00004.M2TS 4609 (0x1201) 0x90 PGS spa (Spanish) 3702,680 21 9 727 346 56 113
00004.M2TS 4610 (0x1202) 0x90 PGS deu (German) 3702,680 25 11 556 781 66 941
<–– END FORUMS PASTE ––>

QUICK SUMMARY:

Disc Title: Roxette – Live Travelling the World Blu-ray 2013
Disc Size: 47 685 375 639 bytes
Protection: AACS
BD-Java: No
Playlist: 00002.MPLS
Size: 11 258 923 008 bytes
Length: 1:01:42.800
Total Bitrate: 24,33 Mbps
Video: MPEG-4 AVC Video / 22940 kbps / 1080i / 25 fps / 16:9 / High Profile 4.1
Audio: Swedish / Dolby Digital Audio / 2.0 / 48 kHz / 192 kbps / DN -4dB
Subtitle: English / 20,863 kbps
Subtitle: Spanish / 21,016 kbps
Subtitle: German / 24,969 kbps

********************
PLAYLIST: 00006.MPLS
********************

<–- BEGIN FORUMS PASTE –->
Код:
Total Video
Title Codec Length Movie Size Disc Size Bitrate Bitrate Main Audio Track Secondary Audio Track
––- ––– –––- ––––––– ––––––– –––- –––- ––––––––– ––––––––––-
00006.MPLS AVC 0:28:48 5 477 363 712 47 685 375 639 25,35 23,99 DD AC3 2.0 192Kbps
Код:
DISC INFO:

Disc Title: Roxette – Live Travelling the World Blu-ray 2013
Disc Size: 47 685 375 639 bytes
Protection: AACS
BD-Java: No
Extras: 50Hz Content
BDInfo: 0.5.8

PLAYLIST REPORT:

Name: 00006.MPLS
Length: 0:28:48.880 (h:m:s.ms)
Size: 5 477 363 712 bytes
Total Bitrate: 25,35 Mbps

VIDEO:

Codec Bitrate Description
––- –––- –––––-
MPEG-4 AVC Video 23988 kbps 1080i / 25 fps / 16:9 / High Profile 4.1

AUDIO:

Codec Language Bitrate Description
––- –––– –––- –––––-
Dolby Digital Audio Swedish 192 kbps 2.0 / 48 kHz / 192 kbps

FILES:

Name Time In Length Size Total Bitrate
–– –––- ––– –– ––––––-
00008.M2TS 0:00:00.000 0:28:48.880 5 477 363 712 25 345

CHAPTERS:

Number Time In Length Avg Video Rate Max 1-Sec Rate Max 1-Sec Time Max 5-Sec Rate Max 5-Sec Time Max 10Sec Rate Max 10Sec Time Avg Frame Size Max Frame Size Max Frame Time
––– –––- ––– ––––––– ––––––– ––––––– ––––––– ––––––– ––––––– ––––––– ––––––– ––––––– –––––––
1 0:00:00.000 0:10:00.000 23 270 kbps 50 935 kbps 00:09:15.400 37 400 kbps 00:09:15.319 34 848 kbps 00:09:12.200 116 343 bytes 739 895 bytes 00:03:05.279
2 0:10:00.000 0:10:00.000 23 567 kbps 45 253 kbps 00:14:15.559 35 961 kbps 00:14:13.720 34 543 kbps 00:14:13.760 117 834 bytes 568 595 bytes 00:14:35.800
3 0:20:00.000 0:08:48.880 25 281 kbps 51 454 kbps 00:23:45.720 37 682 kbps 00:23:42.240 34 796 kbps 00:23:42.840 126 413 bytes 606 092 bytes 00:27:20.040

STREAM DIAGNOSTICS:

File PID Type Codec Language Seconds Bitrate Bytes Packets
–– –- –– ––- –––– ––––––– ––––––– ––––––- ––-
00008.M2TS 4113 (0x1011) 0x1B AVC 1728,760 23 990 5 184 068 237 28 199 867
00008.M2TS 4352 (0x1100) 0x81 AC3 swe (Swedish) 1728,760 192 41 491 968 270 130
<–– END FORUMS PASTE ––>

QUICK SUMMARY:

Disc Title: Roxette – Live Travelling the World Blu-ray 2013
Disc Size: 47 685 375 639 bytes
Protection: AACS
BD-Java: No
Playlist: 00006.MPLS
Size: 5 477 363 712 bytes
Length: 0:28:48.880
Total Bitrate: 25,35 Mbps
Video: MPEG-4 AVC Video / 23988 kbps / 1080i / 25 fps / 16:9 / High Profile 4.1
Audio: Swedish / Dolby Digital Audio / 2.0 / 48 kHz / 192 kbps

********************
PLAYLIST: 00005.MPLS
********************

<–- BEGIN FORUMS PASTE –->
Код:
Total Video
Title Codec Length Movie Size Disc Size Bitrate Bitrate Main Audio Track Secondary Audio Track
––- ––– –––- ––––––– ––––––– –––- –––- ––––––––– ––––––––––-
00005.MPLS AVC 0:12:04 2 295 748 608 47 685 375 639 25,37 24,00 DD AC3 2.0 192Kbps
Код:
DISC INFO:

Disc Title: Roxette – Live Travelling the World Blu-ray 2013
Disc Size: 47 685 375 639 bytes
Protection: AACS
BD-Java: No
Extras: 50Hz Content
BDInfo: 0.5.8

PLAYLIST REPORT:

Name: 00005.MPLS
Length: 0:12:04.000 (h:m:s.ms)
Size: 2 295 748 608 bytes
Total Bitrate: 25,37 Mbps

VIDEO:

Codec Bitrate Description
––- –––- –––––-
MPEG-4 AVC Video 23998 kbps 1080i / 25 fps / 16:9 / High Profile 4.1

AUDIO:

Codec Language Bitrate Description
––- –––– –––- –––––-
Dolby Digital Audio Swedish 192 kbps 2.0 / 48 kHz / 192 kbps / DN -4dB

FILES:

Name Time In Length Size Total Bitrate
–– –––- ––– –– ––––––-
00007.M2TS 0:00:00.000 0:12:04.000 2 295 748 608 25 367

CHAPTERS:

Number Time In Length Avg Video Rate Max 1-Sec Rate Max 1-Sec Time Max 5-Sec Rate Max 5-Sec Time Max 10Sec Rate Max 10Sec Time Avg Frame Size Max Frame Size Max Frame Time
––– –––- ––– ––––––– ––––––– ––––––– ––––––– ––––––– ––––––– ––––––– ––––––– ––––––– –––––––
1 0:00:00.000 0:06:00.000 24 586 kbps 41 214 kbps 00:05:20.159 36 118 kbps 00:05:18.880 34 650 kbps 00:05:19.320 122 915 bytes 643 077 bytes 00:05:40.640
2 0:06:00.000 0:06:04.000 23 416 kbps 39 757 kbps 00:07:08.480 36 125 kbps 00:07:05.799 34 752 kbps 00:07:05.720 117 095 bytes 631 019 bytes 00:07:13.800

STREAM DIAGNOSTICS:

File PID Type Codec Language Seconds Bitrate Bytes Packets
–– –- –– ––- –––– ––––––– ––––––– ––––––- ––-
00007.M2TS 4113 (0x1011) 0x1B AVC 723,920 24 001 2 171 807 820 11 813 888
00007.M2TS 4352 (0x1100) 0x81 AC3 swe (Swedish) 723,920 200 18 100 224 117 840
<–– END FORUMS PASTE ––>

QUICK SUMMARY:

Disc Title: Roxette – Live Travelling the World Blu-ray 2013
Disc Size: 47 685 375 639 bytes
Protection: AACS
BD-Java: No
Playlist: 00005.MPLS
Size: 2 295 748 608 bytes
Length: 0:12:04.000
Total Bitrate: 25,37 Mbps
Video: MPEG-4 AVC Video / 23998 kbps / 1080i / 25 fps / 16:9 / High Profile 4.1
Audio: Swedish / Dolby Digital Audio / 2.0 / 48 kHz / 192 kbps / DN -4dB

********************
PLAYLIST: 00003.MPLS
********************

<–- BEGIN FORUMS PASTE –->
Код:
Total Video
Title Codec Length Movie Size Disc Size Bitrate Bitrate Main Audio Track Secondary Audio Track
––- ––– –––- ––––––– ––––––– –––- –––- ––––––––– ––––––––––-
00003.MPLS AVC 0:05:25 1 289 349 120 47 685 375 639 31,66 30,00 DD AC3 2.0 192Kbps
Код:
DISC INFO:

Disc Title: Roxette – Live Travelling the World Blu-ray 2013
Disc Size: 47 685 375 639 bytes
Protection: AACS
BD-Java: No
Extras: 50Hz Content
BDInfo: 0.5.8

PLAYLIST REPORT:

Name: 00003.MPLS
Length: 0:05:25.760 (h:m:s.ms)
Size: 1 289 349 120 bytes
Total Bitrate: 31,66 Mbps

VIDEO:

Codec Bitrate Description
––- –––- –––––-
MPEG-4 AVC Video 30000 kbps 1080i / 25 fps / 16:9 / High Profile 4.1

AUDIO:

Codec Language Bitrate Description
––- –––– –––- –––––-
Dolby Digital Audio Swedish 192 kbps 2.0 / 48 kHz / 192 kbps / DN -4dB

SUBTITLES:

Codec Language Bitrate Description
––- –––– –––- –––––-
Presentation Graphics English 30,063 kbps

FILES:

Name Time In Length Size Total Bitrate
–– –––- ––– –– ––––––-
00005.M2TS 0:00:00.000 0:05:25.760 1 289 349 120 31 664

CHAPTERS:

Number Time In Length Avg Video Rate Max 1-Sec Rate Max 1-Sec Time Max 5-Sec Rate Max 5-Sec Time Max 10Sec Rate Max 10Sec Time Avg Frame Size Max Frame Size Max Frame Time
––– –––- ––– ––––––– ––––––– ––––––– ––––––– ––––––– ––––––– ––––––– ––––––– ––––––– –––––––
1 0:00:00.000 0:02:30.000 30 076 kbps 58 748 kbps 00:00:00.200 33 269 kbps 00:00:00.399 31 785 kbps 00:00:00.160 150 342 bytes 795 739 bytes 00:00:00.879
2 0:02:30.000 0:02:54.440 29 940 kbps 39 887 kbps 00:02:48.000 32 969 kbps 00:03:40.400 31 404 kbps 00:03:35.360 149 702 bytes 607 916 bytes 00:03:44.760
3 0:05:24.440 0:00:01.319 29 091 kbps 30 000 kbps 00:05:24.720 0 kbps 00:00:00.000 0 kbps 00:00:00.000 149 998 bytes 150 003 bytes 00:05:25.720

STREAM DIAGNOSTICS:

File PID Type Codec Language Seconds Bitrate Bytes Packets
–– –- –– ––- –––– ––––––– ––––––– ––––––- ––-
00005.M2TS 4113 (0x1011) 0x1B AVC 325,640 30 011 1 221 584 389 6 643 882
00005.M2TS 4352 (0x1100) 0x81 AC3 swe (Swedish) 325,640 200 8 144 640 53 025
00005.M2TS 4608 (0x1200) 0x90 PGS eng (English) 325,640 30 1 224 184 7 059
<–– END FORUMS PASTE ––>

QUICK SUMMARY:

Disc Title: Roxette – Live Travelling the World Blu-ray 2013
Disc Size: 47 685 375 639 bytes
Protection: AACS
BD-Java: No
Playlist: 00003.MPLS
Size: 1 289 349 120 bytes
Length: 0:05:25.760
Total Bitrate: 31,66 Mbps
Video: MPEG-4 AVC Video / 30000 kbps / 1080i / 25 fps / 16:9 / High Profile 4.1
Audio: Swedish / Dolby Digital Audio / 2.0 / 48 kHz / 192 kbps / DN -4dB
Subtitle: English / 30,063 kbps

********************
PLAYLIST: 00004.MPLS
********************

<–- BEGIN FORUMS PASTE –->
Код:
Total Video
Title Codec Length Movie Size Disc Size Bitrate Bitrate Main Audio Track Secondary Audio Track
––- ––– –––- ––––––– ––––––– –––- –––- ––––––––– ––––––––––-
00004.MPLS AVC 0:03:19 632 236 032 47 685 375 639 25,36 23,99 DD AC3 2.0 192Kbps
Код:
DISC INFO:

Disc Title: Roxette – Live Travelling the World Blu-ray 2013
Disc Size: 47 685 375 639 bytes
Protection: AACS
BD-Java: No
Extras: 50Hz Content
BDInfo: 0.5.8

PLAYLIST REPORT:

Name: 00004.MPLS
Length: 0:03:19.440 (h:m:s.ms)
Size: 632 236 032 bytes
Total Bitrate: 25,36 Mbps

VIDEO:

Codec Bitrate Description
––- –––- –––––-
MPEG-4 AVC Video 23991 kbps 1080i / 25 fps / 16:9 / High Profile 4.1

AUDIO:

Codec Language Bitrate Description
––- –––– –––- –––––-
Dolby Digital Audio Swedish 192 kbps 2.0 / 48 kHz / 192 kbps / DN -4dB

FILES:

Name Time In Length Size Total Bitrate
–– –––- ––– –– ––––––-
00006.M2TS 0:00:00.000 0:03:19.440 632 236 032 25 360

CHAPTERS:

Number Time In Length Avg Video Rate Max 1-Sec Rate Max 1-Sec Time Max 5-Sec Rate Max 5-Sec Time Max 10Sec Rate Max 10Sec Time Avg Frame Size Max Frame Size Max Frame Time
––– –––- ––– ––––––– ––––––– ––––––– ––––––– ––––––– ––––––– ––––––– ––––––– ––––––– –––––––
1 0:00:00.000 0:03:18.399 24 116 kbps 45 969 kbps 00:02:24.760 34 678 kbps 00:00:08.480 32 039 kbps 00:00:07.720 120 557 bytes 523 465 bytes 00:00:34.399
2 0:03:18.399 0:00:01.040 79 kbps 82 kbps 00:03:18.399 0 kbps 00:00:00.000 0 kbps 00:00:00.000 411 bytes 2 457 bytes 00:03:18.760

STREAM DIAGNOSTICS:

File PID Type Codec Language Seconds Bitrate Bytes Packets
–– –- –– ––- –––– ––––––– ––––––– ––––––- ––-
00006.M2TS 4113 (0x1011) 0x1B AVC 199,360 24 001 598 094 026 3 253 458
00006.M2TS 4352 (0x1100) 0x81 AC3 swe (Swedish) 199,360 200 4 986 624 32 465
<–– END FORUMS PASTE ––>

QUICK SUMMARY:

Disc Title: Roxette – Live Travelling the World Blu-ray 2013
Disc Size: 47 685 375 639 bytes
Protection: AACS
BD-Java: No
Playlist: 00004.MPLS
Size: 632 236 032 bytes
Length: 0:03:19.440
Total Bitrate: 25,36 Mbps
Video: MPEG-4 AVC Video / 23991 kbps / 1080i / 25 fps / 16:9 / High Profile 4.1
Audio: Swedish / Dolby Digital Audio / 2.0 / 48 kHz / 192 kbps / DN -4dB

Thanks to the original uploader

Roxette – Live, Travelling the World (2013) [Blu-ray] Download, Warez, DDL, Free, Full Album, Torrent, Legal.

Download