Rossini – Otello (Jesus Lopez Cobos) [1992/1978]

Download
Rossini - Otello (Jesus Lopez Cobos) [1992/1978]

Rossini – Otello (Jesús López Cobos) [1992/1978]
Classical | Philips 432 456-2 | TT: 2.33’11” | EAC (flac, cue, log) | Covers | 626 Mb

The Naples years, 1815 to 1822, are at the very centre of Rossini’s creative life. It is here that genius—”I had facility and lots of instinct”—was put to school. And firmly so: the serious masterpieces of the Naples years take as their subjects the Bible and Shakespeare, Scott and Racine, Tasso and English historical romance.
…Otello (Naples 1816)…has a strong cast, headed by Carreras’s searingly noble Moor. The Desdemona is Frederica von Stade: chaste and as luminous as a sculpture in Carrara marble. The set also displays casting in depth. In Rossini’s day Naples was awash with great tenors, a situation that nowadays creates prodigious difficulties. Yet both the Iago, Gianfranco Pastine, and the Rodrigo, Salvatore Fisichella, emerge with honour, barely bloodied and never for a moment bowed by Rossini’s terrible arsenal of vocal effects. ”They have been crucifying Otello into an opera,” wrote Byron in 1818. Well, yes and no. By all means treat Acts 1 and 2 as flashy rodomontade, but Act 3 is glorious, inspired enough and sufficiently close to Shakespeare to have been a near fatal deterrant to what Verdi called his own ”chocolate project”. I thrilled to it afresh—off-stage Gondolier and all—in these brilliant new CD transfers. (Richard Osborne, Gramophone)

Cast:
Otello – Jose Carreras
Desdemona – Frederica von Stade
Jago – Gianfranco Pastine
Rodrigo – Salvatore Fisichella
Emilia – Nucci Condo’
Elmiro – Samuel Ramey
Lucio – Keith Lewis
Doge/Gondoliere – Alfonso Leoz
Philarmonia Orchestra
Conductor – Jesús López Cobos

Track
CD1:
01. No.1 Introduzione
02. Atto I. Viva Otello (Coro)
03. Marcia
04. No.2 Duetto e Coro: Vincemmo, o prodi (Otello, Doge, Iago, Rodrigo)
05. Ah! sì, per voi già sento (Otello, Iago, Rodrigo)
06. No.3 Recitativo e Duetto: Rodrigo! (Elmiro, Rodrigo, Iago)
07. No, non temer (Iago, Rodrigo)
08. No.4 Recitativo e Duetto: Inutile è quel pianto (Emilia, Desdemona)
09. Vorrei, che il tuo pensiero (Desdemona, Emilia)
10. No.5 Finale I: Ma che miro? (Desdemona, Iago, Rodrigo, Elmiro, Emilia)
11. Santo Imen! (Coro)
12. Dove son. Che mai veggio (Desdemona, Elmiro. Rodrigo, Emilia)
13. Nel cor d’un padre amante (Elmiro, Rodrigo, Desdemona)
14. Ti parli d’amore (Rodrigo, Elmiro, Desdemona)
15. L’infida, ahimè che miro? (Otello, Coro, Elmiro, Desdemona)
16. Incerta l’anima (Coro, Rodrigo, Otello, Elmiro, Desdemona, Elmiro)
17. Atto II. No.6 Recitativo ed Aria: Lasciami (Desdemona, Rodrigo)
18. Che ascolto (Rodrigo)
CD2:
01. No.7 Recitativo e Duetto: M’abbandonò, disparve (Desdemona, Emilia)
02. Che feci (Otello, Iago)
03. Non m’inganno (Otello, Iago)
04. L’ira d’avverso fato (Otello, Iago)
05. No.8 Recitativo e Terzetto: E a tanto giunger puote (Otello, Rodrigo)
06. Ah vieni, nel tuo sangue (Rodrigo, Otello, Desdemona)
07. Tra tante smanie (Rodrigo, Desdemona, Otello)
08. No.9 Finale II: Desdemona! Che veggo! (Emilia, Desdemona)
09. Che smania. Ohimè, che affanno! (Desdemona, Coro, Elmiro)
10. L’error d’un infelice (Desdemona, Coro, Elmiro)
11. Atto III. No.10 Recitativo, Aria, Duetto e Finale: Ah! Dagli anni oppressa (Desdemona, Emilia)
12. Nessun maggior dolore (Gondoliere, Desdemona, Emilia)
13. Canzone: Assisa a’ piè d’un salice (Desdemona)
14. Deh calma, o Ciel, nel sonno (Desdemona)
15. Eccomi giunto inosservato (Otello, Desdemona)
16. Duetto: Non arrestare il colpo (Desdemona, Otello)
17. Notte per me funesta (Desdemona, Otello)
18. Che sento… chi batte (Otello, Lucio, Doge, Elmiro, Rodrigo, Coro)

EAC
Exact Audio Copy V1.0 beta 3 from 29. August 2011

EAC extraction logfile from 13. December 2016, 12:45

Jesús López Cobos, Carreras, von Stade, Pastine, Fisichella / Rossini – Otello CD1

Used drive : PIONEER BD-RW BDR-207M Adapter: 0 ID: 0

Read mode : Secure
Utilize accurate stream : Yes
Defeat audio cache : Yes
Make use of C2 pointers : No

Read offset correction : 667
Overread into Lead-In and Lead-Out : No
Fill up missing offset samples with silence : Yes
Delete leading and trailing silent blocks : No
Null samples used in CRC calculations : Yes
Used interface : Native Win32 interface for Win NT & 2000

Used output format : User Defined Encoder
Selected bitrate : 128 kBit/s
Quality : High
Add ID3 tag : No
Command line compressor : C:Program FilesExact Audio CopyFlacflac.exe
Additional command line options : -V -8 -T "Date=%year%" -T "Genre=%genre%" %source%

TOC of the extracted CD

Track | Start | Length | Start sector | End sector
––––––––––––––––––––––––––––-
1 | 0:00.33 | 8:25.00 | 33 | 37907
2 | 8:25.33 | 3:35.00 | 37908 | 54032
3 | 12:00.33 | 1:48.40 | 54033 | 62172
4 | 13:48.73 | 2:39.35 | 62173 | 74132
5 | 16:28.33 | 7:06.35 | 74133 | 106117
6 | 23:34.68 | 3:04.32 | 106118 | 119949
7 | 26:39.25 | 5:18.08 | 119950 | 143807
8 | 31:57.33 | 6:24.12 | 143808 | 172619
9 | 38:21.45 | 4:10.73 | 172620 | 191442
10 | 42:32.43 | 5:20.15 | 191443 | 215457
11 | 47:52.58 | 4:09.12 | 215458 | 234144
12 | 52:01.70 | 1:02.53 | 234145 | 238847
13 | 53:04.48 | 4:40.47 | 238848 | 259894
14 | 57:45.20 | 4:07.13 | 259895 | 278432
15 | 61:52.33 | 3:12.37 | 278433 | 292869
16 | 65:04.70 | 5:50.38 | 292870 | 319157
17 | 70:55.33 | 1:43.05 | 319158 | 326887
18 | 72:38.38 | 6:09.70 | 326888 | 354632

Range status and errors

Selected range

Filename C:Rossini – Otello CD1.wav

Peak level 99.7 %
Extraction speed 7.0 X
Range quality 100.0 %
Test CRC 091921E4
Copy CRC 091921E4
Copy OK

No errors occurred

End of status report

==== Log checksum 7A32FF45134B58BD0D8E4DBBD10D47025DB450E241DE1AB8EE1A9B63855596D0 ====

EAC
Exact Audio Copy V1.0 beta 3 from 29. August 2011

EAC extraction logfile from 13. December 2016, 13:17

Jesús López Cobos, Carreras, von Stade, Pastine, Fisichella / Rossini – Otello CD2

Used drive : PIONEER BD-RW BDR-207M Adapter: 0 ID: 0

Read mode : Secure
Utilize accurate stream : Yes
Defeat audio cache : Yes
Make use of C2 pointers : No

Read offset correction : 667
Overread into Lead-In and Lead-Out : No
Fill up missing offset samples with silence : Yes
Delete leading and trailing silent blocks : No
Null samples used in CRC calculations : Yes
Used interface : Native Win32 interface for Win NT & 2000

Used output format : User Defined Encoder
Selected bitrate : 128 kBit/s
Quality : High
Add ID3 tag : No
Command line compressor : C:Program FilesExact Audio CopyFlacflac.exe
Additional command line options : -V -8 -T "Date=%year%" -T "Genre=%genre%" %source%

TOC of the extracted CD

Track | Start | Length | Start sector | End sector
––––––––––––––––––––––––––––-
1 | 0:00.33 | 2:24.57 | 33 | 10889
2 | 2:25.15 | 5:38.55 | 10890 | 36294
3 | 8:03.70 | 4:02.35 | 36295 | 54479
4 | 12:06.30 | 2:28.43 | 54480 | 65622
5 | 14:34.73 | 0:51.40 | 65623 | 69487
6 | 15:26.38 | 8:59.45 | 69488 | 109957
7 | 24:26.08 | 2:29.25 | 109958 | 121157
8 | 26:55.33 | 2:06.30 | 121158 | 130637
9 | 29:01.63 | 5:42.45 | 130638 | 156332
10 | 34:44.33 | 3:13.00 | 156333 | 170807
11 | 37:57.33 | 3:52.00 | 170808 | 188207
12 | 41:49.33 | 5:06.00 | 188208 | 211157
13 | 46:55.33 | 9:02.00 | 211158 | 251807
14 | 55:57.33 | 2:27.37 | 251808 | 262869
15 | 58:24.70 | 6:49.73 | 262870 | 293617
16 | 65:14.68 | 2:52.25 | 293618 | 306542
17 | 68:07.18 | 2:24.32 | 306543 | 317374
18 | 70:31.50 | 3:35.58 | 317375 | 333557

Range status and errors

Selected range

Filename C:Rossini – Otello CD2.wav

Peak level 100.0 %
Extraction speed 6.9 X
Range quality 100.0 %
Test CRC 56198616
Copy CRC 56198616
Copy OK

No errors occurred

End of status report

==== Log checksum E304CB039314CE229ADE673199101D98D14D1A80D4E303C06831B5AEF04B438E ====

Rossini – Otello (Jesus Lopez Cobos) [1992/1978] Download, Warez, DDL, Free, Full Album, Torrent, Legal.

Download