Rossini – Armida (Claudio Scimone) [2012/1991] | ViralVideoPk

Daily Dose of Free Downloads

Rossini – Armida (Claudio Scimone) [2012/1991]

Download

Rossini - Armida (Claudio Scimone) [2012/1991]

Rossini – Armida (Claudio Scimone) [2012/1991]
Classical | Brilliant Classics 94222 | TT: 76.10+76.45 | EAC (flac, cue, log) | Covers | 624 Mb

After its successful premiere, Rossini’s opera “Armida” was quickly forgotten, only to be triumphantly revived by Maria Callas in 1952, and ever since it is considered a masterpiece. This performance with primarily Italian forces, has all the wit, charm, beauty and sparkle that any Rossini opera can wish for. Some big names here: Cecilia Gasdia, Chris Merritt,William Matteuzzi and Ferruccio Furlanetto. Great addition to the Brilliant Classics Opera Collection. Armida is today considered one of Rossini’s greatest operas, but following its premier in Naples in 1817 it quickly faded from the standard operatic repertoire. Its plot of knightly duties, love and supernatural worlds (foreshadowing Weber in places) inspired the composer to write some of his most original and inimitable music, with unusual combinations of instruments and some beautiful extended solos for cello and violin.The love music is undeniably heartfelt and sincere; Rossini’s inspiration may have been assisted by his romantic involvement with the soprano Isabella Colbran, a major star of the time and the first to perform the title role.

Cast:
Armida – Cecilia Gasdia
Rinaldo – Chris Merritt
Goffredo/Carlo – William Matteuzzi
Gernando/Ubaldo – Bruce Ford
Eustazio – Charles Workman
Idraote/Astarotte – Ferruccio Furlanetto
Ambrosian Opera Chorus
I Solisti Veneti
Conductor – Claudio Scimone

Track
CD1:
01. Sinfonia
Atto I
02. Atto I. No.1: Introduzione e Coro: Lieto, ridente oltre l’usato (Chorus)
03. No.2: Cavatina: Ah! no: sia questo di tregua il giorno (Goffredo, Chorus)
04. Recitativo: Sì, guerrieri, fian sacre (Goffredo)
05. No.3: Recitativo e Coro: Germano, a te richiede (Eustazio, Goffredo, Chorus)
06. Quell’astro mattutino (Chorus)
07. Recitativo: Signor, tanto il tuo nome (Armida, Goffredo, Idraote, Eustazio)
08. No.4: Quartetto: Sventurata! Or che mi resta (Armida, Goffredo, Idraote, Eustazio, Chorus)
09. German, se togli al campo (Eustazio, Idraote, Goffredo, Armida, Chorus)
10. Per me propizio il fato (Armida, Eustazio, Idraote, Goffredo, Chorus)
11. Recitativo: Cedei. Guerrieri, è ver (Goffredo, Eustazio, Gernando, Armida)
12. No.5: Recitativo ed Aria: Come! a Dudon costui (Gernando)
13. Non soffrirò l’offesa (Gernando, Chorus)
14. Recitativo: Sorte ci arride (Idraote, Armida)
15. No.6: Recitativo e Duetto: Principessa, sei tu! (Rinaldo, Armida)
16. Amor! Possente nome! (Rinaldo, Armida)
17. No.7: Recitativo e Duetto: Ecco il guerriero, il Duce (Gernando, Rinaldo, Chorus)
18. Se pari agli accenti (Rinaldo, Gernando, Armida, Chorus)
19. Finale: No.8: Duetto: Che terribile momento (Armida, Rinaldo, Chorus)
20. Finale: Stretta: Vieni, o Duce (Armida, Goffredo, Rinaldo, Chorus)
21. Finale: Amica la sorte (Armida, Rinaldo, Goffredo, Chorus)
Atto II
22. Atto II. No.9: Introduzione e Coro: Alla voce d’Armida possente (Chorus)
23. Recitativo: Sovrumano potere (Astarotte)
24. No.10: Coro: Di fiamme e ferro cinti (Chorus, Astarotte)
CD2:
01. No.11: Duetto: Dove son io (Rinaldo, Armida)
02. Recitativo: Mio ben, questa che premi (Armida, Rinaldo)
03. No.12: Coro: No; d’Amor la reggia è questa (Armida, Chorus)
04. Coro di Ninfe: Canzoni amorose (Coro)
05. No.13: Ballo e Rondo Finale: D’amore al dolce impero (Armida, Chorus)
06. Danza e Coro generale
Atto III
07. Atto III. No.14: Duetto: Come l’aurette placide… ? (Ubaldo, Carlo)
08. Recitativo: Oh quanto, amico, d’Ascalona (Ubaldo, Carlo)
09. No.15: Coro di Ninfe: Qui tutto è calma (Carlo, Ubaldo, Chorus)
10. No.16: Recitativo: Fuggite, infernei mostri (Ubaldo, Carlo)
11. No.17: Duetto: Soavi catene (Armida, Rinaldo)
12. Recitativo: O mio Rinaldo, ammira (Armida, Rinaldo)
13. No.18: Recitativo e Trio: Lo splendor di que’ rai (Rinaldo, Ubaldo, Carlo)
14. In quale aspetto imbelle (Rinaldo, Carlo, Ubaldo)
15. No.19: Aria: Dov’è? … dove si cela? (Armida)
16. Recitativo: Sia lode al ciel (Ubaldo, Carlo, Rinaldo, Armida)
17. No.20: Rondo: Se al mio crudel tormento (Armida, Corlo, Rinaldo, Ubaldo)
18. No.21: Finale: Dove son io! … Fuggi… (Armida, Chorus)

EAC
Exact Audio Copy V1.0 beta 3 from 29. August 2011

EAC extraction logfile from 12. December 2016, 16:20

Claudio Scimone, I Solisti Veneti / Rossini – Armida CD1

Used drive : PIONEER BD-RW BDR-207M Adapter: 0 ID: 0

Read mode : Secure
Utilize accurate stream : Yes
Defeat audio cache : Yes
Make use of C2 pointers : No

Read offset correction : 667
Overread into Lead-In and Lead-Out : No
Fill up missing offset samples with silence : Yes
Delete leading and trailing silent blocks : No
Null samples used in CRC calculations : Yes
Used interface : Native Win32 interface for Win NT & 2000

Used output format : User Defined Encoder
Selected bitrate : 128 kBit/s
Quality : High
Add ID3 tag : No
Command line compressor : C:Program FilesExact Audio CopyFlacflac.exe
Additional command line options : -V -8 -T "Date=%year%" -T "Genre=%genre%" %source%

TOC of the extracted CD

Track | Start | Length | Start sector | End sector
––––––––––––––––––––––––––––-
1 | 0:00.35 | 5:03.13 | 35 | 22772
2 | 5:03.48 | 2:34.47 | 22773 | 34369
3 | 7:38.20 | 5:20.35 | 34370 | 58404
4 | 12:58.55 | 0:53.08 | 58405 | 62387
5 | 13:51.63 | 1:12.05 | 62388 | 67792
6 | 15:03.68 | 1:11.47 | 67793 | 73164
7 | 16:15.40 | 2:13.53 | 73165 | 83192
8 | 18:29.18 | 6:21.17 | 83193 | 111784
9 | 24:50.35 | 1:20.63 | 111785 | 117847
10 | 26:11.23 | 2:45.30 | 117848 | 130252
11 | 28:56.53 | 2:42.32 | 130253 | 142434
12 | 31:39.10 | 0:43.70 | 142435 | 145729
13 | 32:23.05 | 7:21.15 | 145730 | 178819
14 | 39:44.20 | 1:34.70 | 178820 | 185939
15 | 41:19.15 | 3:14.08 | 185940 | 200497
16 | 44:33.23 | 8:25.25 | 200498 | 238397
17 | 52:58.48 | 2:17.00 | 238398 | 248672
18 | 55:15.48 | 3:12.40 | 248673 | 263112
19 | 58:28.13 | 5:07.17 | 263113 | 286154
20 | 63:35.30 | 1:30.48 | 286155 | 292952
21 | 65:06.03 | 3:34.37 | 292953 | 309039
22 | 68:40.40 | 3:19.23 | 309040 | 323987
23 | 71:59.63 | 1:38.32 | 323988 | 331369
24 | 73:38.20 | 2:29.58 | 331370 | 342602

Range status and errors

Selected range

Filename C:Rossini – Armida CD1.wav

Peak level 99.0 %
Extraction speed 6.8 X
Range quality 99.9 %
Test CRC D73C0E37
Copy CRC D73C0E37
Copy OK

No errors occurred

End of status report

==== Log checksum 58B1A60D90A08E02E143AF86F29E9A1107E11BA14517F69A0E38ED195F8982AA ====

EAC
Exact Audio Copy V1.0 beta 3 from 29. August 2011

EAC extraction logfile from 12. December 2016, 16:54

Claudio Scimone, I Solisti Veneti / Rossini – Armida CD2

Used drive : PIONEER BD-RW BDR-207M Adapter: 0 ID: 0

Read mode : Secure
Utilize accurate stream : Yes
Defeat audio cache : Yes
Make use of C2 pointers : No

Read offset correction : 667
Overread into Lead-In and Lead-Out : No
Fill up missing offset samples with silence : Yes
Delete leading and trailing silent blocks : No
Null samples used in CRC calculations : Yes
Used interface : Native Win32 interface for Win NT & 2000

Used output format : User Defined Encoder
Selected bitrate : 128 kBit/s
Quality : High
Add ID3 tag : No
Command line compressor : C:Program FilesExact Audio CopyFlacflac.exe
Additional command line options : -V -8 -T "Date=%year%" -T "Genre=%genre%" %source%

TOC of the extracted CD

Track | Start | Length | Start sector | End sector
––––––––––––––––––––––––––––-
1 | 0:00.33 | 6:05.17 | 33 | 27424
2 | 6:05.50 | 1:26.10 | 27425 | 33884
3 | 7:31.60 | 0:37.10 | 33885 | 36669
4 | 8:08.70 | 1:53.43 | 36670 | 45187
5 | 10:02.38 | 6:23.60 | 45188 | 73972
6 | 16:26.23 | 14:11.30 | 73973 | 137827
7 | 30:37.53 | 5:09.25 | 137828 | 161027
8 | 35:47.03 | 1:03.52 | 161028 | 165804
9 | 36:50.55 | 3:15.60 | 165805 | 180489
10 | 40:06.40 | 1:29.55 | 180490 | 187219
11 | 41:36.20 | 3:04.55 | 187220 | 201074
12 | 44:41.00 | 1:33.70 | 201075 | 208119
13 | 46:14.70 | 2:11.05 | 208120 | 217949
14 | 48:26.00 | 8:05.53 | 217950 | 254377
15 | 56:31.53 | 3:36.37 | 254378 | 270614
16 | 60:08.15 | 3:54.38 | 270615 | 288202
17 | 64:02.53 | 5:36.67 | 288203 | 313469
18 | 69:39.45 | 7:03.70 | 313470 | 345264

Range status and errors

Selected range

Filename C:Rossini – Armida CD2.wav

Peak level 92.6 %
Extraction speed 6.9 X
Range quality 99.9 %
Test CRC 00965526
Copy CRC 00965526
Copy OK

No errors occurred

End of status report

==== Log checksum B8D0FFBDB310B1048B44B46A0DFC1622F31FFC2624032F573BE2BDA023877A93 ====

Rossini – Armida (Claudio Scimone) [2012/1991] Download, Warez, DDL, Free, Full Album, Torrent, Legal.

Download


  • Recent Posts

  • Recent Tags