Rosalyn Tureck, Charles Rosen – J.S. Bach: The Keyboard Album (featuring The Italian Concerto and The Art of Fugue) (1997)

Download
Rosalyn Tureck, Charles Rosen - J.S. Bach: The Keyboard Album (featuring The Italian Concerto and The Art of Fugue) (1997)

Rosalyn Tureck, Charles Rosen – J.S. Bach: The Keyboard Album (featuring The Italian Concerto and The Art of Fugue) (1997)
EAC | FLAC (tracks+.cue, log) | Covers Included | 02:20:08 | 568 MB
Genre: Classical | Label: Sony Classical | Catalog: 63231

This long-deleted Essential Classics reissue (available again courtesy of Arkivmusic.com’s on-demand reprint program) comprises the first CD remastering of two separate Bach piano releases. One disc features Rosalyn Tureck’s Bach Album, an early-1981 digital production made up mostly of short pieces, plus the Aria and Variations in Italian Style. The close-up yet warm sonics capture the full measure of Tureck’s technical specificity, subtle use of color, and micromanaged dynamics. Notice her absolute linear control in the F minor suite’s Prelude (first sound clip), or how her seemingly over-detached articulations (the seventh Italian variation) always maintain a lilting presence.
By contrast, the 1979 Italian Concerto sounds comparatively strident and congested in loud moments, yet one easily infers Tureck’s expert layering of Bach’s “solo” and “tutti” textural strands, not to mention her beautiful lyrical legato phrasing throughout the Andante.
Disc 2 offers Charles Rosen’s 1967 traversal of The Art of Fugue, which first appeared on Columbia Masterworks’ budget Odyssey label as part of a three-LP set that also included the Goldberg Variations and the two Ricercars from The Musical Offering. Sony’s vibrant digital remastering reveals Rosen to have possessed a fuller, more colorful piano tone than my well-worn LPs conveyed. Moreover, his fluent and songful delineation of Bach’s fugal textures is consistently clear and crisp without the least exaggeration or fussiness, abetted by tempo choices that always convince, even though they might seem unusual at first hearing.
For example, Rosen’s slow unfolding of Contrapunctus V allows the close canonic sequences more breathing room, while Contrapunctus VII’s fast tempo better clarifies the main theme’s various states of augmentation and diminution without bogging down as many slower performances tend to do (second sound clip). His discreet use of the sostenuto pedal at the end of Contrapunctus VI also lends extra clarity and tension to the music’s linear build. For the three voice mirror fugues Rosen plays Bach’s versions for two keyboards that incorporate an extra freely-composed line. One “Olsen Archers” is credited as the second pianist, but that’s simply an anagram; Rosen himself overdubbed the second piano part.
This re-release sadly coincided with Rosen’s passing, and I hope that Arkivmusic.com will consider reprinting other long-unavailable gems from Rosen’s eclectic discography. Worthy candidates include the early 1960s Debussy LPs for Epic, a Vanguard Haydn disc, the Boulez First and Third sonatas for Columbia, plus Rosen’s incomparable Beethoven Diabelli Variations, once briefly available on Carlton Classics and in dire need of reissue. – Jed Distler, ClassicsToday

Arkivmusic

Rosalyn Tureck, Charles Rosen - J.S. Bach: The Keyboard Album (featuring The Italian Concerto and The Art of Fugue) (1997)

Track List:

CD 1:
01. Applicatio in C, BWV 994 (1:03)
02. Chorale: Joy & Peace, BWV 512 (1:04)
03. Musette in D, BWV Anh. 126 (1:03)
04. Minuet in G, BWV Anh. 116 (2:30)
05. Minuet in G, BWV Anh. 115 (1:55)
06. March in D, BWV Anh. 122 (1:19)
07. March in E-flat, BWV Anh. 127 (1:53)
08. Polonaise in F, BWV Anh. 117a (1:18)
09. Invention in C, BWV 772a (1723 Version) (1:25)
10. Invention in C, BWV 772 (1720 Version) (1:27)
11. Fantasia in g, BWV 917 (2:01)
12. Prelude in a, BWV 895 (1:20)
13. Fugue in a, BWV 895 (2:20)
Suite in f, BWV 823
14. Prelude (1:41)
15. Sarabande (2:58)
16. Gigue (1:44)
Aria and Ten Variations in the Italian Style
17. Aria (2:33)
18. Variation I (1:26)
19. Variation II (1:08)
20. Variation III (1:38)
21. Variation IV (1:00)
22. Variation V (1:27)
23. Variation VI (1:42)
24. Variation VII (0:52)
25. Variation VIII (0:57)
26. Variation IX (1:05)
27. Variation X (2:46)
Suite in A, BWV 824
28. Allemande (3:20)
29. Courante (2:03)
30. Gigue (3:26)
Italian Concerto in F, BWV 971
31. I (3:57)
32. II. Andante (5:31)
33. III. Presto (3:53)

EAC Log
Exact Audio Copy V1.0 beta 3 from 29. August 2011

EAC extraction logfile from 10. December 2013, 5:36

Rosalyn Tureck / Bach: The Keyboard Album Disc 1

Used drive : HL-DT-STBDDVDRW CH08LS10 Adapter: 0 ID: 3

Read mode : Secure
Utilize accurate stream : Yes
Defeat audio cache : Yes
Make use of C2 pointers : No

Read offset correction : 667
Overread into Lead-In and Lead-Out : No
Fill up missing offset samples with silence : Yes
Delete leading and trailing silent blocks : No
Null samples used in CRC calculations : Yes
Used interface : Native Win32 interface for Win NT & 2000
Gap handling : Appended to previous track

Used output format : User Defined Encoder
Selected bitrate : 1024 kBit/s
Quality : High
Add ID3 tag : No
Command line compressor : C:Program Files (x86)Exact Audio CopyFLACFLAC.EXE
Additional command line options : -8 -V -T "ARTIST=%artist%" -T "TITLE=%title%" -T "ALBUM=%albumtitle%" -T "DATE=%year%" -T "TRACKNUMBER=%tracknr%" -T "GENRE=%genre%" -T "COMMENT=%comment%" -T "BAND=%albuminterpret%" -T "ALBUMARTIST=%albuminterpret%" -T "COMPOSER=%composer%" %haslyrics%–tag-from-file=LYRICS="%lyricsfile%"%haslyrics% -T "DISCNUMBER=%cdnumber%" -T "TOTALDISCS=%totalcds%" -T "TOTALTRACKS=%numtracks%" %hascover%–picture="%coverfile%"%hascover% %source% -o %dest%

TOC of the extracted CD

Track | Start | Length | Start sector | End sector
––––––––––––––––––––––––––––-
1 | 0:00.00 | 1:02.65 | 0 | 4714
2 | 1:02.65 | 1:04.05 | 4715 | 9519
3 | 2:06.70 | 1:03.05 | 9520 | 14249
4 | 3:10.00 | 2:29.45 | 14250 | 25469
5 | 5:39.45 | 1:55.12 | 25470 | 34106
6 | 7:34.57 | 1:19.03 | 34107 | 40034
7 | 8:53.60 | 1:52.70 | 40035 | 48504
8 | 10:46.55 | 1:17.62 | 48505 | 54341
9 | 12:04.42 | 1:25.18 | 54342 | 60734
10 | 13:29.60 | 1:26.52 | 60735 | 67236
11 | 14:56.37 | 2:01.05 | 67237 | 76316
12 | 16:57.42 | 1:19.55 | 76317 | 82296
13 | 18:17.22 | 2:20.30 | 82297 | 92826
14 | 20:37.52 | 1:40.73 | 92827 | 100399
15 | 22:18.50 | 2:58.10 | 100400 | 113759
16 | 25:16.60 | 1:43.42 | 113760 | 121526
17 | 27:00.27 | 2:33.15 | 121527 | 133016
18 | 29:33.42 | 1:25.73 | 133017 | 139464
19 | 30:59.40 | 1:08.00 | 139465 | 144564
20 | 32:07.40 | 1:38.27 | 144565 | 151941
21 | 33:45.67 | 1:00.35 | 151942 | 156476
22 | 34:46.27 | 1:27.23 | 156477 | 163024
23 | 36:13.50 | 1:42.07 | 163025 | 170681
24 | 37:55.57 | 0:51.45 | 170682 | 174551
25 | 38:47.27 | 0:56.63 | 174552 | 178814
26 | 39:44.15 | 1:05.12 | 178815 | 183701
27 | 40:49.27 | 2:45.38 | 183702 | 196114
28 | 43:34.65 | 3:20.12 | 196115 | 211126
29 | 46:55.02 | 2:03.00 | 211127 | 220351
30 | 48:58.02 | 3:26.08 | 220352 | 235809
31 | 52:24.10 | 3:56.67 | 235810 | 253576
32 | 56:21.02 | 5:30.55 | 253577 | 278381
33 | 61:51.57 | 3:53.15 | 278382 | 295871

Track 1

Filename X:torrents.incompleteBach – The Keyboard Album(1997)[FLAC]101 – Applicatio in C, Bwv 994.wav

Pre-gap length 0:00:02.00

Peak level 37.0 %
Extraction speed 0.8 X
Track quality 100.0 %
Test CRC 3E2512E1
Copy CRC 3E2512E1
Accurately ripped (confidence 3) [A92B81C8] (AR v1)
Copy OK

Track 2

Filename X:torrents.incompleteBach – The Keyboard Album(1997)[FLAC]102 – Chorale- Joy & Peace, Bwv 512.wav

Pre-gap length 0:00:02.40

Peak level 29.2 %
Extraction speed 0.6 X
Track quality 99.8 %
Test CRC 7AFE091E
Copy CRC 7AFE091E
Accurately ripped (confidence 3) [9BBB3ADE] (AR v1)
Copy OK

Track 3

Filename X:torrents.incompleteBach – The Keyboard Album(1997)[FLAC]103 – Musette in D, Bwv Anh. 126.wav

Pre-gap length 0:00:02.64

Peak level 63.1 %
Extraction speed 0.6 X
Track quality 99.8 %
Test CRC 07B20CB3
Copy CRC 07B20CB3
Accurately ripped (confidence 3) [8F22A314] (AR v1)
Copy OK

Track 4

Filename X:torrents.incompleteBach – The Keyboard Album(1997)[FLAC]104 – Minuet in G, Bwv Anh. 116.wav

Pre-gap length 0:00:02.46

Peak level 33.4 %
Extraction speed 1.1 X
Track quality 100.0 %
Test CRC A72D8FBF
Copy CRC A72D8FBF
Accurately ripped (confidence 3) [0EE8D1D8] (AR v1)
Copy OK

Track 5

Filename X:torrents.incompleteBach – The Keyboard Album(1997)[FLAC]105 – Minuet in G, Bwv Anh. 115.wav

Pre-gap length 0:00:03.26

Peak level 35.1 %
Extraction speed 0.9 X
Track quality 99.9 %
Test CRC 6F44A309
Copy CRC 6F44A309
Accurately ripped (confidence 3) [A18AE789] (AR v1)
Copy OK

Track 6

Filename X:torrents.incompleteBach – The Keyboard Album(1997)[FLAC]106 – March in D, Bwv Anh. 122.wav

Pre-gap length 0:00:02.56

Peak level 63.7 %
Extraction speed 0.8 X
Track quality 99.8 %
Test CRC B51E75BB
Copy CRC B51E75BB
Accurately ripped (confidence 3) [1396CE16] (AR v1)
Copy OK

Track 7

Filename X:torrents.incompleteBach – The Keyboard Album(1997)[FLAC]107 – March in E Flat, Bwv Anh. 127.wav

Pre-gap length 0:00:03.84

Peak level 65.9 %
Extraction speed 1.2 X
Track quality 100.0 %
Test CRC 06EE1240
Copy CRC 06EE1240
Accurately ripped (confidence 3) [5956B233] (AR v1)
Copy OK

Track 8

Filename X:torrents.incompleteBach – The Keyboard Album(1997)[FLAC]108 – Polonaise in F, Bwv Anh. 117A.wav

Pre-gap length 0:00:03.26

Peak level 61.4 %
Extraction speed 1.1 X
Track quality 100.0 %
Test CRC 3A1DB0FD
Copy CRC 3A1DB0FD
Accurately ripped (confidence 3) [84327B9D] (AR v1)
Copy OK

Track 9

Filename X:torrents.incompleteBach – The Keyboard Album(1997)[FLAC]109 – Invention in C, Bwv 772A (1723 Version).wav

Pre-gap length 0:00:01.00

Peak level 49.4 %
Extraction speed 1.1 X
Track quality 100.0 %
Test CRC 265A4DC3
Copy CRC 265A4DC3
Accurately ripped (confidence 3) [256DF7BF] (AR v1)
Copy OK

Track 10

Filename X:torrents.incompleteBach – The Keyboard Album(1997)[FLAC]110 – Invention in C, Bwv 772 (1720 Version).wav

Peak level 38.1 %
Extraction speed 1.2 X
Track quality 100.0 %
Test CRC E03C0C26
Copy CRC E03C0C26
Accurately ripped (confidence 3) [D513D5C9] (AR v1)
Copy OK

Track 11

Filename X:torrents.incompleteBach – The Keyboard Album(1997)[FLAC]111 – Fantasia in G, Bwv 917.wav

Pre-gap length 0:00:02.40

Peak level 77.3 %
Extraction speed 1.3 X
Track quality 100.0 %
Test CRC 10104DF0
Copy CRC 10104DF0
Accurately ripped (confidence 3) [A064EFFC] (AR v1)
Copy OK

Track 12

Filename X:torrents.incompleteBach – The Keyboard Album(1997)[FLAC]112 – Prelude & Fugue in A, Bwv 895 – Prelude.wav

Pre-gap length 0:00:03.89

Peak level 56.2 %
Extraction speed 1.2 X
Track quality 100.0 %
Test CRC C73B2370
Copy CRC C73B2370
Accurately ripped (confidence 3) [ECBCEDD4] (AR v1)
Copy OK

Track 13

Filename X:torrents.incompleteBach – The Keyboard Album(1997)[FLAC]113 – Prelude & Fugue in A, Bwv 895 – Fugue.wav

Peak level 79.0 %
Extraction speed 1.2 X
Track quality 99.9 %
Test CRC 57973FC1
Copy CRC 57973FC1
Accurately ripped (confidence 3) [0DE3FB3E] (AR v1)
Copy OK

Track 14

Filename X:torrents.incompleteBach – The Keyboard Album(1997)[FLAC]114 – Suite in F Minor, Bwv 823 – I. Prelude.wav

Pre-gap length 0:00:00.86

Peak level 44.5 %
Extraction speed 1.3 X
Track quality 100.0 %
Test CRC 51ADD174
Copy CRC 51ADD174
Accurately ripped (confidence 3) [07D851DC] (AR v1)
Copy OK

Track 15

Filename X:torrents.incompleteBach – The Keyboard Album(1997)[FLAC]115 – Suite in F Minor, Bwv 823 – Ii. Sarabande.wav

Peak level 50.2 %
Extraction speed 1.6 X
Track quality 100.0 %
Test CRC 43041FBC
Copy CRC 43041FBC
Accurately ripped (confidence 3) [5EC29E22] (AR v1)
Copy OK

Track 16

Filename X:torrents.incompleteBach – The Keyboard Album(1997)[FLAC]116 – Suite in F Minor, Bwv 823 – Iii. Gigue.wav

Peak level 44.5 %
Extraction speed 1.1 X
Track quality 99.8 %
Test CRC 842867BF
Copy CRC 842867BF
Accurately ripped (confidence 3) [9B965AFE] (AR v1)
Copy OK

Track 17

Filename X:torrents.incompleteBach – The Keyboard Album(1997)[FLAC]117 – Aria and Ten Variations in the Italian Style – Aria.wav

Pre-gap length 0:00:04.60

Peak level 45.1 %
Extraction speed 1.6 X
Track quality 100.0 %
Test CRC 2D6F4196
Copy CRC 2D6F4196
Accurately ripped (confidence 3) [DA97EF6C] (AR v1)
Copy OK

Track 18

Filename X:torrents.incompleteBach – The Keyboard Album(1997)[FLAC]118 – Aria and Ten Variations in the Italian Style – Variation I.wav

Peak level 66.8 %
Extraction speed 1.1 X
Track quality 99.8 %
Test CRC 02E4EDEF
Copy CRC 02E4EDEF
Accurately ripped (confidence 3) [0664C069] (AR v1)
Copy OK

Track 19

Filename X:torrents.incompleteBach – The Keyboard Album(1997)[FLAC]119 – Aria and Ten Variations in the Italian Style – Variation Ii.wav

Peak level 48.8 %
Extraction speed 1.3 X
Track quality 100.0 %
Test CRC C3A4DADA
Copy CRC C3A4DADA
Accurately ripped (confidence 3) [1005D57E] (AR v1)
Copy OK

Track 20

Filename X:torrents.incompleteBach – The Keyboard Album(1997)[FLAC]120 – Aria and Ten Variations in the Italian Style – Variation Iii.wav

Peak level 34.2 %
Extraction speed 1.5 X
Track quality 100.0 %
Test CRC 0F5C84CD
Copy CRC 0F5C84CD
Accurately ripped (confidence 3) [44C05AC7] (AR v1)
Copy OK

Track 21

Filename X:torrents.incompleteBach – The Keyboard Album(1997)[FLAC]121 – Aria and Ten Variations in the Italian Style – Variation Iv.wav

Peak level 45.7 %
Extraction speed 1.3 X
Track quality 100.0 %
Test CRC 4692EF19
Copy CRC 4692EF19
Accurately ripped (confidence 3) [42B0967C] (AR v1)
Copy OK

Track 22

Filename X:torrents.incompleteBach – The Keyboard Album(1997)[FLAC]122 – Aria and Ten Variations in the Italian Style – Variation V.wav

Peak level 29.0 %
Extraction speed 1.2 X
Track quality 99.8 %
Test CRC 99C357C7
Copy CRC 99C357C7
Accurately ripped (confidence 3) [AD3AC0D8] (AR v1)
Copy OK

Track 23

Filename X:torrents.incompleteBach – The Keyboard Album(1997)[FLAC]123 – Aria and Ten Variations in the Italian Style – Variation Vi.wav

Peak level 28.0 %
Extraction speed 1.6 X
Track quality 100.0 %
Test CRC 48E1C626
Copy CRC 48E1C626
Accurately ripped (confidence 3) [03530D98] (AR v1)
Copy OK

Track 24

Filename X:torrents.incompleteBach – The Keyboard Album(1997)[FLAC]124 – Aria and Ten Variations in the Italian Style – Variation Vii.wav

Peak level 65.9 %
Extraction speed 1.3 X
Track quality 100.0 %
Test CRC 6FF8AA00
Copy CRC 6FF8AA00
Accurately ripped (confidence 3) [83C8B384] (AR v1)
Copy OK

Track 25

Filename X:torrents.incompleteBach – The Keyboard Album(1997)[FLAC]125 – Aria and Ten Variations in the Italian Style – Variation Viii.wav

Peak level 81.9 %
Extraction speed 1.3 X
Track quality 100.0 %
Test CRC 3BF91AB1
Copy CRC 3BF91AB1
Accurately ripped (confidence 3) [08CE2692] (AR v1)
Copy OK

Track 26

Filename X:torrents.incompleteBach – The Keyboard Album(1997)[FLAC]126 – Aria and Ten Variations in the Italian Style – Variation Ix.wav

Peak level 80.9 %
Extraction speed 1.4 X
Track quality 100.0 %
Test CRC 70D762D7
Copy CRC 70D762D7
Accurately ripped (confidence 3) [CBCC310C] (AR v1)
Copy OK

Track 27

Filename X:torrents.incompleteBach – The Keyboard Album(1997)[FLAC]127 – Aria and Ten Variations in the Italian Style – Variation X.wav

Peak level 37.0 %
Extraction speed 1.9 X
Track quality 100.0 %
Test CRC 036635B5
Copy CRC 036635B5
Accurately ripped (confidence 3) [6E6A0884] (AR v1)
Copy OK

Track 28

Filename X:torrents.incompleteBach – The Keyboard Album(1997)[FLAC]128 – Suite in a Major, Bwv 824 – I. Allemande.wav

Pre-gap length 0:00:04.73

Peak level 77.7 %
Extraction speed 1.7 X
Track quality 99.9 %
Test CRC 9FA2C2DF
Copy CRC 9FA2C2DF
Accurately ripped (confidence 3) [6C068215] (AR v1)
Copy OK

Track 29

Filename X:torrents.incompleteBach – The Keyboard Album(1997)[FLAC]129 – Suite in a Major, Bwv 824 – Ii. Courante.wav

Peak level 39.8 %
Extraction speed 1.8 X
Track quality 100.0 %
Test CRC BA02284F
Copy CRC BA02284F
Accurately ripped (confidence 3) [0FE76D39] (AR v1)
Copy OK

Track 30

Filename X:torrents.incompleteBach – The Keyboard Album(1997)[FLAC]130 – Suite in a Major, Bwv 824 – Iii. Gigue.wav

Peak level 67.8 %
Extraction speed 2.1 X
Track quality 100.0 %
Test CRC 0DD4477A
Copy CRC 0DD4477A
Accurately ripped (confidence 3) [87745BC7] (AR v1)
Copy OK

Track 31

Filename X:torrents.incompleteBach – The Keyboard Album(1997)[FLAC]131 – Italian Concerto in F Major, Bwv 971 – I..wav

Pre-gap length 0:00:05.80

Peak level 58.6 %
Extraction speed 2.1 X
Track quality 100.0 %
Test CRC 422DE42A
Copy CRC 422DE42A
Accurately ripped (confidence 3) [8B358B84] (AR v1)
Copy OK

Track 32

Filename X:torrents.incompleteBach – The Keyboard Album(1997)[FLAC]132 – Italian Concerto in F Major, Bwv 971 – II. Andante.wav

Peak level 41.2 %
Extraction speed 2.3 X
Track quality 100.0 %
Test CRC 6579841E
Copy CRC 6579841E
Accurately ripped (confidence 3) [8C3C0275] (AR v1)
Copy OK

Track 33

Filename X:torrents.incompleteBach – The Keyboard Album(1997)[FLAC]133 – Italian Concerto in F Major, Bwv 971 – III. Presto.wav

Peak level 58.1 %
Extraction speed 2.2 X
Track quality 100.0 %
Test CRC 412883B6
Copy CRC 412883B6
Accurately ripped (confidence 3) [36B0273B] (AR v1)
Copy OK

All tracks accurately ripped

No errors occurred

End of status report

–– CUETools DB Plugin V2.1.3

[CTDB TOCID: rq7uFo2nACtDIacg5kESZYkPnXg-] disk not present in database, Submit result: rq7uFo2nACtDIacg5kESZYkPnXg- has been uploaded

==== Log checksum DD64725FC21CB15F4D6A4321C3BD24FC10031B89469B0CDFCA66F01C688EE614 ====

CUETools Log
[CUETools log; Date: 04.02.2017 11:05:00; Version: 2.1.5]
[CTDB TOCID: rq7uFo2nACtDIacg5kESZYkPnXg-] found.
Track | CTDB Status
1 | (6/6) Accurately ripped
2 | (6/6) Accurately ripped
3 | (6/6) Accurately ripped
4 | (6/6) Accurately ripped
5 | (6/6) Accurately ripped
6 | (6/6) Accurately ripped
7 | (6/6) Accurately ripped
8 | (6/6) Accurately ripped
9 | (6/6) Accurately ripped
10 | (6/6) Accurately ripped
11 | (6/6) Accurately ripped
12 | (6/6) Accurately ripped
13 | (6/6) Accurately ripped
14 | (6/6) Accurately ripped
15 | (6/6) Accurately ripped
16 | (6/6) Accurately ripped
17 | (6/6) Accurately ripped
18 | (6/6) Accurately ripped
19 | (6/6) Accurately ripped
20 | (6/6) Accurately ripped
21 | (6/6) Accurately ripped
22 | (6/6) Accurately ripped
23 | (6/6) Accurately ripped
24 | (6/6) Accurately ripped
25 | (6/6) Accurately ripped
26 | (6/6) Accurately ripped
27 | (6/6) Accurately ripped
28 | (6/6) Accurately ripped
29 | (6/6) Accurately ripped
30 | (6/6) Accurately ripped
31 | (6/6) Accurately ripped
32 | (6/6) Accurately ripped
33 | (6/6) Accurately ripped
[AccurateRip ID: 00409931-06037ba8-de0f6821] found.
Track [ CRC | V2 ] Status
01 [a92b81c8|36ad55c3] (3+2/5) Accurately ripped
02 [9bbb3ade|99982b86] (3+2/5) Accurately ripped
03 [8f22a314|3a1e6dbf] (3+2/5) Accurately ripped
04 [0ee8d1d8|4085bb48] (3+2/5) Accurately ripped
05 [a18ae789|ee4992db] (3+2/5) Accurately ripped
06 [1396ce16|7324d096] (3+2/5) Accurately ripped
07 [5956b233|9f61be70] (3+2/5) Accurately ripped
08 [84327b9d|72940da7] (3+2/5) Accurately ripped
09 [256df7bf|e041ce93] (3+2/5) Accurately ripped
10 [d513d5c9|19e6be64] (3+2/5) Accurately ripped
11 [a064effc|3e6b484f] (3+2/5) Accurately ripped
12 [ecbcedd4|99fb9918] (3+2/5) Accurately ripped
13 [0de3fb3e|decb671b] (3+2/5) Accurately ripped
14 [07d851dc|a1b91f17] (3+2/5) Accurately ripped
15 [5ec29e22|b544d380] (3+2/5) Accurately ripped
16 [9b965afe|60ae0666] (3+2/5) Accurately ripped
17 [da97ef6c|9b2b1637] (3+2/5) Accurately ripped
18 [0664c069|2143d5fc] (3+2/5) Accurately ripped
19 [1005d57e|a4721a97] (3+2/5) Accurately ripped
20 [44c05ac7|0f2593e8] (3+2/5) Accurately ripped
21 [42b0967c|48f41b4e] (3+2/5) Accurately ripped
22 [ad3ac0d8|5276654b] (3+2/5) Accurately ripped
23 [03530d98|585b4ecd] (3+2/5) Accurately ripped
24 [83c8b384|9a10caf5] (3+2/5) Accurately ripped
25 [08ce2692|6403ccfb] (3+2/5) Accurately ripped
26 [cbcc310c|5ecb669a] (3+2/5) Accurately ripped
27 [6e6a0884|9424d746] (3+2/5) Accurately ripped
28 [6c068215|bd0a87db] (3+2/5) Accurately ripped
29 [0fe76d39|b5adcbeb] (3+2/5) Accurately ripped
30 [87745bc7|7577b99a] (3+2/5) Accurately ripped
31 [8b358b84|e55eaa1a] (3+2/5) Accurately ripped
32 [8c3c0275|9f96e010] (3+2/5) Accurately ripped
33 [36b0273b|c5913e6d] (3+2/5) Accurately ripped

Track Peak [ CRC32 ] [W/O NULL] [ LOG ]
– 81,9 [AE761839] [1842D44E]
01 37,0 [3E2512E1] [98DECFF1] CRC32
02 29,2 [7AFE091E] [D5FCA198] CRC32
03 63,1 [07B20CB3] [AA301F47] CRC32
04 33,4 [A72D8FBF] [6A268AA2] CRC32
05 35,1 [6F44A309] [BBB0A7D7] CRC32
06 63,7 [B51E75BB] [293E01FE] CRC32
07 65,9 [06EE1240] [5576BEE3] CRC32
08 61,4 [3A1DB0FD] [72608D5A] CRC32
09 49,4 [265A4DC3] [32158D59] CRC32
10 38,1 [E03C0C26] [A6DBE5C2] CRC32
11 77,3 [10104DF0] [A938358D] CRC32
12 56,2 [C73B2370] [8AA8B466] CRC32
13 79,0 [57973FC1] [6FCA3D70] CRC32
14 44,5 [51ADD174] [887E4D5C] CRC32
15 50,2 [43041FBC] [8E24A30A] CRC32
16 44,5 [842867BF] [04F690C0] CRC32
17 45,1 [2D6F4196] [ED8E669B] CRC32
18 66,8 [02E4EDEF] [2CB35324] CRC32
19 48,8 [C3A4DADA] [91C7695E] CRC32
20 34,2 [0F5C84CD] [93565B25] CRC32
21 45,7 [4692EF19] [5D71AA67] CRC32
22 29,0 [99C357C7] [DF3B1FCB] CRC32
23 28,0 [48E1C626] [EE23B776] CRC32
24 65,9 [6FF8AA00] [4EAECF1A] CRC32
25 81,9 [3BF91AB1] [B5664FB7] CRC32
26 80,9 [70D762D7] [9C4D038B] CRC32
27 37,0 [036635B5] [8445BDEA] CRC32
28 77,7 [9FA2C2DF] [6C03F1BC] CRC32
29 39,8 [BA02284F] [B1CDA46E] CRC32
30 67,8 [0DD4477A] [5F330E36] CRC32
31 58,6 [422DE42A] [B6FB284A] CRC32
32 41,2 [6579841E] [2841974F] CRC32
33 58,1 [412883B6] [343DC00E] CRC32

CD 2:
The Art Of The Fugue, BWV 1080
01. Contrapunctus I (3:02)
02. Contrapunctus III (3:13)
03. Contrapunctus II (2:59)
04. Contrapunctus IV (4:15)
05. Contrapunctus V (5:24)
06. Contrapunctus VI in Stile francese (4:17)
07. Contrapunctus VII per Augmentationem et Diminutionem (2:34)
08. Contrapunctus X alla Decima (4:33)
09. Contrapunctus IX alla Duodecima (2:13)
10. Contrapunctus VIII a 3 (5:52)
11. Contrapunctus XI a 4 (6:12)
12. Contrapunctus XIII a 3 inversus (2:10)
13. Contrapunctus XIII a 3 rectus (2:15)
14. Contrapunctus XII a 4 rectus (2:14)
15. Contrapunctus XII a 4 inversus (2:22)
16. Canon in Hypodiapason (Canon alla Ottava) (1:52)
17. Canon [in Hypodiatessaron] per Augmentationem in Contrario Motu (4:09)
18. Canon alla Decima in Contrapunto alla Terza (3:56)
19. Canon alla Duodecima in Contrapunto alla Quinta (1:49)
20. Contrapunctus XIV [fragment] (9:04)

EAC Log
Exact Audio Copy V1.0 beta 3 from 29. August 2011

EAC extraction logfile from 10. December 2013, 6:14

Charles Rosen / Bach: The Keyboard Album Disc 2

Used drive : HL-DT-STDVDRAM GH22NS40 Adapter: 0 ID: 1

Read mode : Secure
Utilize accurate stream : Yes
Defeat audio cache : Yes
Make use of C2 pointers : No

Read offset correction : 667
Overread into Lead-In and Lead-Out : No
Fill up missing offset samples with silence : Yes
Delete leading and trailing silent blocks : No
Null samples used in CRC calculations : Yes
Used interface : Native Win32 interface for Win NT & 2000
Gap handling : Appended to previous track

Used output format : User Defined Encoder
Selected bitrate : 1024 kBit/s
Quality : High
Add ID3 tag : No
Command line compressor : C:Program Files (x86)Exact Audio CopyFLACFLAC.EXE
Additional command line options : -8 -V -T "ARTIST=%artist%" -T "TITLE=%title%" -T "ALBUM=%albumtitle%" -T "DATE=%year%" -T "TRACKNUMBER=%tracknr%" -T "GENRE=%genre%" -T "COMMENT=%comment%" -T "BAND=%albuminterpret%" -T "ALBUMARTIST=%albuminterpret%" -T "COMPOSER=%composer%" %haslyrics%–tag-from-file=LYRICS="%lyricsfile%"%haslyrics% -T "DISCNUMBER=%cdnumber%" -T "TOTALDISCS=%totalcds%" -T "TOTALTRACKS=%numtracks%" %hascover%–picture="%coverfile%"%hascover% %source% -o %dest%

TOC of the extracted CD

Track | Start | Length | Start sector | End sector
––––––––––––––––––––––––––––-
1 | 0:00.00 | 3:02.02 | 0 | 13651
2 | 3:02.02 | 3:13.18 | 13652 | 28144
3 | 6:15.20 | 2:59.32 | 28145 | 41601
4 | 9:14.52 | 4:14.48 | 41602 | 60699
5 | 13:29.25 | 5:23.70 | 60700 | 84994
6 | 18:53.20 | 4:16.45 | 84995 | 104239
7 | 23:09.65 | 2:33.60 | 104240 | 115774
8 | 25:43.50 | 4:32.70 | 115775 | 136244
9 | 30:16.45 | 2:12.65 | 136245 | 146209
10 | 32:29.35 | 5:51.55 | 146210 | 172589
11 | 38:21.15 | 6:11.42 | 172590 | 200456
12 | 44:32.57 | 2:09.68 | 200457 | 210199
13 | 46:42.50 | 2:14.65 | 210200 | 220314
14 | 48:57.40 | 2:13.47 | 220315 | 230336
15 | 51:11.12 | 2:21.65 | 230337 | 240976
16 | 53:33.02 | 1:52.15 | 240977 | 249391
17 | 55:25.17 | 4:09.28 | 249392 | 268094
18 | 59:34.45 | 3:55.50 | 268095 | 285769
19 | 63:30.20 | 1:48.52 | 285770 | 293921
20 | 65:18.72 | 9:04.33 | 293922 | 334754

Track 1

Filename X:torrents.incompleteBach – The Keyboard Album(1997)[FLAC]201 – The Art of Fugue, BWV 1080- I. Contrapunctus I.wav

Pre-gap length 0:00:02.00

Copy aborted

Track 2

Copy aborted

Track 3

Copy aborted

Track 4

Copy aborted

Track 5

Copy aborted

Track 6

Copy aborted

Track 7

Copy aborted

Track 8

Copy aborted

Track 9

Copy aborted

Track 10

Copy aborted

Track 11

Copy aborted

Track 12

Copy aborted

Track 13

Copy aborted

Track 14

Copy aborted

Track 15

Copy aborted

Track 16

Copy aborted

Track 17

Copy aborted

Track 18

Copy aborted

Track 19

Copy aborted

Track 20

Copy aborted

No tracks could be verified as accurate

There were errors

End of status report

==== Log checksum 8A68DCBBD0FB6A2877858F0F6634A8AB76D38E5BEE8F173387FD163D16EE8E54 ====

––––––––––––––––––––––––––––––

Exact Audio Copy V1.0 beta 3 from 29. August 2011

EAC extraction logfile from 10. December 2013, 9:16

Charles Rosen / Bach: The Keyboard Album Disc 2

Used drive : HL-DT-STDVDRAM GH22NS40 Adapter: 0 ID: 1

Read mode : Secure
Utilize accurate stream : Yes
Defeat audio cache : Yes
Make use of C2 pointers : No

Read offset correction : 667
Overread into Lead-In and Lead-Out : No
Fill up missing offset samples with silence : Yes
Delete leading and trailing silent blocks : No
Null samples used in CRC calculations : Yes
Used interface : Native Win32 interface for Win NT & 2000
Gap handling : Appended to previous track

Used output format : User Defined Encoder
Selected bitrate : 1024 kBit/s
Quality : High
Add ID3 tag : No
Command line compressor : C:Program Files (x86)Exact Audio CopyFLACFLAC.EXE
Additional command line options : -8 -V -T "ARTIST=%artist%" -T "TITLE=%title%" -T "ALBUM=%albumtitle%" -T "DATE=%year%" -T "TRACKNUMBER=%tracknr%" -T "GENRE=%genre%" -T "COMMENT=%comment%" -T "BAND=%albuminterpret%" -T "ALBUMARTIST=%albuminterpret%" -T "COMPOSER=%composer%" %haslyrics%–tag-from-file=LYRICS="%lyricsfile%"%haslyrics% -T "DISCNUMBER=%cdnumber%" -T "TOTALDISCS=%totalcds%" -T "TOTALTRACKS=%numtracks%" %hascover%–picture="%coverfile%"%hascover% %source% -o %dest%

TOC of the extracted CD

Track | Start | Length | Start sector | End sector
––––––––––––––––––––––––––––-
1 | 0:00.00 | 3:02.02 | 0 | 13651
2 | 3:02.02 | 3:13.18 | 13652 | 28144
3 | 6:15.20 | 2:59.32 | 28145 | 41601
4 | 9:14.52 | 4:14.48 | 41602 | 60699
5 | 13:29.25 | 5:23.70 | 60700 | 84994
6 | 18:53.20 | 4:16.45 | 84995 | 104239
7 | 23:09.65 | 2:33.60 | 104240 | 115774
8 | 25:43.50 | 4:32.70 | 115775 | 136244
9 | 30:16.45 | 2:12.65 | 136245 | 146209
10 | 32:29.35 | 5:51.55 | 146210 | 172589
11 | 38:21.15 | 6:11.42 | 172590 | 200456
12 | 44:32.57 | 2:09.68 | 200457 | 210199
13 | 46:42.50 | 2:14.65 | 210200 | 220314
14 | 48:57.40 | 2:13.47 | 220315 | 230336
15 | 51:11.12 | 2:21.65 | 230337 | 240976
16 | 53:33.02 | 1:52.15 | 240977 | 249391
17 | 55:25.17 | 4:09.28 | 249392 | 268094
18 | 59:34.45 | 3:55.50 | 268095 | 285769
19 | 63:30.20 | 1:48.52 | 285770 | 293921
20 | 65:18.72 | 9:04.33 | 293922 | 334754

Track 1

Filename X:torrents.incompleteBach – The Keyboard Album(1997)[FLAC]201 – The Art of Fugue, BWV 1080- Contrapunctus I.wav

Pre-gap length 0:00:02.00

Peak level 59.5 %
Extraction speed 1.1 X
Track quality 100.0 %
Test CRC AA34846D
Copy CRC AA34846D
Accurately ripped (confidence 3) [606621ED] (AR v1)
Copy OK

Track 2

Filename X:torrents.incompleteBach – The Keyboard Album(1997)[FLAC]202 – The Art of Fugue, BWV 1080- Contrapunctus II.wav

Peak level 58.9 %
Extraction speed 1.1 X
Track quality 100.0 %
Test CRC FBB275C2
Copy CRC FBB275C2
Accurately ripped (confidence 3) [6106F224] (AR v1)
Copy OK

Track 3

Filename X:torrents.incompleteBach – The Keyboard Album(1997)[FLAC]203 – The Art of Fugue, BWV 1080- Contrapunctus III.wav

Peak level 74.7 %
Extraction speed 1.2 X
Track quality 100.0 %
Test CRC 633FD216
Copy CRC 633FD216
Accurately ripped (confidence 3) [700483E9] (AR v1)
Copy OK

Track 4

Filename X:torrents.incompleteBach – The Keyboard Album(1997)[FLAC]204 – The Art of Fugue, BWV 1080- Contrapunctus IV.wav

Peak level 51.3 %
Extraction speed 0.9 X
Track quality 99.8 %
Test CRC 4A42ED7B
Copy CRC 4A42ED7B
Accurately ripped (confidence 3) [5410795D] (AR v1)
Copy OK

Track 5

Filename X:torrents.incompleteBach – The Keyboard Album(1997)[FLAC]205 – The Art of Fugue, BWV 1080- Contrapunctus V.wav

Peak level 44.1 %
Extraction speed 0.6 X
Track quality 99.6 %
Test CRC 28356CC3
Copy CRC 1B63E7AF
Cannot be verified as accurate (confidence 3) [4BD598E7], AccurateRip returned [E4CEDCB2] (AR v2)
Copy OK

Track 6

Filename X:torrents.incompleteBach – The Keyboard Album(1997)[FLAC]206 – The Art of Fugue, BWV 1080- Contrapunctus VI in Stile francese.wav

Peak level 93.1 %
Extraction speed 1.2 X
Track quality 99.9 %
Test CRC C3B883B1
Copy CRC BA649FEC
Cannot be verified as accurate (confidence 3) [952CDC76], AccurateRip returned [7447FE01] (AR v2)
Copy OK

Track 7

Filename X:torrents.incompleteBach – The Keyboard Album(1997)[FLAC]207 – The Art of Fugue, BWV 1080- Contrapunctus VII per Augmentationem et Diminutionem.wav

Peak level 70.7 %
Extraction speed 1.5 X
Track quality 100.0 %
Test CRC 6A0044E2
Copy CRC 6A0044E2
Accurately ripped (confidence 3) [6B21531F] (AR v1)
Copy OK

Track 8

Filename X:torrents.incompleteBach – The Keyboard Album(1997)[FLAC]208 – The Art of Fugue, BWV 1080- Contrapunctus X alla Decima.wav

Peak level 46.2 %
Extraction speed 1.7 X
Track quality 100.0 %
Test CRC 9D78F08F
Copy CRC 9D78F08F
Accurately ripped (confidence 3) [A3E8E6F4] (AR v1)
Copy OK

Track 9

Filename X:torrents.incompleteBach – The Keyboard Album(1997)[FLAC]209 – The Art of Fugue, BWV 1080- Contrapunctus IX alla Duodecima.wav

Peak level 66.7 %
Extraction speed 1.6 X
Track quality 100.0 %
Test CRC 1DEDDF25
Copy CRC 1DEDDF25
Accurately ripped (confidence 3) [0C6DE934] (AR v1)
Copy OK

Track 10

Filename X:torrents.incompleteBach – The Keyboard Album(1997)[FLAC]210 – The Art of Fugue, BWV 1080- Contrapunctus VIII a 3.wav

Peak level 65.7 %
Extraction speed 1.9 X
Track quality 100.0 %
Test CRC 24E646A4
Copy CRC 24E646A4
Accurately ripped (confidence 3) [5013BD36] (AR v1)
Copy OK

Track 11

Filename X:torrents.incompleteBach – The Keyboard Album(1997)[FLAC]211 – The Art of Fugue, BWV 1080- Contrapunctus XI a 4.wav

Peak level 99.4 %
Extraction speed 2.1 X
Track quality 100.0 %
Test CRC 0ADEE178
Copy CRC 0ADEE178
Accurately ripped (confidence 3) [30C09A00] (AR v1)
Copy OK

Track 12

Filename X:torrents.incompleteBach – The Keyboard Album(1997)[FLAC]212 – The Art of Fugue, BWV 1080- Contrapunctus XIII a 3 inversus.wav

Peak level 94.1 %
Extraction speed 1.8 X
Track quality 100.0 %
Test CRC 14D93CA9
Copy CRC 14D93CA9
Accurately ripped (confidence 3) [8CAEBE63] (AR v1)
Copy OK

Track 13

Filename X:torrents.incompleteBach – The Keyboard Album(1997)[FLAC]213 – The Art of Fugue, BWV 1080- Contrapunctus XIII a 3 rectus.wav

Peak level 100.0 %
Extraction speed 1.8 X
Track quality 100.0 %
Test CRC D460D57E
Copy CRC D460D57E
Accurately ripped (confidence 3) [37AE4B4C] (AR v1)
Copy OK

Track 14

Filename X:torrents.incompleteBach – The Keyboard Album(1997)[FLAC]214 – The Art of Fugue, BWV 1080- Contrapunctus XII a 4 rectus.wav

Peak level 63.3 %
Extraction speed 1.8 X
Track quality 100.0 %
Test CRC 477EC7BE
Copy CRC 477EC7BE
Accurately ripped (confidence 3) [51A9CF3F] (AR v1)
Copy OK

Track 15

Filename X:torrents.incompleteBach – The Keyboard Album(1997)[FLAC]215 – The Art of Fugue, BWV 1080- Contrapunctus XII a 4 inversus.wav

Peak level 59.3 %
Extraction speed 1.9 X
Track quality 100.0 %
Test CRC DA12FE9B
Copy CRC DA12FE9B
Accurately ripped (confidence 3) [4C4F63EE] (AR v1)
Copy OK

Track 16

Filename X:torrents.incompleteBach – The Keyboard Album(1997)[FLAC]216 – The Art of Fugue, BWV 1080- Canon in Hypodiapason (Canon alla Ottava).wav

Peak level 54.9 %
Extraction speed 1.4 X
Track quality 99.9 %
Test CRC E303CD49
Copy CRC E303CD49
Accurately ripped (confidence 3) [E18BCBD5] (AR v1)
Copy OK

Track 17

Filename X:torrents.incompleteBach – The Keyboard Album(1997)[FLAC]217 – The Art of Fugue, BWV 1080- Canon [in Hypodiatessaron] per Augmentationem in Contrario Motu.wav

Peak level 41.5 %
Extraction speed 2.2 X
Track quality 100.0 %
Test CRC E84FBE19
Copy CRC E84FBE19
Accurately ripped (confidence 3) [46C58D29] (AR v1)
Copy OK

Track 18

Filename X:torrents.incompleteBach – The Keyboard Album(1997)[FLAC]218 – The Art of Fugue, BWV 1080- Canon alla Decima in Contrapunto alla Terza.wav

Peak level 37.2 %
Extraction speed 2.2 X
Track quality 100.0 %
Test CRC 07933F7A
Copy CRC 07933F7A
Accurately ripped (confidence 3) [E46B1744] (AR v1)
Copy OK

Track 19

Filename X:torrents.incompleteBach – The Keyboard Album(1997)[FLAC]219 – The Art of Fugue, BWV 1080- Canon alla Duodecima in Contrapunto alla Quinta.wav

Peak level 72.5 %
Extraction speed 2.0 X
Track quality 100.0 %
Test CRC F50952A2
Copy CRC F50952A2
Accurately ripped (confidence 3) [0F3F691F] (AR v1)
Copy OK

Track 20

Filename X:torrents.incompleteBach – The Keyboard Album(1997)[FLAC]220 – The Art of Fugue, BWV 1080- Contrapunctus XIV [fragment].wav

Suspicious position 0:05:03
Suspicious position 0:05:15 – 0:05:16
Suspicious position 0:05:18
Suspicious position 0:05:28

Peak level 66.5 %
Extraction speed 0.2 X
Track quality 98.4 %
Test CRC C6A17DFA
Copy CRC 7B05AD76
Cannot be verified as accurate (confidence 3) [B6DB8D63], AccurateRip returned [641828B1] (AR v2)
Copy finished

17 track(s) accurately ripped
3 track(s) could not be verified as accurate

Some tracks could not be verified as accurate

There were errors

End of status report

–– CUETools DB Plugin V2.1.3

[CTDB TOCID: G_7g36ICOwShwRHw9u0YV5uzLH0-] disk not present in database, Submit result: insufficient quality

==== Log checksum 8F8F5EACE6E159640159CE96FCFD31541CD1D60DFF3BA89138DEE147A07300B3 ====

––––––––––––––––––––––––––––––

Exact Audio Copy V1.0 beta 3 from 29. August 2011

EAC extraction logfile from 10. December 2013, 10:44

Charles Rosen / Bach: The Keyboard Album Disc 2

Used drive : HL-DT-STBDDVDRW CH08LS10 Adapter: 0 ID: 3

Read mode : Secure
Utilize accurate stream : Yes
Defeat audio cache : Yes
Make use of C2 pointers : No

Read offset correction : 667
Overread into Lead-In and Lead-Out : No
Fill up missing offset samples with silence : Yes
Delete leading and trailing silent blocks : No
Null samples used in CRC calculations : Yes
Used interface : Native Win32 interface for Win NT & 2000
Gap handling : Appended to previous track

Used output format : User Defined Encoder
Selected bitrate : 1024 kBit/s
Quality : High
Add ID3 tag : No
Command line compressor : C:Program Files (x86)Exact Audio CopyFLACFLAC.EXE
Additional command line options : -8 -V -T "ARTIST=%artist%" -T "TITLE=%title%" -T "ALBUM=%albumtitle%" -T "DATE=%year%" -T "TRACKNUMBER=%tracknr%" -T "GENRE=%genre%" -T "COMMENT=%comment%" -T "BAND=%albuminterpret%" -T "ALBUMARTIST=%albuminterpret%" -T "COMPOSER=%composer%" %haslyrics%–tag-from-file=LYRICS="%lyricsfile%"%haslyrics% -T "DISCNUMBER=%cdnumber%" -T "TOTALDISCS=%totalcds%" -T "TOTALTRACKS=%numtracks%" %hascover%–picture="%coverfile%"%hascover% %source% -o %dest%

TOC of the extracted CD

Track | Start | Length | Start sector | End sector
––––––––––––––––––––––––––––-
1 | 0:00.00 | 3:02.02 | 0 | 13651
2 | 3:02.02 | 3:13.18 | 13652 | 28144
3 | 6:15.20 | 2:59.32 | 28145 | 41601
4 | 9:14.52 | 4:14.48 | 41602 | 60699
5 | 13:29.25 | 5:23.70 | 60700 | 84994
6 | 18:53.20 | 4:16.45 | 84995 | 104239
7 | 23:09.65 | 2:33.60 | 104240 | 115774
8 | 25:43.50 | 4:32.70 | 115775 | 136244
9 | 30:16.45 | 2:12.65 | 136245 | 146209
10 | 32:29.35 | 5:51.55 | 146210 | 172589
11 | 38:21.15 | 6:11.42 | 172590 | 200456
12 | 44:32.57 | 2:09.68 | 200457 | 210199
13 | 46:42.50 | 2:14.65 | 210200 | 220314
14 | 48:57.40 | 2:13.47 | 220315 | 230336
15 | 51:11.12 | 2:21.65 | 230337 | 240976
16 | 53:33.02 | 1:52.15 | 240977 | 249391
17 | 55:25.17 | 4:09.28 | 249392 | 268094
18 | 59:34.45 | 3:55.50 | 268095 | 285769
19 | 63:30.20 | 1:48.52 | 285770 | 293921
20 | 65:18.72 | 9:04.33 | 293922 | 334754

Track 5

Filename X:torrents.incompleteBach – The Keyboard Album(1997)[FLAC]205 – The Art of Fugue, BWV 1080- Contrapunctus V.wav

Peak level 44.1 %
Extraction speed 1.6 X
Track quality 100.0 %
Test CRC 28356CC3
Copy CRC 28356CC3
Accurately ripped (confidence 3) [E4CEDCB2] (AR v1)
Copy OK

Track 6

Filename X:torrents.incompleteBach – The Keyboard Album(1997)[FLAC]206 – The Art of Fugue, BWV 1080- Contrapunctus VI in Stile francese.wav

Peak level 93.1 %
Extraction speed 1.5 X
Track quality 99.9 %
Test CRC E1F25138
Copy CRC E1F25138
Accurately ripped (confidence 3) [7447FE01] (AR v1)
Copy OK

Track 20

Filename X:torrents.incompleteBach – The Keyboard Album(1997)[FLAC]220 – The Art of Fugue, BWV 1080- Contrapunctus XIV [fragment].wav

Peak level 66.5 %
Extraction speed 2.4 X
Track quality 99.9 %
Test CRC 49B9AE7C
Copy CRC 49B9AE7C
Accurately ripped (confidence 3) [641828B1] (AR v1)
Copy OK

All tracks accurately ripped

No errors occurred

End of status report

==== Log checksum F67A34BE31FC055CDA13083A543F779587F1FEB39060DB3AB1A3861DDC5630A4 ====

––––––––––––––––––––––––––––––

Exact Audio Copy V1.0 beta 3 from 29. August 2011

EAC extraction logfile from 10. December 2013, 14:03

Charles Rosen / Bach: The Keyboard Album Disc 2

Used drive : HL-DT-STBDDVDRW CH08LS10 Adapter: 0 ID: 3

Read mode : Secure
Utilize accurate stream : Yes
Defeat audio cache : Yes
Make use of C2 pointers : No

Read offset correction : 667
Overread into Lead-In and Lead-Out : No
Fill up missing offset samples with silence : Yes
Delete leading and trailing silent blocks : No
Null samples used in CRC calculations : Yes
Used interface : Native Win32 interface for Win NT & 2000
Gap handling : Appended to previous track

Used output format : User Defined Encoder
Selected bitrate : 1024 kBit/s
Quality : High
Add ID3 tag : No
Command line compressor : C:Program Files (x86)Exact Audio CopyFLACFLAC.EXE
Additional command line options : -8 -V -T "ARTIST=%artist%" -T "TITLE=%title%" -T "ALBUM=%albumtitle%" -T "DATE=%year%" -T "TRACKNUMBER=%tracknr%" -T "GENRE=%genre%" -T "COMMENT=%comment%" -T "BAND=%albuminterpret%" -T "ALBUMARTIST=%albuminterpret%" -T "COMPOSER=%composer%" %haslyrics%–tag-from-file=LYRICS="%lyricsfile%"%haslyrics% -T "DISCNUMBER=%cdnumber%" -T "TOTALDISCS=%totalcds%" -T "TOTALTRACKS=%numtracks%" %hascover%–picture="%coverfile%"%hascover% %source% -o %dest%

TOC of the extracted CD

Track | Start | Length | Start sector | End sector
––––––––––––––––––––––––––––-
1 | 0:00.00 | 3:02.02 | 0 | 13651
2 | 3:02.02 | 3:13.18 | 13652 | 28144
3 | 6:15.20 | 2:59.32 | 28145 | 41601
4 | 9:14.52 | 4:14.48 | 41602 | 60699
5 | 13:29.25 | 5:23.70 | 60700 | 84994
6 | 18:53.20 | 4:16.45 | 84995 | 104239
7 | 23:09.65 | 2:33.60 | 104240 | 115774
8 | 25:43.50 | 4:32.70 | 115775 | 136244
9 | 30:16.45 | 2:12.65 | 136245 | 146209
10 | 32:29.35 | 5:51.55 | 146210 | 172589
11 | 38:21.15 | 6:11.42 | 172590 | 200456
12 | 44:32.57 | 2:09.68 | 200457 | 210199
13 | 46:42.50 | 2:14.65 | 210200 | 220314
14 | 48:57.40 | 2:13.47 | 220315 | 230336
15 | 51:11.12 | 2:21.65 | 230337 | 240976
16 | 53:33.02 | 1:52.15 | 240977 | 249391
17 | 55:25.17 | 4:09.28 | 249392 | 268094
18 | 59:34.45 | 3:55.50 | 268095 | 285769
19 | 63:30.20 | 1:48.52 | 285770 | 293921
20 | 65:18.72 | 9:04.33 | 293922 | 334754

Track 1

Filename X:torrents.incompleteBach – The Keyboard Album(1997)[FLAC]201 – The Art of Fugue, BWV 1080- Contrapunctus I.wav

Pre-gap length 0:00:02.00

Peak level 59.5 %
Extraction speed 1.1 X
Track quality 100.0 %
Test CRC AA34846D
Copy CRC AA34846D
Accurately ripped (confidence 3) [606621ED] (AR v1)
Copy OK

Track 2

Filename X:torrents.incompleteBach – The Keyboard Album(1997)[FLAC]202 – The Art of Fugue, BWV 1080- Contrapunctus III.wav

Peak level 58.9 %
Extraction speed 1.2 X
Track quality 100.0 %
Test CRC FBB275C2
Copy CRC FBB275C2
Accurately ripped (confidence 3) [6106F224] (AR v1)
Copy OK

Track 3

Filename X:torrents.incompleteBach – The Keyboard Album(1997)[FLAC]203 – The Art of Fugue, BWV 1080- Contrapunctus II.wav

Peak level 74.7 %
Extraction speed 1.3 X
Track quality 100.0 %
Test CRC 633FD216
Copy CRC 633FD216
Accurately ripped (confidence 3) [700483E9] (AR v1)
Copy OK

Track 4

Filename X:torrents.incompleteBach – The Keyboard Album(1997)[FLAC]204 – The Art of Fugue, BWV 1080- Contrapunctus IV.wav

Peak level 51.3 %
Extraction speed 1.3 X
Track quality 99.9 %
Test CRC 4A42ED7B
Copy CRC 4A42ED7B
Accurately ripped (confidence 3) [5410795D] (AR v1)
Copy OK

Track 5

Filename X:torrents.incompleteBach – The Keyboard Album(1997)[FLAC]205 – The Art of Fugue, BWV 1080- Contrapunctus V.wav

Peak level 44.1 %
Extraction speed 1.6 X
Track quality 100.0 %
Test CRC 28356CC3
Copy CRC 28356CC3
Accurately ripped (confidence 3) [E4CEDCB2] (AR v1)
Copy OK

Track 6

Filename X:torrents.incompleteBach – The Keyboard Album(1997)[FLAC]206 – The Art of Fugue, BWV 1080- Contrapunctus VI in Stile francese.wav

Peak level 93.1 %
Extraction speed 1.5 X
Track quality 99.9 %
Test CRC E1F25138
Copy CRC E1F25138
Accurately ripped (confidence 3) [7447FE01] (AR v1)
Copy OK

Track 7

Filename X:torrents.incompleteBach – The Keyboard Album(1997)[FLAC]207 – The Art of Fugue, BWV 1080- Contrapunctus VII per Augmentationem et Diminutionem.wav

Peak level 70.7 %
Extraction speed 1.6 X
Track quality 100.0 %
Test CRC 6A0044E2
Copy CRC 6A0044E2
Accurately ripped (confidence 3) [6B21531F] (AR v1)
Copy OK

Track 8

Filename X:torrents.incompleteBach – The Keyboard Album(1997)[FLAC]208 – The Art of Fugue, BWV 1080- Contrapunctus X alla Decima.wav

Peak level 46.2 %
Extraction speed 1.8 X
Track quality 100.0 %
Test CRC 9D78F08F
Copy CRC 9D78F08F
Accurately ripped (confidence 3) [A3E8E6F4] (AR v1)
Copy OK

Track 9

Filename X:torrents.incompleteBach – The Keyboard Album(1997)[FLAC]209 – The Art of Fugue, BWV 1080- Contrapunctus IX alla Duodecima.wav

Peak level 66.7 %
Extraction speed 1.7 X
Track quality 100.0 %
Test CRC 1DEDDF25
Copy CRC 1DEDDF25
Accurately ripped (confidence 3) [0C6DE934] (AR v1)
Copy OK

Track 10

Filename X:torrents.incompleteBach – The Keyboard Album(1997)[FLAC]210 – The Art of Fugue, BWV 1080- Contrapunctus VIII a 3.wav

Peak level 65.7 %
Extraction speed 2.0 X
Track quality 100.0 %
Test CRC 24E646A4
Copy CRC 24E646A4
Accurately ripped (confidence 3) [5013BD36] (AR v1)
Copy OK

Track 11

Filename X:torrents.incompleteBach – The Keyboard Album(1997)[FLAC]211 – The Art of Fugue, BWV 1080- Contrapunctus XI a 4.wav

Peak level 99.4 %
Extraction speed 2.2 X
Track quality 100.0 %
Test CRC 0ADEE178
Copy CRC 0ADEE178
Accurately ripped (confidence 3) [30C09A00] (AR v1)
Copy OK

Track 12

Filename X:torrents.incompleteBach – The Keyboard Album(1997)[FLAC]212 – The Art of Fugue, BWV 1080- Contrapunctus XIII a 3 inversus.wav

Peak level 94.1 %
Extraction speed 1.9 X
Track quality 100.0 %
Test CRC 14D93CA9
Copy CRC 14D93CA9
Accurately ripped (confidence 3) [8CAEBE63] (AR v1)
Copy OK

Track 13

Filename X:torrents.incompleteBach – The Keyboard Album(1997)[FLAC]213 – The Art of Fugue, BWV 1080- Contrapunctus XIII a 3 rectus.wav

Peak level 100.0 %
Extraction speed 1.9 X
Track quality 100.0 %
Test CRC D460D57E
Copy CRC D460D57E
Accurately ripped (confidence 3) [37AE4B4C] (AR v1)
Copy OK

Track 14

Filename X:torrents.incompleteBach – The Keyboard Album(1997)[FLAC]214 – The Art of Fugue, BWV 1080- Contrapunctus XII a 4 rectus.wav

Peak level 63.3 %
Extraction speed 2.0 X
Track quality 100.0 %
Test CRC 477EC7BE
Copy CRC 477EC7BE
Accurately ripped (confidence 3) [51A9CF3F] (AR v1)
Copy OK

Track 15

Filename X:torrents.incompleteBach – The Keyboard Album(1997)[FLAC]215 – The Art of Fugue, BWV 1080- Contrapunctus XII a 4 inversus.wav

Peak level 59.3 %
Extraction speed 2.0 X
Track quality 100.0 %
Test CRC DA12FE9B
Copy CRC DA12FE9B
Accurately ripped (confidence 3) [4C4F63EE] (AR v1)
Copy OK

Track 16

Filename X:torrents.incompleteBach – The Keyboard Album(1997)[FLAC]216 – The Art of Fugue, BWV 1080- Canon in Hypodiapason (Canon alla Ottava).wav

Peak level 54.9 %
Extraction speed 1.6 X
Track quality 99.9 %
Test CRC E303CD49
Copy CRC E303CD49
Accurately ripped (confidence 3) [E18BCBD5] (AR v1)
Copy OK

Track 17

Filename X:torrents.incompleteBach – The Keyboard Album(1997)[FLAC]217 – The Art of Fugue, BWV 1080- Canon [in Hypodiatessaron] per Augmentationem in Contrario Motu.wav

Peak level 41.5 %
Extraction speed 2.3 X
Track quality 100.0 %
Test CRC E84FBE19
Copy CRC E84FBE19
Accurately ripped (confidence 3) [46C58D29] (AR v1)
Copy OK

Track 18

Filename X:torrents.incompleteBach – The Keyboard Album(1997)[FLAC]218 – The Art of Fugue, BWV 1080- Canon alla Decima in Contrapunto alla Terza.wav

Peak level 37.2 %
Extraction speed 2.3 X
Track quality 100.0 %
Test CRC 07933F7A
Copy CRC 07933F7A
Accurately ripped (confidence 3) [E46B1744] (AR v1)
Copy OK

Track 19

Filename X:torrents.incompleteBach – The Keyboard Album(1997)[FLAC]219 – The Art of Fugue, BWV 1080- Canon alla Duodecima in Contrapunto alla Quinta.wav

Peak level 72.5 %
Extraction speed 1.9 X
Track quality 100.0 %
Test CRC F50952A2
Copy CRC F50952A2
Accurately ripped (confidence 3) [0F3F691F] (AR v1)
Copy OK

Track 20

Filename X:torrents.incompleteBach – The Keyboard Album(1997)[FLAC]220 – The Art of Fugue, BWV 1080- Contrapunctus XIV [fragment].wav

Peak level 66.5 %
Extraction speed 2.6 X
Track quality 100.0 %
Test CRC 49B9AE7C
Copy CRC 49B9AE7C
Accurately ripped (confidence 3) [641828B1] (AR v1)
Copy OK

All tracks accurately ripped

No errors occurred

End of status report

–– CUETools DB Plugin V2.1.3

[CTDB TOCID: G_7g36ICOwShwRHw9u0YV5uzLH0-] disk not present in database, Submit result: database access error: The operation has timed out

==== Log checksum 05300BF858741E88E92DCDC933D1B243AE3B9B22AF76721CF5369729658EE363 ====

CUETools Log
[CUETools log; Date: 04.02.2017 11:06:51; Version: 2.1.5]
[CTDB TOCID: G_7g36ICOwShwRHw9u0YV5uzLH0-] found.
Track | CTDB Status
1 | (5/5) Accurately ripped
2 | (5/5) Accurately ripped
3 | (5/5) Accurately ripped
4 | (5/5) Accurately ripped
5 | (5/5) Accurately ripped
6 | (5/5) Accurately ripped
7 | (5/5) Accurately ripped
8 | (5/5) Accurately ripped
9 | (5/5) Accurately ripped
10 | (5/5) Accurately ripped
11 | (5/5) Accurately ripped
12 | (5/5) Accurately ripped
13 | (5/5) Accurately ripped
14 | (5/5) Accurately ripped
15 | (5/5) Accurately ripped
16 | (5/5) Accurately ripped
17 | (5/5) Accurately ripped
18 | (5/5) Accurately ripped
19 | (5/5) Accurately ripped
20 | (5/5) Accurately ripped
[AccurateRip ID: 00347726-02ff1235-1c116f14] found.
Track [ CRC | V2 ] Status
01 [606621ed|01378d84] (3+2/5) Accurately ripped
02 [6106f224|caca98a2] (3+2/5) Accurately ripped
03 [700483e9|641bfd80] (3+2/5) Accurately ripped
04 [5410795d|214b82b8] (3+2/5) Accurately ripped
05 [e4cedcb2|e28e9aa6] (3+2/5) Accurately ripped
06 [7447fe01|a7a2ae30] (3+2/5) Accurately ripped
07 [6b21531f|75962639] (3+2/5) Accurately ripped
08 [a3e8e6f4|f7536bd4] (3+2/5) Accurately ripped
09 [0c6de934|3ba78e53] (3+2/5) Accurately ripped
10 [5013bd36|b6e5aff7] (3+2/5) Accurately ripped
11 [30c09a00|17ae2b17] (3+2/5) Accurately ripped
12 [8caebe63|a802a496] (3+2/5) Accurately ripped
13 [37ae4b4c|f3b4168d] (3+2/5) Accurately ripped
14 [51a9cf3f|4b566511] (3+2/5) Accurately ripped
15 [4c4f63ee|e6f0be25] (3+2/5) Accurately ripped
16 [e18bcbd5|2141b5ee] (3+2/5) Accurately ripped
17 [46c58d29|ccf161a9] (3+2/5) Accurately ripped
18 [e46b1744|1c9be918] (3+2/5) Accurately ripped
19 [0f3f691f|f510d1d2] (3+2/5) Accurately ripped
20 [641828b1|a7bfd7fe] (3+2/5) Accurately ripped

Track Peak [ CRC32 ] [W/O NULL] [ LOG ]
– 100,0 [2271E930] [C3116CC7]
01 59,5 [AA34846D] [28C420B4] CRC32
02 58,9 [FBB275C2] [1A62F6F8] CRC32
03 74,7 [633FD216] [A1B252BE] CRC32
04 51,3 [4A42ED7B] [D5E44D4F] CRC32
05 44,1 [28356CC3] [FD9283A0] [1B63E7AF]
06 93,1 [E1F25138] [9CD22246] [BA649FEC]
07 70,7 [6A0044E2] [CA5B4BD8] CRC32
08 46,2 [9D78F08F] [126B3C3C] CRC32
09 66,7 [1DEDDF25] [DC4ADAF2] CRC32
10 65,7 [24E646A4] [C0B8B7EC] CRC32
11 99,4 [0ADEE178] [938D6DF7] CRC32
12 94,1 [14D93CA9] [07B5D8EE] CRC32
13 100,0 [D460D57E] [3DD5384A] CRC32
14 63,3 [477EC7BE] [52413C48] CRC32
15 59,3 [DA12FE9B] [754DE481] CRC32
16 54,9 [E303CD49] [FC1F13AE] CRC32
17 41,5 [E84FBE19] [FA2391C5] CRC32
18 37,2 [07933F7A] [78D73C91] CRC32
19 72,5 [F50952A2] [5DBBCB45] CRC32
20 66,5 [49B9AE7C] [BB252AD1] [7B05AD76]

Performers:
Rosalyn Tureck (1.1–1.33),
Charles Rosen (2.1–2.20)

Thanks to the Original ripper (unknown)!

Download:

Rosalyn Tureck, Charles Rosen – J.S. Bach: The Keyboard Album (featuring The Italian Concerto and The Art of Fugue) (1997) Download, Warez, DDL, Free, Full Album, Torrent, Legal.

Download