Rory Gallagher – Live! In Europe & Stage Struck (1989)

Download
Rory Gallagher - Live! In Europe & Stage Struck (1989)

Rory Gallagher – Live! In Europe & Stage Struck (1989)
2CD | EAC Rip | FLAC (Img) + Cue + Log ~ 545 Mb | MP3 CBR320 ~ 207 Mb
Full Scans (JPG, 600 dpi) ~ 34 Mb | RAR 5% Recovery
Blues Rock, Classic Rock | Intercord #INT 855.066

The live album Live in Europe/Stage Struck captures Rory Gallagher at his finest, as he tears his way through many of his very best songs. Though the performance quality is a little uneven, there are gems scattered throughout the record, including smoking versions of "Messin’ with the Kid" and "Laundromat."

Official Website | Wiki | Discogs | All Music

***************

Rory Gallagher - Live! In Europe & Stage Struck (1989)

Rory Gallagher - Live! In Europe & Stage Struck (1989)

Track List CD1 Live! In Europe (1972):

01. Messin’ With The Kid [6:25]
02. Laundromat [5:08]
03. I Could’ve Had Religion [8:39]
04. Pistol Slapper Blues [2:55]
05. Going To My Hometown [6:14]
06. In Your Town [9:49]
07. Bullfrog Blues [6:47]

EAC Log
Exact Audio Copy V1.3 from 2. September 2016

EAC extraction logfile from 25. July 2017, 21:32

Rory Gallagher / Live! In Europe

Used drive : TSSTcorpCDDVDW TS-L633B Adapter: 1 ID: 0

Read mode : Secure
Utilize accurate stream : Yes
Defeat audio cache : Yes
Make use of C2 pointers : No

Read offset correction : 6
Overread into Lead-In and Lead-Out : No
Fill up missing offset samples with silence : Yes
Delete leading and trailing silent blocks : No
Null samples used in CRC calculations : Yes
Used interface : Native Win32 interface for Win NT & 2000

Used output format : Internal WAV Routines
Sample format : 44.100 Hz; 16 Bit; Stereo

TOC of the extracted CD

Track | Start | Length | Start sector | End sector
––––––––––––––––––––––––––––-
1 | 0:00.00 | 6:25.35 | 0 | 28909
2 | 6:25.35 | 5:07.40 | 28910 | 51974
3 | 11:33.00 | 8:39.37 | 51975 | 90936
4 | 20:12.37 | 2:55.13 | 90937 | 104074
5 | 23:07.50 | 6:14.35 | 104075 | 132159
6 | 29:22.10 | 9:48.55 | 132160 | 176314
7 | 39:10.65 | 6:47.20 | 176315 | 206859

Range status and errors

Selected range

Filename F:AlexharveyRory Gallagher – Live! In Europe.wav

Peak level 88.2 %
Extraction speed 2.6 X
Range quality 100.0 %
Test CRC D7A758A4
Copy CRC D7A758A4
Copy OK

No errors occurred

AccurateRip summary

Track 1 accurately ripped (confidence 5) [FCC266DD] (AR v2)
Track 2 accurately ripped (confidence 5) [3D1464CD] (AR v2)
Track 3 accurately ripped (confidence 4) [8F9E6A98] (AR v2)
Track 4 accurately ripped (confidence 5) [E83D1005] (AR v2)
Track 5 accurately ripped (confidence 5) [4C79E025] (AR v2)
Track 6 accurately ripped (confidence 5) [09A7F74D] (AR v2)
Track 7 accurately ripped (confidence 5) [CFE589A4] (AR v2)

All tracks accurately ripped

End of status report

–– CUETools DB Plugin V2.1.6

[CTDB TOCID: QXKF3yciideNgEisWSSi5xCIgBI-] found
Submit result: QXKF3yciideNgEisWSSi5xCIgBI- has been confirmed
Track | CTDB Status
1 | (43/43) Accurately ripped
2 | (43/43) Accurately ripped
3 | (43/43) Accurately ripped
4 | (42/43) Accurately ripped
5 | (42/43) Accurately ripped
6 | (38/43) Accurately ripped
7 | (36/43) Accurately ripped

==== Log checksum 35FF2F1125A956A21050AA4A128697BE13E48B0727E2A088335B7E8C0C1F90FD ====

DR Log
foobar2000 1.2.6 / Dynamic Range Meter 1.1.1
log date: 2017-07-27 22:07:39

––––––––––––––––––––––––––––––––––––––––
Analyzed: Rory Gallagher / Live! In Europe
––––––––––––––––––––––––––––––––––––––––

DR Peak RMS Duration Track
––––––––––––––––––––––––––––––––––––––––
DR12 -2.98 dB -17.72 dB 6:25 01-Messin’ With The Kid
DR11 -1.08 dB -14.48 dB 5:08 02-Laundromat
DR14 -1.10 dB -18.53 dB 8:39 03-I Could’ve Had Religion
DR15 -4.57 dB -25.35 dB 2:55 04-Pistol Slapper Blues
DR14 -3.65 dB -21.50 dB 6:14 05-Going To My Hometown
DR12 -1.13 dB -15.28 dB 9:49 06-In Your Town
DR11 -1.12 dB -14.33 dB 6:47 07-Bullfrog Blues
––––––––––––––––––––––––––––––––––––––––

Number of tracks: 7
Official DR value: DR13

Samplerate: 44100 Hz
Channels: 2
Bits per sample: 16
Bitrate: 823 kbps
Codec: FLAC
================================================================================

CUETools Log
[CUETools log; Date: 27.07.2017 22:06:39; Version: 2.1.5]
[CTDB TOCID: QXKF3yciideNgEisWSSi5xCIgBI-] found.
Track | CTDB Status
1 | (44/44) Accurately ripped
2 | (44/44) Accurately ripped
3 | (44/44) Accurately ripped
4 | (43/44) Accurately ripped
5 | (43/44) Accurately ripped
6 | (39/44) Accurately ripped
7 | (37/44) Accurately ripped
[AccurateRip ID: 000c12c0-0048ef8a-630ac607] found.
Track [ CRC | V2 ] Status
01 [b81f3596|fcc266dd] (04+05/27) Accurately ripped
02 [53420d3b|3d1464cd] (04+05/25) Accurately ripped
03 [989a8af8|8f9e6a98] (04+04/24) Accurately ripped
04 [7db7b27e|e83d1005] (04+05/26) Accurately ripped
05 [6a965747|4c79e025] (04+05/25) Accurately ripped
06 [79e4e6de|09a7f74d] (04+05/23) Accurately ripped
07 [eadd113e|cfe589a4] (04+05/23) Accurately ripped
Offsetted by 248:
01 [4a3ea9f7] (06/27) Accurately ripped
02 [1fb4abb7] (04/25) Accurately ripped
03 [d34946fb] (04/24) Accurately ripped
04 [e12a6336] (06/26) Accurately ripped
05 [3a9a809d] (06/25) Accurately ripped
06 [3fe37692] (04/23) Accurately ripped
07 [bc0a0afe] (03/23) Accurately ripped

Track Peak [ CRC32 ] [W/O NULL] [ LOG ]
– 88,2 [D7A758A4] [20A8FD95] CRC32
01 70,9 [6DDE53BE] [00AD7A4A]
02 88,2 [EE027C41] [2C169F5D]
03 88,1 [CB3B02B7] [4D6400F1]
04 59,0 [277E11C4] [9FCC5699]
05 65,7 [A32CEF5C] [870FBF82]
06 87,8 [E73D664F] [F024035F]
07 87,9 [11D0C887] [EF2AE9DF]

Rory Gallagher - Live! In Europe & Stage Struck (1989)

Rory Gallagher - Live! In Europe & Stage Struck (1989)

Track List CD2 Stage Struck (1980):

01. Shinkicker [3:58]
02. Wayward Child [4:32]
03. Brute Force and Ignorance [4:13]
04. Moonchild [6:08]
05. Follow Me [6:02]
06. Bought and Sold [4:39]
07. The Last of the Independants [5:39]
08. Shadow Play [5:06]

EAC Log
Exact Audio Copy V1.3 from 2. September 2016

EAC extraction logfile from 25. July 2017, 22:12

Rory Gallagher / Stage Struck

Used drive : TSSTcorpCDDVDW TS-L633B Adapter: 1 ID: 0

Read mode : Secure
Utilize accurate stream : Yes
Defeat audio cache : Yes
Make use of C2 pointers : No

Read offset correction : 6
Overread into Lead-In and Lead-Out : No
Fill up missing offset samples with silence : Yes
Delete leading and trailing silent blocks : No
Null samples used in CRC calculations : Yes
Used interface : Native Win32 interface for Win NT & 2000

Used output format : Internal WAV Routines
Sample format : 44.100 Hz; 16 Bit; Stereo

TOC of the extracted CD

Track | Start | Length | Start sector | End sector
––––––––––––––––––––––––––––-
1 | 0:00.00 | 3:58.25 | 0 | 17874
2 | 3:58.25 | 4:31.62 | 17875 | 38261
3 | 8:30.12 | 4:13.05 | 38262 | 57241
4 | 12:43.17 | 6:08.33 | 57242 | 84874
5 | 18:51.50 | 6:01.62 | 84875 | 112011
6 | 24:53.37 | 4:38.50 | 112012 | 132911
7 | 29:32.12 | 5:39.25 | 132912 | 158361
8 | 35:11.37 | 5:06.25 | 158362 | 181336

Range status and errors

Selected range

Filename F:AlexharveyRory Gallagher – Stage Struck.wav

Peak level 97.7 %
Extraction speed 2.6 X
Range quality 100.0 %
Test CRC 54CDFEC2
Copy CRC 54CDFEC2
Copy OK

No errors occurred

AccurateRip summary

Track 1 accurately ripped (confidence 5) [AAA76ACE] (AR v2)
Track 2 accurately ripped (confidence 5) [4562947D] (AR v2)
Track 3 accurately ripped (confidence 5) [969D253A] (AR v2)
Track 4 accurately ripped (confidence 5) [821A4269] (AR v2)
Track 5 accurately ripped (confidence 5) [3935780E] (AR v2)
Track 6 accurately ripped (confidence 5) [025D11FF] (AR v2)
Track 7 accurately ripped (confidence 5) [70DDCA87] (AR v2)
Track 8 accurately ripped (confidence 5) [23B58DAE] (AR v2)

All tracks accurately ripped

End of status report

–– CUETools DB Plugin V2.1.6

[CTDB TOCID: spZt9Byw29ozQCpzfmFBMTuEPII-] found
Submit result: spZt9Byw29ozQCpzfmFBMTuEPII- has been confirmed
Track | CTDB Status
1 | (43/43) Accurately ripped
2 | (43/43) Accurately ripped
3 | (43/43) Accurately ripped
4 | (43/43) Accurately ripped
5 | (43/43) Accurately ripped
6 | (43/43) Accurately ripped
7 | (43/43) Accurately ripped
8 | (42/43) Accurately ripped

==== Log checksum 0AF9BF6F54D709C9AECD8D1D1B9C3E5BE1E4B07C22F036538702E1EFC6D56489 ====

DR Log
foobar2000 1.2.6 / Dynamic Range Meter 1.1.1
log date: 2017-07-27 22:08:09

––––––––––––––––––––––––––––––––––––––––
Analyzed: Rory Gallagher / Stage Struck
––––––––––––––––––––––––––––––––––––––––

DR Peak RMS Duration Track
––––––––––––––––––––––––––––––––––––––––
DR13 -1.01 dB -15.60 dB 3:58 01-Shinkicker
DR12 -1.08 dB -14.13 dB 4:32 02-Wayward Child
DR12 -1.55 dB -14.84 dB 4:13 03-Brute Force and Ignorance
DR11 -0.26 dB -12.74 dB 6:08 04-Moonchild
DR12 -2.16 dB -14.86 dB 6:02 05-Follow Me
DR14 -0.20 dB -15.50 dB 4:39 06-Bought and Sold
DR12 -2.69 dB -16.19 dB 5:39 07-The Last of the Independants
DR12 -1.84 dB -15.66 dB 5:06 08-Shadow Play
––––––––––––––––––––––––––––––––––––––––

Number of tracks: 8
Official DR value: DR12

Samplerate: 44100 Hz
Channels: 2
Bits per sample: 16
Bitrate: 859 kbps
Codec: FLAC
================================================================================

CUETools Log
[CUETools log; Date: 27.07.2017 22:07:51; Version: 2.1.5]
[CTDB TOCID: spZt9Byw29ozQCpzfmFBMTuEPII-] found.
Track | CTDB Status
1 | (44/44) Accurately ripped
2 | (44/44) Accurately ripped
3 | (44/44) Accurately ripped
4 | (44/44) Accurately ripped
5 | (44/44) Accurately ripped
6 | (44/44) Accurately ripped
7 | (44/44) Accurately ripped
8 | (43/44) Accurately ripped
[AccurateRip ID: 000bf21d-0050f3b1-57097108] found.
Track [ CRC | V2 ] Status
01 [a9e086f7|aaa76ace] (05+05/30) Accurately ripped
02 [89cfbff4|4562947d] (05+05/30) Accurately ripped
03 [72f87d4d|969d253a] (05+05/30) Accurately ripped
04 [56c102c3|821a4269] (05+05/30) Accurately ripped
05 [a1704468|3935780e] (04+05/29) Accurately ripped
06 [bca313fc|025d11ff] (05+05/30) Accurately ripped
07 [98fc1ae4|70ddca87] (05+05/30) Accurately ripped
08 [0938887a|23b58dae] (05+05/29) Accurately ripped
Offsetted by -58:
01 [507e9594] (07/30) Accurately ripped
02 [f3f6ba3c] (07/30) Accurately ripped
03 [7afc8d73] (07/30) Accurately ripped
04 [9b224dda] (07/30) Accurately ripped
05 [b36d862e] (07/29) Accurately ripped
06 [73ac5f91] (07/30) Accurately ripped
07 [1f1b23fd] (07/30) Accurately ripped
08 [b4c5fbf0] (06/29) Accurately ripped

Track Peak [ CRC32 ] [W/O NULL] [ LOG ]
– 97,7 [54CDFEC2] [C7D2E65A] CRC32
01 89,0 [63F92BFB] [8F456B6E]
02 88,2 [286A4870] [4CC6E733]
03 83,6 [38322CA1] [8F47B4C3]
04 97,0 [907F32AA] [94AD3432]
05 77,9 [F57AC492] [69B7970E]
06 97,7 [86D0D5D5] [563D77CB]
07 73,3 [62E5537D] [BD3F86EF]
08 80,9 [2AF90BA6] [E9855C4C]

Rory Gallagher - Live! In Europe & Stage Struck (1989)

All thanks go to Alexharvey

>>> Rory Gallagher in my Blog <<<

Download from icerbox.com:

Rory Gallagher – Live! In Europe & Stage Struck (1989) Download, Warez, DDL, Free, Full Album, Torrent, Legal.

Download