Ronald Brautigam, Norrköping Symphony Orchestra, Andrew Parrott – Beethoven: Piano Concertos Nos.1 & 3 (2008) (Repost)

Download
Ronald Brautigam, Norrköping Symphony Orchestra, Andrew Parrott - Beethoven: Piano Concertos Nos.1 & 3 (2008) (Repost)

Ronald Brautigam, Norrköping Symphony Orchestra, Andrew Parrott – Beethoven: Piano Concertos Nos.1 & 3 (2008)
EAC | FLAC (image+.cue, log) | Covers Included | 67:16 | 304 MB
Genre: Classical | Label: BIS | Catalog: SACD-1692

As smooth and delicious a performance of Beethoven’s First Piano Concerto as has been released since the turn of the century, Ronald Brautigam’s account of the work with Andrew Parrott and the Norrköping Symphony Orchestra compares with Richter’s for sparkle, with Pollini’s for cleverness, and with Michelangeli’s for liveliness. Brautigam’s opening Allegro con brio has velocity and control, his central Largo expressivity and refinement, and his closing Rondo wit and whimsy. Parrott, the English conductor famous for his recordings of Baroque choral repertoire, and the skillful and characterful Norrköping Symphony supports Brautigam, but also challenges him, prodding him forward in developments, pulling back with him in pauses, surging together with him in climaxes. This, surely, is a model post-millennial Beethoven First Concerto.
The performance of Beethoven’s Third Concerto that follows is even better. While some listeners might miss the sheer power Richter brought to the work, they will have to acknowledge Brautigam and Parrott’s dramatic intensity. Written in Beethoven’s fateful key of C minor – think of the earlier Pathétique Sonata or the later Fifth Symphony – the Third Concerto has rarely sounded as fateful as it does here. Brautigam’s got the muscle for the strenuous opening Allegro con brio, the heart for the central Largo, and the guts to beat the closing Rondo and triumph in the major-keyed coda. As in the First Concerto, Parrott and the Norrköping Symphony are with him every measure of the way, helping Brautigam create a performance that can stand with the finest of the past. BIS’ super audio sound has the translucence of digital sound, but with more palpable presence.

AllMusic

Ronald Brautigam, Norrköping Symphony Orchestra, Andrew Parrott - Beethoven: Piano Concertos Nos.1 & 3 (2008) (Repost)

Track List:

Piano Concerto No. 1 in C major, Op. 15
1. I. Allegro con brio
2. II. Largo
3. III. Rondo. Allegro

Piano Concerto No. 3 in C minor, Op. 37
4. I. Allegro con brio
5. II. Largo
6. III. Rondo. Allegro

Performers:
Ronald Brautigam, piano
Norrköping Symphony Orchestra
Conductor: Andrew Parrott

EAC Log
Exact Audio Copy V1.0 beta 3 from 29. August 2011

EAC extraction logfile from 5. March 2012, 21:12

Ronald Brautigam / Beethoven – Piano Concertos 1 & 3 – Brautigam

Used drive : HL-DT-STDVDRAM GSA-H10A Adapter: 0 ID: 0

Read mode : Secure
Utilize accurate stream : Yes
Defeat audio cache : Yes
Make use of C2 pointers : No

Read offset correction : 667
Overread into Lead-In and Lead-Out : No
Fill up missing offset samples with silence : Yes
Delete leading and trailing silent blocks : No
Null samples used in CRC calculations : Yes
Used interface : Native Win32 interface for Win NT & 2000

Used output format : User Defined Encoder
Selected bitrate : 1024 kBit/s
Quality : High
Add ID3 tag : No
Command line compressor : C:Program FilesExact Audio CopyFlacflac.exe
Additional command line options : -8 -V -T "TITLE=%title%" -T "ARTIST=%artist%" -T "ALBUMARTIST=%albumartist%" -T "ALBUM=%albumtitle%" -T "DATE=%year%" -T "TRACKNUMBER=%tracknr%" -T "TRACKTOTAL=%numtracks%" -T "GENRE=%genre%" -T "COMMENT=%comment%" -T "PERFORMER=%albuminterpret%" -T "COMPOSER=%composer%" %source% -o %dest%

TOC of the extracted CD

Track | Start | Length | Start sector | End sector
––––––––––––––––––––––––––––-
1 | 0:00.00 | 16:52.59 | 0 | 75958
2 | 16:52.59 | 9:30.34 | 75959 | 118742
3 | 26:23.18 | 8:07.70 | 118743 | 155337
4 | 34:31.13 | 15:03.09 | 155338 | 223071
5 | 49:34.22 | 8:33.54 | 223072 | 261600
6 | 58:08.01 | 9:08.39 | 261601 | 302739

Range status and errors

Selected range

Filename F:Ripped general[9945] Beethoven – Piano Concertos 1 & 3 – BrautigamBeethoven – Piano Concertos 1 & 3 – Brautigam.wav

Peak level 99.8 %
Extraction speed 7.5 X
Range quality 100.0 %
Test CRC 41A7D26D
Copy CRC 41A7D26D
Copy OK

No errors occurred

AccurateRip summary

Track 1 accurately ripped (confidence 2) [D3AC2428] (AR v2)
Track 2 accurately ripped (confidence 2) [E970C3FD] (AR v2)
Track 3 accurately ripped (confidence 2) [68AEDBAF] (AR v2)
Track 4 accurately ripped (confidence 2) [A78021AB] (AR v2)
Track 5 accurately ripped (confidence 2) [30F97857] (AR v2)
Track 6 accurately ripped (confidence 2) [DCC5181C] (AR v2)

All tracks accurately ripped

End of status report

CUETools Log
[CUETools log; Date: 09.07.2017 11:34:20; Version: 2.1.5]
[CTDB TOCID: M7e2oj7Jjq.hiVrlrppRjx5SvQI-] found.
Track | CTDB Status
1 | (16/16) Accurately ripped
2 | (16/16) Accurately ripped
3 | (16/16) Accurately ripped
4 | (16/16) Accurately ripped
5 | (16/16) Accurately ripped
6 | (15/16) Accurately ripped
[AccurateRip ID: 00115b2d-005a8a4e-4f0fc406] found.
Track [ CRC | V2 ] Status
01 [1c88b434|d3ac2428] (11+20/31) Accurately ripped
02 [683eb234|e970c3fd] (11+20/31) Accurately ripped
03 [cf3faa24|68aedbaf] (11+20/31) Accurately ripped
04 [ab446ff0|a78021ab] (11+20/31) Accurately ripped
05 [4edd9a53|30f97857] (11+20/31) Accurately ripped
06 [c61fb3d2|dcc5181c] (11+20/31) Accurately ripped

Track Peak [ CRC32 ] [W/O NULL] [ LOG ]
– 99,8 [41A7D26D] [0BA72043] CRC32
01 99,8 [22E2BFFB] [0A56362A]
02 72,4 [225542F2] [1AA4A8C6]
03 95,8 [02FF8AD2] [DF848567]
04 89,4 [6CE104BF] [64A651D4]
05 47,3 [24C64644] [56ADF878]
06 86,4 [4A3CFDC6] [F2146E5F]

Ronald Brautigam, Norrköping Symphony Orchestra, Andrew Parrott - Beethoven: Piano Concertos Nos.1 & 3 (2008) (Repost)

Thanks to the Original ripper (unknown)!

Download:

Ronald Brautigam, Norrköping Symphony Orchestra, Andrew Parrott – Beethoven: Piano Concertos Nos.1 & 3 (2008) (Repost) Download, Warez, DDL, Free, Full Album, Torrent, Legal.

Download