Roger Reynolds – Voicespace (1982 Reissue) (1992) (Repost)

Download
Roger Reynolds - Voicespace (1982 Reissue) (1992) (Repost)

Roger Reynolds – Voicespace (1982 Reissue) (1992)
XLD | FLAC (tracks+.cue, log) | Covers Included | 54:09 | 199 MB
Genre: Modern Classical, Avant-Garde | Label: Lovely Music | Catalog: LCD 1801

A reissue of the two-record set, featuring four pieces for computer electronics and voices that amplify to an extreme degree the components and expressive qualities of the voice. "Still," with a text from Samuel Coleridge’s The Wanderings of Cain (1798), moves extremely slowly in a "vocal fry" across the aspirate clicks and wind of the performer; "A Merciful Coincidence," on a text from Samuel Beckett’s Watt (1953), uses the aggressive-passive inflections of the frog performers croaking, which seems to have intent, if not syntactical "meaning"; "Eclipse," with a combined text from Jorge Luis Borges, Gabriel Marquez, Issa, James Joyce, Melville, and Wallace Stevens, eclipses strains of modulated texts into each other; and "The Palace," on a translated text by Borges (1976), is a dramatic monodrama about how The Self imagines its confines within the space of The Mind, with the prerecorded modified voice added to the singer onstage, yielding an enormous, suprahuman quality.

AllMusic

Roger Reynolds - Voicespace (1982 Reissue) (1992) (Repost)

Track List:

1. "The Palace (Voicespace IV)" (16:07)
2. "Eclipse (Voicespace III)" (16:10)
3. "Still (Voicespace I)" (21:35)

XLD Log
X Lossless Decoder version 20131102 (145.0)
XLD extraction logfile from 2014-04-16 15:57:51 -0700
Roger Reynolds / Voicespace

Used drive : HL-DT-ST DVDRW GX40N (revision RQ00)
Media type : Pressed CD

Ripper mode : XLD Secure Ripper
Disable audio cache : OK for the drive with a cache less than 1375KiB
Make use of C2 pointers : NO
Read offset correction : 6
Max retry count : 20
Gap status : Analyzed, Appended (except HTOA)
TOC of the extracted CD
Track | Start | Length | Start sector | End sector
––––––––––––––––––––––––––––-
1 | 00:00:00 | 16:14:30 | 0 | 73079
2 | 16:14:30 | 16:18:55 | 73080 | 146484
3 | 32:33:10 | 21:36:23 | 146485 | 243707
AccurateRip Summary (DiscID: 000711a9-0017cf80-2c0cb103)
Track 01 : OK (v2, confidence 1/1)
Track 02 : OK (v2, confidence 1/1)
Track 03 : OK (v2, confidence 1/1)
->All tracks accurately ripped.

All Tracks
Album gain : 5.50 dB
Peak : 0.839630
Statistics
Read error : 0
Jitter error (maybe fixed) : 0
Retry sector count : 0
Damaged sector count : 0

Track 01
Filename : /Users/steve/Documents/FLAC RIPS/Roger Reynolds – Voicespace/01 – The Palace (Voicespace IV) (Unknown Composer).flac
Pre-gap length : 00:02:00
Track gain : 7.03 dB
Peak : 0.561218
CRC32 hash (test run) : 472DCFFD
CRC32 hash : 472DCFFD
CRC32 hash (skip zero) : 9167A9CE
AccurateRip v1 signature : C9873E7C
AccurateRip v2 signature : CB3D33B0
->Accurately ripped (v2, confidence 1/1)
Statistics
Read error : 0
Jitter error (maybe fixed) : 0
Retry sector count : 0
Damaged sector count : 0

Track 02
Filename : /Users/steve/Documents/FLAC RIPS/Roger Reynolds – Voicespace/02 – Eclipse (Voicespace III) (Unknown Composer).flac
Pre-gap length : 00:06:30
Track gain : 4.01 dB
Peak : 0.751984
CRC32 hash (test run) : 9DA25687
CRC32 hash : 9DA25687
CRC32 hash (skip zero) : 2960BD89
AccurateRip v1 signature : E254FF66
AccurateRip v2 signature : C3C55CC0
->Accurately ripped (v2, confidence 1/1)
Statistics
Read error : 0
Jitter error (maybe fixed) : 0
Retry sector count : 0
Damaged sector count : 0

Track 03
Filename : /Users/steve/Documents/FLAC RIPS/Roger Reynolds – Voicespace/03 – Still (Voicespace I) (Unknown Composer).flac
Pre-gap length : 00:07:17
Track gain : 8.08 dB
Peak : 0.839630
CRC32 hash (test run) : 1B16079D
CRC32 hash : 1B16079D
CRC32 hash (skip zero) : 4A20E7FA
AccurateRip v1 signature : A341F0E3
AccurateRip v2 signature : 2755C18A
->Accurately ripped (v2, confidence 1/1)
Statistics
Read error : 0
Jitter error (maybe fixed) : 0
Retry sector count : 0
Damaged sector count : 0

No errors occurred

End of status report

––-BEGIN XLD SIGNATURE––-
3Bl.zxJs8BZJmN0MIOF._2pUHrFSgLKRrTet4eiP9eDT53PDgHTO380u0TSYrZHrRZaFNtaeKMSeN.SByZExwqutJttUy2xgzgDjc4i
––-END XLD SIGNATURE––-

CUETools Log
[CUETools log; Date: 17.07.2017 10:02:18; Version: 2.1.5]
[CTDB TOCID: HMsywQBk7O0O4T8LPqzMOWzUVqk-] found.
Track | CTDB Status
1 | (3/3) Accurately ripped
2 | (3/3) Accurately ripped
3 | (3/3) Accurately ripped
[AccurateRip ID: 000711a9-0017cf80-2c0cb103] found.
Track [ CRC | V2 ] Status
01 [c9873e7c|cb3d33b0] (0+2/2) Accurately ripped
02 [e254ff66|c3c55cc0] (0+2/2) Accurately ripped
03 [a341f0e3|2755c18a] (0+2/2) Accurately ripped

Track Peak [ CRC32 ] [W/O NULL]
– 83,9 [8E4AB74E] [14F40951]
01 56,1 [472DCFFD] [9167A9CE]
02 75,2 [9DA25687] [2960BD89]
03 83,9 [1B16079D] [4A20E7FA]

Thanks to the Original ripper (unknown)!

Download:

Roger Reynolds – Voicespace (1982 Reissue) (1992) (Repost) Download, Warez, DDL, Free, Full Album, Torrent, Legal.

Download