Rod Stewart – When We Were The New Boys (1998)

Download
Rod Stewart - When We Were The New Boys (1998)

Rod Stewart – When We Were The New Boys (1998)
EAC Rip | FLAC (Img) + Cue + Log ~ 305 Mb | MP3 CBR320 ~ 100 Mb
Scans (JPG, 600 dpi) ~ 71 Mb | RAR 5% Recovery
Pop Rock, Hard Rock | Warner Bros. Records #9362-46792-2

When We Were the New Boys finds Rod Stewart tackling the music of his Brit-pop offspring and coming to terms with his pub rock roots. It’s a bit of a risky move, since he could have embarrassed himself with stodgy singing but, surprisingly, he (more or less) pulls it off. Granted, he’s not nearly as energetic as he once was, and he stumbles on occasion, but he recasts Oasis’ "Cigarettes and Alcohol," Primal Scream’s "Rocks," and Graham Parker’s "Hotel Chambermaid" as comfortable rockers in the vein of "Hot Legs." They’re not as vibrant as the Gallaghers’ rolling thunder or Bobby Gillespie’s ironic classicism, but they’re easily the best rockers Rod has cut in ages. Yet, like on any of his ’90s records, he really shines on the ballads, giving Ron Sexsmith’s "Secret Heart," Nick Lowe’s gorgeous "Shelly My Love," and Mike Scott’s "What Do You Want Me to Do" lovely, unadorned readings, while letting his sentimental streak slip through in his original "When We Were the New Boys" and a cover of the Faces’ "Ooh La La," originally sung by Ron Wood. These unabashedly recall his rowdy, youthful days with the Faces, and they’re warmly nostalgic. He may be reveling in memory and trying recapture his youth, but Rod hasn’t sounded this comfortable in years.

~ Stephen Thomas Erlewine, All Music
Official Website | Wiki | Discogs | All Music

***************

Rod Stewart - When We Were The New Boys (1998)

Track List:

01. Cigarettes And Alcohol [0:04:03.70]
02. Ooh La La [0:04:16.20]
03. Rocks [0:04:45.07]
04. Superstar [0:04:20.68]
05. Secret Heart [0:04:07.22]
06. Hotel Chambermaid [0:03:49.53]
07. Shelly My Love [0:03:38.05]
08. When We Were The New Boys [0:04:40.45]
09. Weak [0:04:37.05]
10. What Do You Want Me To Do [0:03:34.57]

Personnel:
Rod Stewart – lead vocals
Oliver Leiber – guitar, backing vocals
John Shanks – guitar, mandolin, harmonica, slide guitar, backing vocals
Michael Landau – guitar
Jeff Baxter – guitar, pedal steel guitar
Lance Morrison – bass guitar
Dave Palmer – drums
Kevin Savigar – keyboards, organ, accordion
Paulinho Da Costa – percussion, tambourine, maracas
Jeff Paris – piano
Rick Braun – trumpet
Nick Lane – trombone
Jimmy Roberts – saxophone
Richard Greene, Sharon Corr – fiddle
Caroline Corr – bodhrán
Andrea Corr – penny whistle
Eric Rigler & His Icy Pipes – low whistle
Steve Richards – cello, backing vocals
Fred White, Dee Harvey, Lamont VanHook, Sue Ann Carwell, Jacki Simley, Richard Page, Jeff Pescetto, Wil Wheaton – backing vocals
Suzy Katayama, Daniel Smith – cello

EAC Log
Exact Audio Copy V1.2 from 12. August 2016

EAC extraction logfile from 31. January 2017, 8:26

Rod Stewart / When We Were The New Boys

Used drive : PLEXTOR DVDR PX-716A Adapter: 1 ID: 0

Read mode : Secure
Utilize accurate stream : Yes
Defeat audio cache : Yes
Make use of C2 pointers : No

Read offset correction : 30
Overread into Lead-In and Lead-Out : No
Fill up missing offset samples with silence : Yes
Delete leading and trailing silent blocks : No
Null samples used in CRC calculations : Yes
Used interface : Native Win32 interface for Win NT & 2000

Used output format : User Defined Encoder
Selected bitrate : 1024 kBit/s
Quality : High
Add ID3 tag : No
Command line compressor : C:Program Files (x86)Exact Audio CopyFLACFLAC.EXE
Additional command line options : -6 -V -T "ARTIST=%artist%" -T "TITLE=%title%" -T "ALBUM=%albumtitle%" -T "DATE=%year%" -T "TRACKNUMBER=%tracknr%" -T "GENRE=%genre%" -T "COMMENT=%comment%" -T "BAND=%albuminterpret%" -T "ALBUMARTIST=%albuminterpret%" -T "COMPOSER=%composer%" %haslyrics%–tag-from-file=LYRICS="%lyricsfile%"%haslyrics% -T "DISCNUMBER=%cdnumber%" -T "TOTALDISCS=%totalcds%" -T "TOTALTRACKS=%numtracks%" %hascover%–picture="%coverfile%"%hascover% %source% -o %dest%

TOC of the extracted CD

Track | Start | Length | Start sector | End sector
––––––––––––––––––––––––––––-
1 | 0:00.00 | 4:03.70 | 0 | 18294
2 | 4:03.70 | 4:16.20 | 18295 | 37514
3 | 8:20.15 | 4:45.07 | 37515 | 58896
4 | 13:05.22 | 4:20.68 | 58897 | 78464
5 | 17:26.15 | 4:07.22 | 78465 | 97011
6 | 21:33.37 | 3:49.53 | 97012 | 114239
7 | 25:23.15 | 3:38.05 | 114240 | 130594
8 | 29:01.20 | 4:40.45 | 130595 | 151639
9 | 33:41.65 | 4:37.05 | 151640 | 172419
10 | 38:18.70 | 3:34.57 | 172420 | 188526

Range status and errors

Selected range

Filename C:mmRod Stewart1998 – When We Were The New Boys [9362-46792-2]Rod Stewart – When We Were The New Boys.wav

Peak level 100.0 %
Extraction speed 11.9 X
Range quality 100.0 %
Test CRC 1292C058
Copy CRC 1292C058
Copy OK

No errors occurred

AccurateRip summary

Track 1 accurately ripped (confidence 88) [EA518834] (AR v2)
Track 2 accurately ripped (confidence 87) [BE4AC5DB] (AR v2)
Track 3 accurately ripped (confidence 88) [27C790DF] (AR v2)
Track 4 accurately ripped (confidence 87) [3B1CA5F4] (AR v2)
Track 5 accurately ripped (confidence 87) [51A8C4FA] (AR v2)
Track 6 accurately ripped (confidence 88) [6AD47CE3] (AR v2)
Track 7 accurately ripped (confidence 87) [204F9FED] (AR v2)
Track 8 accurately ripped (confidence 86) [8BBE1193] (AR v2)
Track 9 accurately ripped (confidence 87) [50B85FEF] (AR v2)
Track 10 accurately ripped (confidence 86) [347A3606] (AR v2)

All tracks accurately ripped

End of status report

–– CUETools DB Plugin V2.1.6

[CTDB TOCID: zKLb7JLkXBqOsM9btndQLeG_kjk-] found
Submit result: zKLb7JLkXBqOsM9btndQLeG_kjk- has been confirmed
Track | CTDB Status
1 | (143/144) Accurately ripped
2 | (144/144) Accurately ripped
3 | (142/144) Accurately ripped
4 | (143/144) Accurately ripped
5 | (143/144) Accurately ripped
6 | (144/144) Accurately ripped
7 | (143/144) Accurately ripped
8 | (143/144) Accurately ripped
9 | (143/144) Accurately ripped
10 | (143/144) Accurately ripped

DR Log
foobar2000 1.2.6 / Dynamic Range Meter 1.1.1
log date: 2017-02-07 03:42:30

––––––––––––––––––––––––––––––––––––––––
Analyzed: Rod Stewart / When We Were The New Boys
––––––––––––––––––––––––––––––––––––––––

DR Peak RMS Duration Track
––––––––––––––––––––––––––––––––––––––––
DR10 0.00 dB -10.68 dB 4:04 01-Cigarettes And Alcohol
DR11 0.00 dB -12.70 dB 4:16 02-Ooh La La
DR9 0.00 dB -9.66 dB 4:45 03-Rocks
DR10 0.00 dB -11.32 dB 4:21 04-Superstar
DR13 0.00 dB -14.95 dB 4:07 05-Secret Heart
DR10 0.00 dB -10.53 dB 3:50 06-Hotel Chambermaid
DR11 0.00 dB -12.37 dB 3:38 07-Shelly My Love
DR9 0.00 dB -10.83 dB 4:41 08-When We Were The New Boys
DR10 0.00 dB -11.60 dB 4:37 09-Weak
DR12 0.00 dB -14.28 dB 3:35 10-What Do You Want Me To Do
––––––––––––––––––––––––––––––––––––––––

Number of tracks: 10
Official DR value: DR10

Samplerate: 44100 Hz
Channels: 2
Bits per sample: 16
Bitrate: 970 kbps
Codec: FLAC
================================================================================

CUETools Log
[CUETools log; Date: 07.02.2017 3:44:22; Version: 2.1.5]
[CTDB TOCID: zKLb7JLkXBqOsM9btndQLeG_kjk-] found.
Track | CTDB Status
1 | (146/147) Accurately ripped
2 | (147/147) Accurately ripped
3 | (145/147) Accurately ripped
4 | (146/147) Accurately ripped
5 | (146/147) Accurately ripped
6 | (147/147) Accurately ripped
7 | (146/147) Accurately ripped
8 | (146/147) Accurately ripped
9 | (146/147) Accurately ripped
10 | (146/147) Accurately ripped
[AccurateRip ID: 000ffc36-007fa8ee-7009d10a] found.
Track [ CRC | V2 ] Status
01 [14534b0d|ea518834] (062+088/152) Accurately ripped
02 [f940f86b|be4ac5db] (062+087/153) Accurately ripped
03 [69c1c7b2|27c790df] (062+088/154) Accurately ripped
04 [a98aafe8|3b1ca5f4] (061+087/152) Accurately ripped
05 [1cee8326|51a8c4fa] (062+087/153) Accurately ripped
06 [5b2f8d86|6ad47ce3] (062+088/154) Accurately ripped
07 [71b892a9|204f9fed] (062+087/153) Accurately ripped
08 [d4571d82|8bbe1193] (062+086/152) Accurately ripped
09 [510c508f|50b85fef] (062+087/153) Accurately ripped
10 [284f10eb|347a3606] (061+086/151) Accurately ripped
Offsetted by 6:
01 [b12ad934] (000/152) No match (V2 was not tested)
02 [5c61cfc8] (000/153) No match (V2 was not tested)
03 [909108b2] (000/154) No match (V2 was not tested)
04 [5f571c8e] (000/152) No match (V2 was not tested)
05 [ed9e02df] (000/153) No match (V2 was not tested)
06 [f5f0d261] (000/154) No match (V2 was not tested)
07 [8c36f65c] (000/153) No match (V2 was not tested)
08 [958f9539] (000/152) No match (V2 was not tested)
09 [447ff08a] (000/153) No match (V2 was not tested)
10 [3bde948d] (000/151) No match (V2 was not tested)

Track Peak [ CRC32 ] [W/O NULL] [ LOG ]
– 100,0 [1292C058] [DCD4FE7F] CRC32
01 100,0 [8862492C] [0EB9CB6A]
02 100,0 [D754F311] [CF521F9C]
03 100,0 [A6E1BA41] [549686EA]
04 100,0 [A0C51905] [DB93B4B9]
05 100,0 [0419CC3A] [65025A6E]
06 100,0 [BC5BE914] [2BBB953E]
07 100,0 [75BF9132] [DD9D620C]
08 100,0 [F2D139E4] [F15CEFBE]
09 100,0 [1EC47EE1] [19D96F2E]
10 100,0 [2DEFFA5E] [6C8A1628]

Rod Stewart - When We Were The New Boys (1998)

Rod Stewart - When We Were The New Boys (1998)

All thanks go to sergych

> Rod Stewart in my blog <

Rod Stewart – When We Were The New Boys (1998) Download, Warez, DDL, Free, Full Album, Torrent, Legal.

Download