Rod Stewart – Storyteller – The Complete Anthology 1964-1990 (1989) Re-up | ViralVideoPk

Daily Dose of Free Downloads

Rod Stewart – Storyteller – The Complete Anthology 1964-1990 (1989) Re-up

Download

Rod Stewart - Storyteller - The Complete Anthology 1964-1990 (1989) Re-up

Rod Stewart – Storyteller – The Complete Anthology 1964-1990 (1989)
4CD | Rock | EAC Rip | Flac (Image) + Cue + Log | MP3 CBR 320Kbps | 64 tracks
Scans > 285 Mb | Warner Bros | 9 25987-2 | ~1798 + 700 Mb
CD 1

Rod Stewart - Storyteller - The Complete Anthology 1964-1990 (1989) Re-up

Rod Stewart - Storyteller - The Complete Anthology 1964-1990 (1989) Re-up

Tracklist:

01. Good Morning Little Schoolgirl
02. Can I Get A Witness? (With The Steampacket)
03. Shake (With Brian Auger & The Trinity)
04. So Much To Say
05. Little Miss Understood
06. I’ve Been Drinking (With The Jeff Beck Group)
07. I Ain’t Superstitious (With The Jeff Beck Group)
08. Shapes Of Things (With The Jeff Beck Group)
09. In A Broken Dream (With Python Lee Jackson)
10. Street Fighting Man
11. Handbags & Gladrags
12. Gasoline Alley
13. Cut Across Shorty
14. Country Comforts
15. It’s All Over Now
16. Sweet Lady Mary (With The Faces)
17. Had Me A Real Good Time (With The Faces)

EAC Log
Exact Audio Copy V1.2 from 12. August 2016

EAC extraction logfile from 4. October 2016, 20:09

Rod Stewart / Storyteller (CD1)

Used drive : ATAPI iHAS124 D Adapter: 1 ID: 1

Read mode : Secure
Utilize accurate stream : Yes
Defeat audio cache : Yes
Make use of C2 pointers : No

Read offset correction : 6
Overread into Lead-In and Lead-Out : No
Fill up missing offset samples with silence : Yes
Delete leading and trailing silent blocks : No
Null samples used in CRC calculations : Yes
Used interface : Native Win32 interface for Win NT & 2000

Used output format : User Defined Encoder
Selected bitrate : 1024 kBit/s
Quality : High
Add ID3 tag : No
Command line compressor : C:Program Files (x86)Exact Audio CopyFLACFLAC.EXE
Additional command line options : -6 -V -T "ARTIST=%artist%" -T "TITLE=%title%" -T "ALBUM=%albumtitle%" -T "DATE=%year%" -T "TRACKNUMBER=%tracknr%" -T "GENRE=%genre%" -T "COMMENT=%comment%" -T "BAND=%albuminterpret%" -T "ALBUMARTIST=%albuminterpret%" -T "COMPOSER=%composer%" %haslyrics%–tag-from-file=LYRICS="%lyricsfile%"%haslyrics% -T "DISCNUMBER=%cdnumber%" -T "TOTALDISCS=%totalcds%" -T "TOTALTRACKS=%numtracks%" %hascover%–picture="%coverfile%"%hascover% %source% -o %dest%

TOC of the extracted CD

Track | Start | Length | Start sector | End sector
––––––––––––––––––––––––––––-
1 | 0:00.00 | 2:09.25 | 0 | 9699
2 | 2:09.25 | 3:35.63 | 9700 | 25887
3 | 5:45.13 | 2:50.12 | 25888 | 38649
4 | 8:35.25 | 3:15.08 | 38650 | 53282
5 | 11:50.33 | 3:38.07 | 53283 | 69639
6 | 15:28.40 | 3:19.35 | 69640 | 84599
7 | 18:48.00 | 4:55.68 | 84600 | 106792
8 | 23:43.68 | 3:19.32 | 106793 | 121749
9 | 27:03.25 | 3:41.18 | 121750 | 138342
10 | 30:44.43 | 5:06.52 | 138343 | 161344
11 | 35:51.20 | 4:24.38 | 161345 | 181182
12 | 40:15.58 | 4:04.20 | 181183 | 199502
13 | 44:20.03 | 6:31.70 | 199503 | 228897
14 | 50:51.73 | 4:45.45 | 228898 | 250317
15 | 55:37.43 | 6:23.47 | 250318 | 279089
16 | 62:01.15 | 5:50.20 | 279090 | 305359
17 | 67:51.35 | 5:52.70 | 305360 | 331829

Range status and errors

Selected range

Filename C:mmRod Stewart1989(2009) – Storyteller {The Complete Anthology, 1964-1990} [8122797449]Rod Stewart – Storyteller (CD1).wav

Peak level 100.0 %
Extraction speed 9.4 X
Range quality 99.9 %
Test CRC 3CDD6D84
Copy CRC 3CDD6D84
Copy OK

No errors occurred

AccurateRip summary

Track 1 accurately ripped (confidence 21) [9F25F83E] (AR v2)
Track 2 accurately ripped (confidence 21) [4A440B87] (AR v2)
Track 3 accurately ripped (confidence 21) [4F424018] (AR v2)
Track 4 accurately ripped (confidence 21) [FBBCCEC9] (AR v2)
Track 5 accurately ripped (confidence 21) [F08B3048] (AR v2)
Track 6 accurately ripped (confidence 20) [9103373D] (AR v2)
Track 7 accurately ripped (confidence 21) [4D170649] (AR v2)
Track 8 accurately ripped (confidence 21) [125D546B] (AR v2)
Track 9 accurately ripped (confidence 21) [008B590D] (AR v2)
Track 10 accurately ripped (confidence 21) [C6B042BA] (AR v2)
Track 11 accurately ripped (confidence 21) [C4C39FB8] (AR v2)
Track 12 accurately ripped (confidence 21) [0ECB8E07] (AR v2)
Track 13 accurately ripped (confidence 21) [32F44164] (AR v2)
Track 14 accurately ripped (confidence 21) [D2B518B8] (AR v2)
Track 15 accurately ripped (confidence 21) [84546CB3] (AR v2)
Track 16 accurately ripped (confidence 21) [50B1A41C] (AR v2)
Track 17 accurately ripped (confidence 21) [45C62FCE] (AR v2)

All tracks accurately ripped

End of status report

–– CUETools DB Plugin V2.1.6

[CTDB TOCID: sJ4ekE3qMnjlXsUVGoC0G2F5gU4-] found
Submit result: sJ4ekE3qMnjlXsUVGoC0G2F5gU4- has been confirmed
Track | CTDB Status
1 | (76/77) Accurately ripped
2 | (76/77) Accurately ripped
3 | (76/77) Accurately ripped
4 | (76/77) Accurately ripped
5 | (76/77) Accurately ripped
6 | (76/77) Accurately ripped
7 | (76/77) Accurately ripped
8 | (76/77) Accurately ripped
9 | (76/77) Accurately ripped
10 | (76/77) Accurately ripped
11 | (69/77) Accurately ripped
12 | (76/77) Accurately ripped
13 | (76/77) Accurately ripped
14 | (76/77) Accurately ripped
15 | (75/77) Accurately ripped
16 | (75/77) Accurately ripped
17 | (73/77) Accurately ripped

CD 2

Rod Stewart - Storyteller - The Complete Anthology 1964-1990 (1989) Re-up

Rod Stewart - Storyteller - The Complete Anthology 1964-1990 (1989) Re-up

Tracklist:

01. Maggie May
02. Mandolin Wind
03. ( I Know ) I’m Losing You
04. Reason To Believe
05. Every Picture Tells A Story
06. Stay With Me (With The Faces)
07. True Blue
08. Angel
09. You Wear It Well
10. I’d Rather Go Blind
11. Twistin’ The Night Away
12. What’s Made Milwaukee Famous
13. Oh ! No Not My Baby
14. Pinball Wizard
15. Let Me Be Your Car
16. You Can Make Me Dance, Sing Or Anything

EAC Log
Exact Audio Copy V1.2 from 12. August 2016

EAC extraction logfile from 6. October 2016, 0:37

Rod Stewart / Storyteller (CD2)

Used drive : slimtype eTDU108 1 Adapter: 1 ID: 0

Read mode : Secure
Utilize accurate stream : Yes
Defeat audio cache : Yes
Make use of C2 pointers : No

Read offset correction : 6
Overread into Lead-In and Lead-Out : No
Fill up missing offset samples with silence : Yes
Delete leading and trailing silent blocks : No
Null samples used in CRC calculations : Yes
Used interface : Native Win32 interface for Win NT & 2000

Used output format : User Defined Encoder
Selected bitrate : 1024 kBit/s
Quality : High
Add ID3 tag : No
Command line compressor : C:Program Files (x86)Exact Audio CopyFLACFLAC.EXE
Additional command line options : -6 -V -T "ARTIST=%artist%" -T "TITLE=%title%" -T "ALBUM=%albumtitle%" -T "DATE=%year%" -T "TRACKNUMBER=%tracknr%" -T "GENRE=%genre%" -T "COMMENT=%comment%" -T "BAND=%albuminterpret%" -T "ALBUMARTIST=%albuminterpret%" -T "COMPOSER=%composer%" %haslyrics%–tag-from-file=LYRICS="%lyricsfile%"%haslyrics% -T "DISCNUMBER=%cdnumber%" -T "TOTALDISCS=%totalcds%" -T "TOTALTRACKS=%numtracks%" %hascover%–picture="%coverfile%"%hascover% %source% -o %dest%

TOC of the extracted CD

Track | Start | Length | Start sector | End sector
––––––––––––––––––––––––––––-
1 | 0:00.00 | 5:47.70 | 0 | 26094
2 | 5:47.70 | 5:32.48 | 26095 | 51042
3 | 11:20.43 | 5:22.61 | 51043 | 75253
4 | 16:43.29 | 4:07.13 | 75254 | 93791
5 | 20:50.42 | 5:58.06 | 93792 | 120647
6 | 26:48.48 | 4:39.48 | 120648 | 141620
7 | 31:28.21 | 3:35.08 | 141621 | 157753
8 | 35:03.29 | 4:06.53 | 157754 | 176256
9 | 39:10.07 | 5:04.01 | 176257 | 199057
10 | 44:14.08 | 3:55.20 | 199058 | 216702
11 | 48:09.28 | 3:16.23 | 216703 | 231425
12 | 51:25.51 | 2:53.43 | 231426 | 244443
13 | 54:19.19 | 3:40.68 | 244444 | 261011
14 | 58:00.12 | 3:42.35 | 261012 | 277696
15 | 61:42.47 | 4:57.60 | 277697 | 300031
16 | 66:40.32 | 4:22.38 | 300032 | 319719

Range status and errors

Selected range

Filename C:mmRod Stewart1989(2009) – Storyteller {The Complete Anthology, 1964-1990} [8122797449]Rod Stewart – Storyteller (CD2).wav

Peak level 100.0 %
Extraction speed 2.1 X
Range quality 100.0 %
Test CRC F09E128E
Copy CRC F09E128E
Copy OK

No errors occurred

AccurateRip summary

Track 1 accurately ripped (confidence 35) [0F1F7643] (AR v2)
Track 2 accurately ripped (confidence 35) [83E72874] (AR v2)
Track 3 accurately ripped (confidence 35) [0BC786DE] (AR v2)
Track 4 accurately ripped (confidence 35) [506D2617] (AR v2)
Track 5 accurately ripped (confidence 35) [8C2A1202] (AR v2)
Track 6 accurately ripped (confidence 35) [A1A729C7] (AR v2)
Track 7 accurately ripped (confidence 35) [CD8B4C0A] (AR v2)
Track 8 accurately ripped (confidence 35) [9047F5C3] (AR v2)
Track 9 accurately ripped (confidence 35) [D145BC97] (AR v2)
Track 10 accurately ripped (confidence 35) [97A0422C] (AR v2)
Track 11 accurately ripped (confidence 35) [C865E3CF] (AR v2)
Track 12 accurately ripped (confidence 35) [5F73CBE1] (AR v2)
Track 13 accurately ripped (confidence 35) [8548D015] (AR v2)
Track 14 accurately ripped (confidence 35) [40D66585] (AR v2)
Track 15 accurately ripped (confidence 34) [7BDE8484] (AR v2)
Track 16 accurately ripped (confidence 34) [EBB340C9] (AR v2)

All tracks accurately ripped

End of status report

–– CUETools DB Plugin V2.1.6

[CTDB TOCID: wTbVzEGyMVb2JUKxcM3u6Pyo0rU-] found
Submit result: wTbVzEGyMVb2JUKxcM3u6Pyo0rU- has been confirmed
Track | CTDB Status
1 | (54/56) Accurately ripped
2 | (56/56) Accurately ripped
3 | (56/56) Accurately ripped
4 | (56/56) Accurately ripped
5 | (56/56) Accurately ripped
6 | (56/56) Accurately ripped
7 | (56/56) Accurately ripped
8 | (56/56) Accurately ripped
9 | (56/56) Accurately ripped
10 | (56/56) Accurately ripped
11 | (56/56) Accurately ripped
12 | (56/56) Accurately ripped
13 | (56/56) Accurately ripped
14 | (56/56) Accurately ripped
15 | (56/56) Accurately ripped
16 | (55/56) Accurately ripped

CD 3

Rod Stewart - Storyteller - The Complete Anthology 1964-1990 (1989) Re-up

Rod Stewart - Storyteller - The Complete Anthology 1964-1990 (1989) Re-up

Tracklist:

01. Sailing
02. I Don’t Want To Talk About It
03. Stone Cold Sober
04. To Love Somebody
05. Tonight’s The Night
06. The First Cut Is The Deepest
07. The Killing Of Georgie (Part I And II)
08. Get Back
09. Hot Legs
10. I Was Only Joking
11. You’re In My Heart
12. Do Ya Think I’m Sexy?
13. Passion
14. Oh God, I Wish I Was Home Tonight
15. Tonight I’m Yours

EAC Log
Exact Audio Copy V1.2 from 12. August 2016

EAC extraction logfile from 6. October 2016, 1:21

Rod Stewart / Storyteller (CD3)

Used drive : ATAPI iHAS124 D Adapter: 1 ID: 1

Read mode : Secure
Utilize accurate stream : Yes
Defeat audio cache : Yes
Make use of C2 pointers : No

Read offset correction : 6
Overread into Lead-In and Lead-Out : No
Fill up missing offset samples with silence : Yes
Delete leading and trailing silent blocks : No
Null samples used in CRC calculations : Yes
Used interface : Native Win32 interface for Win NT & 2000

Used output format : User Defined Encoder
Selected bitrate : 1024 kBit/s
Quality : High
Add ID3 tag : No
Command line compressor : C:Program Files (x86)Exact Audio CopyFLACFLAC.EXE
Additional command line options : -6 -V -T "ARTIST=%artist%" -T "TITLE=%title%" -T "ALBUM=%albumtitle%" -T "DATE=%year%" -T "TRACKNUMBER=%tracknr%" -T "GENRE=%genre%" -T "COMMENT=%comment%" -T "BAND=%albuminterpret%" -T "ALBUMARTIST=%albuminterpret%" -T "COMPOSER=%composer%" %haslyrics%–tag-from-file=LYRICS="%lyricsfile%"%haslyrics% -T "DISCNUMBER=%cdnumber%" -T "TOTALDISCS=%totalcds%" -T "TOTALTRACKS=%numtracks%" %hascover%–picture="%coverfile%"%hascover% %source% -o %dest%

TOC of the extracted CD

Track | Start | Length | Start sector | End sector
––––––––––––––––––––––––––––-
1 | 0:00.00 | 4:40.23 | 0 | 21022
2 | 4:40.23 | 4:50.07 | 21023 | 42779
3 | 9:30.30 | 4:13.13 | 42780 | 61767
4 | 13:43.43 | 4:31.12 | 61768 | 82104
5 | 18:14.55 | 3:56.15 | 82105 | 99819
6 | 22:10.70 | 4:27.33 | 99820 | 119877
7 | 26:38.28 | 6:27.62 | 119878 | 148964
8 | 33:06.15 | 4:27.15 | 148965 | 169004
9 | 37:33.30 | 5:15.53 | 169005 | 192682
10 | 42:49.08 | 6:08.07 | 192683 | 220289
11 | 48:57.15 | 4:30.40 | 220290 | 240579
12 | 53:27.55 | 5:30.00 | 240580 | 265329
13 | 58:57.55 | 5:32.03 | 265330 | 290232
14 | 64:29.58 | 5:02.72 | 290233 | 312954
15 | 69:32.55 | 4:11.00 | 312955 | 331779

Range status and errors

Selected range

Filename C:mmRod Stewart1989(2009) – Storyteller {The Complete Anthology, 1964-1990} [8122797449]Rod Stewart – Storyteller (CD3).wav

Peak level 100.0 %
Extraction speed 9.6 X
Range quality 99.9 %
Test CRC BE360E44
Copy CRC BE360E44
Copy OK

No errors occurred

AccurateRip summary

Track 1 accurately ripped (confidence 22) [C324C8D8] (AR v2)
Track 2 accurately ripped (confidence 22) [1F216D88] (AR v2)
Track 3 accurately ripped (confidence 22) [E0324ACB] (AR v2)
Track 4 accurately ripped (confidence 22) [189254B7] (AR v2)
Track 5 accurately ripped (confidence 21) [03ABCA21] (AR v2)
Track 6 accurately ripped (confidence 21) [D744FDC8] (AR v2)
Track 7 accurately ripped (confidence 21) [13073931] (AR v2)
Track 8 accurately ripped (confidence 21) [4A0D2418] (AR v2)
Track 9 accurately ripped (confidence 21) [F51456A1] (AR v2)
Track 10 accurately ripped (confidence 21) [42C2F8F8] (AR v2)
Track 11 accurately ripped (confidence 21) [EDB2372A] (AR v2)
Track 12 accurately ripped (confidence 20) [F113128E] (AR v2)
Track 13 accurately ripped (confidence 20) [0CCA6B8A] (AR v2)
Track 14 accurately ripped (confidence 20) [EE952116] (AR v2)
Track 15 accurately ripped (confidence 20) [4EC23112] (AR v2)

All tracks accurately ripped

End of status report

–– CUETools DB Plugin V2.1.6

[CTDB TOCID: vpGYo9smx4v3IG4aWQZ9glgbLr4-] found
Submit result: vpGYo9smx4v3IG4aWQZ9glgbLr4- has been confirmed
Track | CTDB Status
1 | (76/77) Accurately ripped
2 | (76/77) Accurately ripped
3 | (76/77) Accurately ripped
4 | (77/77) Accurately ripped
5 | (77/77) Accurately ripped
6 | (77/77) Accurately ripped
7 | (77/77) Accurately ripped
8 | (76/77) Accurately ripped
9 | (76/77) Accurately ripped
10 | (76/77) Accurately ripped
11 | (70/77) Accurately ripped
12 | (76/77) Accurately ripped
13 | (76/77) Accurately ripped
14 | (76/77) Accurately ripped
15 | (75/77) Accurately ripped

CD 4

Rod Stewart - Storyteller - The Complete Anthology 1964-1990 (1989) Re-up

Rod Stewart - Storyteller - The Complete Anthology 1964-1990 (1989) Re-up

Tracklist:

01. Young Turks
02. Baby Jane
03. What Am I Gonna Do (I’m So In Love With You)
04. People Get Ready
05. Some Guys Have All The Luck
06. Infatuation
07. Love Touch
08. Every Beat Of My Heart
09. Lost In You
10. My Heart Can’t Tell You No
11. Dynamite
12. Crazy About Her
13. Forever Young
14. I Don’t Want To Talk About It
15. This Old Heart Of Mine
16. Downtown Train

EAC Log
Exact Audio Copy V1.2 from 12. August 2016

EAC extraction logfile from 6. October 2016, 9:12

Rod Stewart / Storyteller (CD4)

Used drive : ATAPI iHAS124 D Adapter: 1 ID: 1

Read mode : Secure
Utilize accurate stream : Yes
Defeat audio cache : Yes
Make use of C2 pointers : No

Read offset correction : 6
Overread into Lead-In and Lead-Out : No
Fill up missing offset samples with silence : Yes
Delete leading and trailing silent blocks : No
Null samples used in CRC calculations : Yes
Used interface : Native Win32 interface for Win NT & 2000

Used output format : User Defined Encoder
Selected bitrate : 1024 kBit/s
Quality : High
Add ID3 tag : No
Command line compressor : C:Program Files (x86)Exact Audio CopyFLACFLAC.EXE
Additional command line options : -6 -V -T "ARTIST=%artist%" -T "TITLE=%title%" -T "ALBUM=%albumtitle%" -T "DATE=%year%" -T "TRACKNUMBER=%tracknr%" -T "GENRE=%genre%" -T "COMMENT=%comment%" -T "BAND=%albuminterpret%" -T "ALBUMARTIST=%albuminterpret%" -T "COMPOSER=%composer%" %haslyrics%–tag-from-file=LYRICS="%lyricsfile%"%haslyrics% -T "DISCNUMBER=%cdnumber%" -T "TOTALDISCS=%totalcds%" -T "TOTALTRACKS=%numtracks%" %hascover%–picture="%coverfile%"%hascover% %source% -o %dest%

TOC of the extracted CD

Track | Start | Length | Start sector | End sector
––––––––––––––––––––––––––––-
1 | 0:00.00 | 5:03.57 | 0 | 22781
2 | 5:03.57 | 4:45.00 | 22782 | 44156
3 | 9:48.57 | 4:19.48 | 44157 | 63629
4 | 14:08.30 | 4:53.37 | 63630 | 85641
5 | 19:01.67 | 4:33.10 | 85642 | 106126
6 | 23:35.02 | 5:13.15 | 106127 | 129616
7 | 28:48.17 | 4:03.30 | 129617 | 147871
8 | 32:51.47 | 5:19.48 | 147872 | 171844
9 | 38:11.20 | 4:58.25 | 171845 | 194219
10 | 43:09.45 | 5:13.65 | 194220 | 217759
11 | 48:23.35 | 4:17.05 | 217760 | 237039
12 | 52:40.40 | 4:55.10 | 237040 | 259174
13 | 57:35.50 | 4:04.60 | 259175 | 277534
14 | 61:40.35 | 4:53.52 | 277535 | 299561
15 | 66:34.12 | 4:12.00 | 299562 | 318461
16 | 70:46.12 | 4:39.48 | 318462 | 339434

Range status and errors

Selected range

Filename C:mmRod Stewart1989(2009) – Storyteller {The Complete Anthology, 1964-1990} [8122797449]Rod Stewart – Storyteller (CD4).wav

Peak level 100.0 %
Extraction speed 9.7 X
Range quality 99.9 %
Test CRC B3C11596
Copy CRC B3C11596
Copy OK

No errors occurred

AccurateRip summary

Track 1 accurately ripped (confidence 19) [152B9C8F] (AR v2)
Track 2 accurately ripped (confidence 19) [F6D51445] (AR v2)
Track 3 accurately ripped (confidence 19) [AE2FFF00] (AR v2)
Track 4 accurately ripped (confidence 19) [F2149112] (AR v2)
Track 5 accurately ripped (confidence 19) [EC08724F] (AR v2)
Track 6 accurately ripped (confidence 19) [8F58CACF] (AR v2)
Track 7 accurately ripped (confidence 18) [C6A13794] (AR v2)
Track 8 accurately ripped (confidence 18) [50EC0856] (AR v2)
Track 9 accurately ripped (confidence 19) [799D6BD2] (AR v2)
Track 10 accurately ripped (confidence 19) [67E9BB5D] (AR v2)
Track 11 accurately ripped (confidence 19) [9F537D6D] (AR v2)
Track 12 accurately ripped (confidence 19) [2214C804] (AR v2)
Track 13 accurately ripped (confidence 19) [99A507D2] (AR v2)
Track 14 accurately ripped (confidence 19) [FC9749DB] (AR v2)
Track 15 accurately ripped (confidence 19) [3A759434] (AR v2)
Track 16 accurately ripped (confidence 19) [5F42FD30] (AR v2)

All tracks accurately ripped

End of status report

–– CUETools DB Plugin V2.1.6

[CTDB TOCID: Kd.BZcT4nFsnQBgHycoWVemb3rg-] found
Submit result: Kd.BZcT4nFsnQBgHycoWVemb3rg- has been confirmed
Track | CTDB Status
1 | (76/78) Accurately ripped
2 | (77/78) Accurately ripped
3 | (78/78) Accurately ripped
4 | (78/78) Accurately ripped
5 | (78/78) Accurately ripped
6 | (75/78) Accurately ripped
7 | (78/78) Accurately ripped
8 | (78/78) Accurately ripped
9 | (77/78) Accurately ripped
10 | (78/78) Accurately ripped
11 | (78/78) Accurately ripped
12 | (78/78) Accurately ripped
13 | (78/78) Accurately ripped
14 | (77/78) Accurately ripped
15 | (77/78) Accurately ripped
16 | (74/78) Accurately ripped

Rod Stewart – Storyteller – The Complete Anthology 1964-1990 (1989) Re-up Download, Warez, DDL, Free, Full Album, Torrent, Legal.

Download


  • Recent Posts

  • Recent Tags