Rod Stewart – Merry Christmas, Baby (2012) [Limited Edition] | ViralVideoPk

Daily Dose of Free Downloads

Rod Stewart – Merry Christmas, Baby (2012) [Limited Edition]

Download

Rod Stewart - Merry Christmas, Baby (2012) [Limited Edition]

John Hackett – Another Life (2015)
EAC | Flac(Image) + Cue + Log & MP3 CBR 320Kbps
Verve Records, 3712915 | ~ 354 or 136 Mb | Scans(jpg) -> 36 Mb
Pop, Soul, Jazz

Hard as it may be to believe, but Rod Stewart has gotten through five decades without succumbing to a holiday album. That streak ends in 2012 with the release of Merry Christmas, Baby, an easygoing and chipper collection of secular seasonal standards. A couple of carols are thrown in for good measure but these songs – "Silent Night," "We Three Kings" presented as a duet with Mary J. Blige – along with a mildly incongruous "When You Wish Upon a Star," slide by easily on the mellow big-band swing of the rest of the record. Song for song, Merry Christmas, Baby is very much of a piece with Rod’s ongoing Great American Songbook series, with Stewart not straying from the familiar form of these songs and producer David Foster laying on all manner of soft, soothing sounds, whether it’s acoustic guitars, synthesizers, strings, or a children’s choir on "Silent Night." Very rarely does this hint at the Rod of the ’70s – and when it does on the closing "Auld Lang Syne," its intro given a spare folky treatment reminiscent of his Mercury work, it’s a bracing, effective reminder of Stewart’s skill as a singer – and instead relies on a gladhanding charm that suits the season, not to mention Stewart in his crooning dotage.

by Stephen Thomas Erlewine, allmusic

Rod Stewart - Merry Christmas, Baby (2012) [Limited Edition]

Rod Stewart at Wiki | Rod Stewart at Discogs | Rod Stewart at Allmusic | Rod Stewart HomePage

***********

Rod Stewart – Merry Christmas, Baby (2012):

Rod Stewart - Merry Christmas, Baby (2012) [Limited Edition]

Tracklist:

01. Have Yourself A Merry Little Chirstmas
02. Santa Claus Is Coming To Town
03. Winter Wonderland (Duet with Michael Buble)
04. White Christmas
05. Merry Christmas, Baby (Duet with Cee Lo Green)
06. Let It Snow! Let It Snow! Let It Snow!
07. What Are You Doing New Year’s Eve? (Duet with Ella Fitzgerald)
08. Blue Christmas
09. Red-Suited Super Man
10. When You Wish Upon A Star
11. We Three Kings (Duet with Mary J. Blige)
12. Silent Night
13. Auld Lang Syne
14. What Child Is This? (bonus)
15. The Christmas Song (bonus)
16. Silver Bells (bonus)

EAC Log
Exact Audio Copy V1.1 from 23. June 2015

EAC extraction logfile from 21. September 2015, 1:38

Rod Stewart / Merry Christmas, Baby (Target Version)

Used drive : Optiarc DVD RW AD-7260S Adapter: 1 ID: 0

Read mode : Secure
Utilize accurate stream : Yes
Defeat audio cache : Yes
Make use of C2 pointers : No

Read offset correction : 48
Overread into Lead-In and Lead-Out : No
Fill up missing offset samples with silence : Yes
Delete leading and trailing silent blocks : No
Null samples used in CRC calculations : Yes
Used interface : Native Win32 interface for Win NT & 2000

Used output format : User Defined Encoder
Selected bitrate : 768 kBit/s
Quality : High
Add ID3 tag : No
Command line compressor : C:Program Files (x86)Exact Audio CopyFlacflac.exe
Additional command line options : -V -8 %source%

TOC of the extracted CD

Track | Start | Length | Start sector | End sector
––––––––––––––––––––––––––––-
1 | 0:00.15 | 4:31.12 | 15 | 20351
2 | 4:31.27 | 2:47.74 | 20352 | 32950
3 | 7:19.26 | 2:26.02 | 32951 | 43902
4 | 9:45.28 | 3:49.08 | 43903 | 61085
5 | 13:34.36 | 3:53.55 | 61086 | 78615
6 | 17:28.16 | 2:51.14 | 78616 | 91454
7 | 20:19.30 | 3:43.43 | 91455 | 108222
8 | 24:02.73 | 3:30.41 | 108223 | 124013
9 | 27:33.39 | 3:11.33 | 124014 | 138371
10 | 30:44.72 | 3:47.02 | 138372 | 155398
11 | 34:31.74 | 3:27.58 | 155399 | 170981
12 | 37:59.57 | 4:24.26 | 170982 | 190807
13 | 42:24.08 | 3:47.19 | 190808 | 207851
14 | 46:11.27 | 4:17.15 | 207852 | 227141
15 | 50:28.42 | 3:41.13 | 227142 | 243729
16 | 54:09.55 | 3:24.17 | 243730 | 259046

Range status and errors

Selected range

Filename C:UsersSlava ZDesktopRod Stewart – Merry Christmas, Baby (Target Version).wav

Peak level 100.0 %
Extraction speed 4.1 X
Range quality 100.0 %
Test CRC 3974E347
Copy CRC 3974E347
Copy OK

No errors occurred

AccurateRip summary

Track 1 accurately ripped (confidence 46) [CC543D4C] (AR v2)
Track 2 accurately ripped (confidence 46) [D3DC21E8] (AR v2)
Track 3 accurately ripped (confidence 46) [0DD22B64] (AR v2)
Track 4 accurately ripped (confidence 47) [4B6A1A36] (AR v2)
Track 5 accurately ripped (confidence 46) [02383416] (AR v2)
Track 6 accurately ripped (confidence 46) [DE405D38] (AR v2)
Track 7 accurately ripped (confidence 47) [3EB52F4D] (AR v2)
Track 8 accurately ripped (confidence 47) [1D427163] (AR v2)
Track 9 accurately ripped (confidence 47) [31B28178] (AR v2)
Track 10 accurately ripped (confidence 47) [328CA346] (AR v2)
Track 11 accurately ripped (confidence 47) [9AB8CE1F] (AR v2)
Track 12 accurately ripped (confidence 47) [5FFBDE95] (AR v2)
Track 13 accurately ripped (confidence 47) [1B312D78] (AR v2)
Track 14 accurately ripped (confidence 47) [10692FFA] (AR v2)
Track 15 accurately ripped (confidence 47) [7952BDCD] (AR v2)
Track 16 accurately ripped (confidence 46) [1FE4B158] (AR v2)

All tracks accurately ripped

End of status report

==== Log checksum 51A7F0C9C95E4F6F2819D4C1C42A7AD04F625D6078D0D7404E52E8F68094AFB7 ====

DR Log
foobar2000 1.2.9 / Dynamic Range Meter 1.1.1
log date: 2016-12-24 13:54:08

––––––––––––––––––––––––––––––––––––––––
Analyzed: Rod Stewart / Merry Christmas, Baby (Target Version)
––––––––––––––––––––––––––––––––––––––––

DR Peak RMS Duration Track
––––––––––––––––––––––––––––––––––––––––
DR9 0.00 dB -11.18 dB 4:31 01-Have Yourself A Merry Little Christmas
DR7 0.00 dB -8.84 dB 2:48 02-Santa Claus Is Coming To Town
DR6 0.00 dB -7.84 dB 2:26 03-Winter Wonderland
DR7 0.00 dB -9.56 dB 3:49 04-White Christmas
DR7 0.00 dB -8.79 dB 3:54 05-Merry Christmas, Baby
DR7 0.00 dB -8.79 dB 2:51 06-Let It Snow! Let It Snow! Let It Snow!
DR8 0.00 dB -10.74 dB 3:44 07-What Are You Doing New Years Eve?
DR7 0.00 dB -9.63 dB 3:31 08-Blue Christmas
DR6 0.00 dB -7.47 dB 3:11 09-Red-Suited Super Man
DR8 0.00 dB -10.41 dB 3:47 10-When You Wish Upon A Star
DR6 0.00 dB -9.29 dB 3:28 11-We Three Kings
DR8 0.00 dB -11.87 dB 4:24 12-Silent Night
DR6 0.00 dB -9.20 dB 3:47 13-Auld Lang Syne
DR6 0.00 dB -10.50 dB 4:17 14-What Child Is This
DR8 0.00 dB -9.91 dB 3:41 15-The Christmas Song (Chestnuts Roasting On An Open Fire)
DR7 -0.25 dB -9.99 dB 3:24 16-Silver Bells
––––––––––––––––––––––––––––––––––––––––

Number of tracks: 16
Official DR value: DR7

Samplerate: 44100 Hz
Channels: 2
Bits per sample: 16
Bitrate: 835 kbps
Codec: FLAC

CUETools Log
[CUETools log; Date: 24.12.2016 13:45:42; Version: 2.1.4]
Pregap length 00:00:15.
[CTDB TOCID: 0xPXa7cmefMsXt9.dxqeUsMIw58-] found.
Track | CTDB Status
1 | (36/37) Accurately ripped
2 | (36/37) Accurately ripped
3 | (36/37) Accurately ripped
4 | (36/37) Accurately ripped
5 | (36/37) Accurately ripped
6 | (36/37) Accurately ripped
7 | (36/37) Accurately ripped
8 | (36/37) Accurately ripped
9 | (36/37) Accurately ripped
10 | (36/37) Accurately ripped
11 | (36/37) Accurately ripped
12 | (36/37) Accurately ripped
13 | (35/37) Accurately ripped
14 | (36/37) Accurately ripped
15 | (36/37) Accurately ripped
16 | (36/37) Accurately ripped
[AccurateRip ID: 0020dddb-018c1f93-c50d7d10] found.
Track [ CRC | V2 ] Status
01 [624f487e|cc543d4c] (04+52/56) Accurately ripped
02 [10dce7c3|d3dc21e8] (04+52/56) Accurately ripped
03 [861e3c9d|0dd22b64] (04+52/56) Accurately ripped
04 [0e871169|4b6a1a36] (04+53/57) Accurately ripped
05 [af4aefb5|02383416] (04+52/56) Accurately ripped
06 [07074e18|de405d38] (04+52/56) Accurately ripped
07 [27039681|3eb52f4d] (04+53/57) Accurately ripped
08 [bd5829f0|1d427163] (04+53/57) Accurately ripped
09 [1330ab05|31b28178] (04+53/57) Accurately ripped
10 [7843485e|328ca346] (04+53/57) Accurately ripped
11 [c75d4e08|9ab8ce1f] (04+53/57) Accurately ripped
12 [6d94ffa5|5ffbde95] (04+53/57) Accurately ripped
13 [2f76eee0|1b312d78] (04+53/57) Accurately ripped
14 [8bd5b87e|10692ffa] (04+53/57) Accurately ripped
15 [eaafe5e4|7952bdcd] (04+53/57) Accurately ripped
16 [52b3600b|1fe4b158] (04+52/56) Accurately ripped

Track Peak [ CRC32 ] [W/O NULL] [ LOG ]
– 100,0 [3974E347] [1EDF6463] CRC32
01 100,0 [71BB9B1D] [27F9798F]
02 100,0 [3E0BC558] [03D8D552]
03 100,0 [7F7F5F74] [C5CA770E]
04 100,0 [04704B31] [9AC45E5E]
05 100,0 [A42EAB19] [F14842D1]
06 100,0 [F14D58F2] [0CA6E3F8]
07 100,0 [EB85618B] [325A28B7]
08 100,0 [BC9FD7E0] [1120B824]
09 100,0 [46316835] [6B88F691]
10 100,0 [F63AC9F3] [4050E522]
11 100,0 [5F7249E9] [0F54D27A]
12 100,0 [DFDDFECC] [E8EE4871]
13 100,0 [78D0BD0E] [07038342]
14 100,0 [9BD05C7C] [6D1FC617]
15 100,0 [BFC380F4] [42766463]
16 97,1 [240FD29C] [66A1EE87]

Rod Stewart - Merry Christmas, Baby (2012) [Limited Edition]

All thanks go to the original releaser

Rod Stewart in my Blog

Download Rod Stewart – Merry Christmas, Baby (2012):

Rod Stewart – Merry Christmas, Baby (2012) [Limited Edition] Download, Warez, DDL, Free, Full Album, Torrent, Legal.

Download


  • Recent Posts

  • Recent Tags