Robin Trower – In The Line Of Fire (1990)

Download
Robin Trower - In The Line Of Fire (1990)

Robin Trower – In The Line Of Fire (1990)
EAC Rip | FLAC (Tracks) + Cue + Log + m3u ~ 331 Mb | MP3 CBR320 ~ 118 Mb
Scans Included (JPG, 400 dpi) | RAR 5% Recovery
Rock, Blues Rock | Atlantic #7567-82080-2

Robin Trower is an English rock guitarist and vocalist who achieved success with Procol Harum during the 1960s, and then again as the bandleader of his own power trio. In the Line of Fire is the fourteenth studio album by Robin Trower, and the third to feature Davey Pattison on lead vocals. The song "Isn’t It Time" was originally recorded by the English group The Babys in 1977 and released on their album Broken Heart.

Official Website | Wiki | Discogs | All Music

***************

Robin Trower - In The Line Of Fire (1990)

Robin Trower - In The Line Of Fire (1990)

Track List:

01. Sea Of Love [4:03]
02. Under The Gun [3:55]
03. Turn The Volume Up [3:48]
04. Natural Fact [4:45]
05. If You Really Want To Find Love [4:25]
06. Ev’ry Body’s Watching You Now [4:28]
07. Isn’t It Time [3:28]
08. (I Would) Still Be Here For You [3:56]
09. All That I Want [4:32]
10. (Let’s) Turn This Fight Into A Brawl [3:47]
11. Climb Above The RoofTops [4:14]

Personnel:
Robin Trower – guitar
Davey Pattison – vocals
John Regan – bass
Tony Beard – drums
Bobby Mayo – keyboards

Guests:
Matt Noble – keyboards on "Under the Gun"
Bashiri Johnson – percussion
Peppy Castro – background vocals
Al Fritsch – background vocals

EAC Log
Exact Audio Copy V1.1 from 23. June 2015

EAC extraction logfile from 27. June 2017, 16:06

Robin Trower / In The Line Of Fire

Used drive : HL-DT-STDVD-RAM GH22NP20 Adapter: 1 ID: 0

Read mode : Secure
Utilize accurate stream : Yes
Defeat audio cache : Yes
Make use of C2 pointers : No

Read offset correction : 102
Overread into Lead-In and Lead-Out : No
Fill up missing offset samples with silence : Yes
Delete leading and trailing silent blocks : No
Null samples used in CRC calculations : Yes
Used interface : Native Win32 interface for Win NT & 2000
Gap handling : Appended to previous track

Used output format : User Defined Encoder
Selected bitrate : 128 kBit/s
Quality : High
Add ID3 tag : No
Command line compressor : C:Program FilesExact Audio CopyFlacflac.exe
Additional command line options : -V -8 -T "Genre=%genre%" -T "Artist=%artist%" -T "Title=%title%" -T "Album=%albumtitle%" -T "Date=%year%" -T "Tracknumber=%tracknr%" -T "Comment=%comment%" %source%

TOC of the extracted CD

Track | Start | Length | Start sector | End sector
––––––––––––––––––––––––––––-
1 | 0:00.00 | 4:03.17 | 0 | 18241
2 | 4:03.17 | 3:54.48 | 18242 | 35839
3 | 7:57.65 | 3:48.35 | 35840 | 52974
4 | 11:46.25 | 4:44.52 | 52975 | 74326
5 | 16:31.02 | 4:25.03 | 74327 | 94204
6 | 20:56.05 | 4:28.35 | 94205 | 114339
7 | 25:24.40 | 3:27.57 | 114340 | 129921
8 | 28:52.22 | 3:56.30 | 129922 | 147651
9 | 32:48.52 | 4:32.15 | 147652 | 168066
10 | 37:20.67 | 3:46.63 | 168067 | 185079
11 | 41:07.55 | 4:14.12 | 185080 | 204141

Track 1

Filename D:alexbras1990 Robin Trower – In The Line Of Fire (1990 Germany Atlantic 7567-82080-2)1 Sea Of Love.wav

Pre-gap length 0:00:02.00

Peak level 97.7 %
Extraction speed 1.5 X
Track quality 100.0 %
Test CRC 702AB0FC
Copy CRC 702AB0FC
Accurately ripped (confidence 6) [5F3E3ECC] (AR v2)
Copy OK

Track 2

Filename D:alexbras1990 Robin Trower – In The Line Of Fire (1990 Germany Atlantic 7567-82080-2)2 Under The Gun.wav

Pre-gap length 0:00:01.20

Peak level 97.7 %
Extraction speed 1.6 X
Track quality 100.0 %
Test CRC F5FDB27E
Copy CRC F5FDB27E
Accurately ripped (confidence 6) [49FE2314] (AR v2)
Copy OK

Track 3

Filename D:alexbras1990 Robin Trower – In The Line Of Fire (1990 Germany Atlantic 7567-82080-2)3 Turn The Volume Up.wav

Pre-gap length 0:00:00.05

Peak level 100.0 %
Extraction speed 1.8 X
Track quality 100.0 %
Test CRC 910636C7
Copy CRC 910636C7
Accurately ripped (confidence 6) [5ABA942A] (AR v2)
Copy OK

Track 4

Filename D:alexbras1990 Robin Trower – In The Line Of Fire (1990 Germany Atlantic 7567-82080-2)4 Natural Fact.wav

Pre-gap length 0:00:00.23

Peak level 100.0 %
Extraction speed 2.0 X
Track quality 100.0 %
Test CRC FCD49C5B
Copy CRC FCD49C5B
Accurately ripped (confidence 6) [D5346BC9] (AR v2)
Copy OK

Track 5

Filename D:alexbras1990 Robin Trower – In The Line Of Fire (1990 Germany Atlantic 7567-82080-2)5 If You Really Want To Find Love.wav

Pre-gap length 0:00:01.57

Peak level 92.1 %
Extraction speed 2.2 X
Track quality 100.0 %
Test CRC 790CBC3B
Copy CRC 790CBC3B
Accurately ripped (confidence 6) [5FDB6530] (AR v2)
Copy OK

Track 6

Filename D:alexbras1990 Robin Trower – In The Line Of Fire (1990 Germany Atlantic 7567-82080-2)6 Ev’ry Body’s Watching You Now.wav

Pre-gap length 0:00:00.73

Peak level 100.0 %
Extraction speed 2.3 X
Track quality 100.0 %
Test CRC E11D37A8
Copy CRC E11D37A8
Accurately ripped (confidence 6) [5825EC1A] (AR v2)
Copy OK

Track 7

Filename D:alexbras1990 Robin Trower – In The Line Of Fire (1990 Germany Atlantic 7567-82080-2)7 Isn’t It Time.wav

Pre-gap length 0:00:00.03

Peak level 100.0 %
Extraction speed 2.3 X
Track quality 100.0 %
Test CRC 5CD7CA54
Copy CRC 5CD7CA54
Accurately ripped (confidence 6) [B1F0CA72] (AR v2)
Copy OK

Track 8

Filename D:alexbras1990 Robin Trower – In The Line Of Fire (1990 Germany Atlantic 7567-82080-2)8 (I Would) Still Be Here For You.wav

Pre-gap length 0:00:00.50

Peak level 96.3 %
Extraction speed 2.2 X
Track quality 99.9 %
Test CRC 8E03D2E1
Copy CRC 8E03D2E1
Accurately ripped (confidence 6) [C3919999] (AR v2)
Copy OK

Track 9

Filename D:alexbras1990 Robin Trower – In The Line Of Fire (1990 Germany Atlantic 7567-82080-2)9 All That I Want.wav

Pre-gap length 0:00:01.50

Peak level 100.0 %
Extraction speed 2.6 X
Track quality 100.0 %
Test CRC C39014AB
Copy CRC C39014AB
Accurately ripped (confidence 6) [91385999] (AR v2)
Copy OK

Track 10

Filename D:alexbras1990 Robin Trower – In The Line Of Fire (1990 Germany Atlantic 7567-82080-2)10 (Let’s) Turn This Fight Into A Brawl.wav

Pre-gap length 0:00:01.35

Peak level 100.0 %
Extraction speed 2.6 X
Track quality 100.0 %
Test CRC E0674F76
Copy CRC E0674F76
Accurately ripped (confidence 6) [FE4B3974] (AR v2)
Copy OK

Track 11

Filename D:alexbras1990 Robin Trower – In The Line Of Fire (1990 Germany Atlantic 7567-82080-2)11 Climb Above The RoofTops.wav

Pre-gap length 0:00:02.08

Peak level 100.0 %
Extraction speed 2.8 X
Track quality 100.0 %
Test CRC F39C5E18
Copy CRC F39C5E18
Accurately ripped (confidence 6) [1FC5FD05] (AR v2)
Copy OK

All tracks accurately ripped

No errors occurred

End of status report

–– CUETools DB Plugin V2.1.6

[CTDB TOCID: BmV4Lo4msPqi1uEWcTBuzeRk7t0-] found
Submit result: BmV4Lo4msPqi1uEWcTBuzeRk7t0- has been confirmed
Track | CTDB Status
1 | (7/7) Accurately ripped
2 | (7/7) Accurately ripped
3 | (7/7) Accurately ripped
4 | (7/7) Accurately ripped
5 | (7/7) Accurately ripped
6 | (7/7) Accurately ripped
7 | (7/7) Accurately ripped
8 | (7/7) Accurately ripped
9 | (7/7) Accurately ripped
10 | (7/7) Accurately ripped
11 | (7/7) Accurately ripped

==== Log checksum 1350FBB1CFEFC63304BEE39E59D008ABEF71F229D39A09833F0FEA317B6E60FE ====

DR Log
foobar2000 1.2.6 / Dynamic Range Meter 1.1.1
log date: 2017-07-31 23:36:54

––––––––––––––––––––––––––––––––––––––––
Analyzed: Robin Trower / In The Line Of Fire
––––––––––––––––––––––––––––––––––––––––

DR Peak RMS Duration Track
––––––––––––––––––––––––––––––––––––––––
DR12 -0.20 dB -13.75 dB 4:03 01-Sea Of Love
DR12 -0.20 dB -13.69 dB 3:55 02-Under The Gun
DR13 0.00 dB -14.46 dB 3:48 03-Turn The Volume Up
DR12 0.00 dB -13.88 dB 4:45 04-Natural Fact
DR12 -0.71 dB -14.77 dB 4:25 05-If You Really Want To Find Love
DR12 0.00 dB -14.19 dB 4:28 06-Ev’ry Body’s Watching You Now
DR13 0.00 dB -15.17 dB 3:28 07-Isn’t It Time
DR13 -0.33 dB -15.44 dB 3:56 08-(I Would) Still Be Here For You
DR12 0.00 dB -15.13 dB 4:32 09-All That I Want
DR13 0.00 dB -14.76 dB 3:47 10-(Let’s) Turn This Fight Into A Brawl
DR12 0.00 dB -14.15 dB 4:14 11-Climb Above The RoofTops
––––––––––––––––––––––––––––––––––––––––

Number of tracks: 11
Official DR value: DR12

Samplerate: 44100 Hz
Channels: 2
Bits per sample: 16
Bitrate: 944 kbps
Codec: FLAC
================================================================================

CUETools Log
[CUETools log; Date: 31.07.2017 23:37:18; Version: 2.1.5]
[CTDB TOCID: BmV4Lo4msPqi1uEWcTBuzeRk7t0-] found.
Track | CTDB Status
1 | (8/8) Accurately ripped
2 | (8/8) Accurately ripped
3 | (8/8) Accurately ripped
4 | (8/8) Accurately ripped
5 | (8/8) Accurately ripped
6 | (8/8) Accurately ripped
7 | (8/8) Accurately ripped
8 | (8/8) Accurately ripped
9 | (8/8) Accurately ripped
10 | (8/8) Accurately ripped
11 | (8/8) Accurately ripped
[AccurateRip ID: 0012b058-00a22a40-a20aa10b] found.
Track [ CRC | V2 ] Status
01 [aff4f731|5f3e3ecc] (2+6/8) Accurately ripped
02 [fd76f554|49fe2314] (2+6/8) Accurately ripped
03 [9dbdc466|5aba942a] (2+6/8) Accurately ripped
04 [4186bf53|d5346bc9] (2+6/8) Accurately ripped
05 [34ab3e25|5fdb6530] (2+6/8) Accurately ripped
06 [24b477b4|5825ec1a] (2+6/8) Accurately ripped
07 [197fb80c|b1f0ca72] (2+6/8) Accurately ripped
08 [9fe56c1a|c3919999] (2+6/8) Accurately ripped
09 [c2b8c7ea|91385999] (2+6/8) Accurately ripped
10 [544f9162|fe4b3974] (2+6/8) Accurately ripped
11 [42a70e33|1fc5fd05] (2+6/8) Accurately ripped

Track Peak [ CRC32 ] [W/O NULL] [ LOG ]
– 100,0 [1E4E1E15] [A9789653]
01 97,7 [702AB0FC] [3D4D81FB] CRC32
02 97,7 [F5FDB27E] [45BD7B6B] CRC32
03 100,0 [910636C7] [CBB7F97A] CRC32
04 100,0 [FCD49C5B] [15C4BD1B] CRC32
05 92,1 [790CBC3B] [E0BAFD70] CRC32
06 100,0 [E11D37A8] [52F334A3] CRC32
07 100,0 [5CD7CA54] [6F9BD160] CRC32
08 96,3 [8E03D2E1] [17510F3D] CRC32
09 100,0 [C39014AB] [048AA4BE] CRC32
10 100,0 [E0674F76] [9C2B8710] CRC32
11 100,0 [F39C5E18] [7D9568DD] CRC32

Robin Trower - In The Line Of Fire (1990)

All thanks go to alex1248

>>> Robin Trower in y Blog <<<

Download from icerbox.com:

Robin Trower – In The Line Of Fire (1990) Download, Warez, DDL, Free, Full Album, Torrent, Legal.

Download