Roberto Abbado, Orchestra of the Teatro Comunale di Bologna – Rossini: Mose in Egitto (2012) [Blu-Ray]

Download
Roberto Abbado, Orchestra of the Teatro Comunale di Bologna - Rossini: Mose in Egitto (2012) [Blu-Ray]

Rossini – Mosè in Egitto (Roberto Abbado) (2012) [Blu-Ray]
BluRay | BDMV | MPEG-4 AVC Video / 28683 kbps / 1080i / 29,970 fps | 152 min | 43,2 Gb
Audio1: Italian / LPCM Audio / 2.0 / 24-bit | Audio2: Italian / DTS-HD MA 5.1 / 48 kHz / 3857 kbps / 24-bit

BluRay-rip | AVC | MKV 1920×1080 / 6215 kbps / 29,97 fps | 152 min | 8,29 Gb
Audio: Italian / DTS / 6ch / 48.0 KHz / 24 bits
Classical | OPUS ARTE | Sub: English, French, German

This thought-provoking, modern-day interpretation of Rossini’s “Mosè in Egitto” sets the scene for superior music-making at the prestigious Rossini Festival in Pesaro. For conductor Roberto Abbado, the transposition of the action to the present day releases the energy of Rossini’s music. At his disposal is a cast of top-quality vocalists such as the “refined bel canto artist” (Bresciaoggi) Sonia Ganassi as Elcia, and the “outstanding” Dmitry Korchak as the Pharaoh’s son, two lovers fatefully drawn into the political turmoil and catastrophes of their time. Also among the protagonists are the “thoroughly brilliant” (DeutschlandRadio Kultur) baritone Alex Esposito as Faraone and, in his Rossini Festival debut, young, full-bodied bass Riccardo Zanellato as Moses. Conductor Roberto Abbado “inspired his musicians to deliver a spectacular performance” (Salzburger Nachrichten).

Cast:
Mosè – Riccardo Zanellato
Faraone – Alex Esposito
Amaltea – Olga Senderskaya
Osiride – Dmitry Korchak
Elcia – Sonia Ganassi
Aronne – Yijie Shi
Mambre – Enea Scala
Amenofi – Chiara Amarù
Orchestra and Chorus of the Teatro Comunale di Bologna
Conductor – Roberto Abbado

BDInfo
Disc Title: MOSE_IN_EGITTO
Disc Size: 46 420 343 270 bytes
Protection: AACS
BD-Java: No
Playlist: 00002.MPLS
Size: 42 237 186 048 bytes
Length: 2:32:59.203
Total Bitrate: 36,81 Mbps
Video: MPEG-4 AVC Video / 28683 kbps / 1080i / 29,970 fps / 16:9 / High Profile 4.1
Audio: Italian / DTS-HD Master Audio / 5.1 / 48 kHz / 3857 kbps / 24-bit (DTS Core: 5.1 / 48 kHz / 1509 kbps / 24-bit)
Audio: Italian / LPCM Audio / 2.0 / 48 kHz / 2304 kbps / 24-bit
Subtitle: English / 17,029 kbps
Subtitle: French / 16,380 kbps
Subtitle: German / 19,420 kbps

MediaInfo
General
Unique ID : 210628275179023167245088786982538960764 (0x9E7587BD2A740EEE9C301B8826FDDF7C)
Complete name : C:Mose_in_Egitto.mkv
Format : Matroska
Format version : Version 2
File size : 8.29 GiB
Duration : 2h 32mn
Overall bit rate : 7 762 Kbps
Movie name : Mose_in_Egitto
Encoded date : UTC 2017-07-11 12:52:37
Writing application : DVDFab 9.1.6.8
Writing library : libebml v0.7.8 + libmatroska v0.8.1

Video
ID : 1
Format : AVC
Format/Info : Advanced Video Codec
Format profile : High@L4.1
Format settings, CABAC : Yes
Format settings, ReFrames : 2 frames
Codec ID : V_MPEG4/ISO/AVC
Duration : 2h 32mn
Bit rate : 6 215 Kbps
Width : 1 920 pixels
Height : 1 080 pixels
Display aspect ratio : 16:9
Frame rate mode : Constant
Frame rate : 29.970 fps
Color space : YUV
Chroma subsampling : 4:2:0
Bit depth : 8 bits
Scan type : Progressive
Bits/(Pixel*Frame) : 0.100
Stream size : 6.52 GiB (79%)
Writing library : x264 core 142
Encoding settings : cabac=1 / ref=1 / deblock=1:-1:-1 / analyse=0x3:0 / me=hex / subme=5 / psy=0 / mixed_ref=0 / me_range=16 / chroma_me=1 / trellis=0 / 8x8dct=1 / cqm=0 / deadzone=21,11 / fast_pskip=1 / chroma_qp_offset=0 / threads=8 / lookahead_threads=2 / sliced_threads=0 / nr=0 / decimate=1 / interlaced=0 / bluray_compat=0 / constrained_intra=0 / bframes=2 / b_pyramid=0 / b_adapt=1 / b_bias=0 / direct=1 / weightb=1 / open_gop=0 / weightp=0 / keyint=24 / keyint_min=13 / scenecut=40 / intra_refresh=0 / rc=abr / mbtree=0 / bitrate=6215 / ratetol=1.0 / qcomp=0.60 / qpmin=0 / qpmax=69 / qpstep=4 / ip_ratio=1.40 / pb_ratio=1.30 / aq=1:1.00
Default : Yes
Forced : No
Color primaries : BT.709
Transfer characteristics : BT.709
Matrix coefficients : BT.709
Color range : Limited

Audio
ID : 2
Format : DTS
Format/Info : Digital Theater Systems
Mode : 16
Format settings, Endianness : Big
Codec ID : A_DTS
Duration : 2h 32mn
Bit rate mode : Constant
Bit rate : 1 509 Kbps
Channel(s) : 6 channels
Channel positions : Front: L C R, Side: L R, LFE
Sampling rate : 48.0 KHz
Bit depth : 24 bits
Compression mode : Lossy
Stream size : 1.61 GiB (19%)
Language : Italian
Default : Yes
Forced : No

Text #1
ID : 3
Format : VobSub
Codec ID : S_VOBSUB
Codec ID/Info : The same subtitle format used on DVDs
Language : English
Default : Yes
Forced : No

Text #2
ID : 4
Format : VobSub
Codec ID : S_VOBSUB
Codec ID/Info : The same subtitle format used on DVDs
Language : French
Default : No
Forced : No

Text #3
ID : 5
Format : VobSub
Codec ID : S_VOBSUB
Codec ID/Info : The same subtitle format used on DVDs
Language : German
Default : No
Forced : No

Menu
00:00:00.000 : en:Chapter 01
00:02:07.694 : en:Chapter 02
00:10:06.572 : en:Chapter 03
00:13:46.192 : en:Chapter 04
00:16:21.046 : en:Chapter 05
00:21:03.028 : en:Chapter 06
00:26:34.259 : en:Chapter 07
00:31:11.803 : en:Chapter 08
00:40:08.873 : en:Chapter 09
00:44:46.750 : en:Chapter 10
00:50:54.251 : en:Chapter 11
00:54:25.028 : en:Chapter 12
00:58:58.101 : en:Chapter 13
01:04:10.279 : en:Chapter 14
01:07:52.935 : en:Chapter 15
01:12:29.712 : en:Chapter 16
01:19:34.703 : en:Chapter 17
01:21:24.346 : en:Chapter 18
01:22:41.756 : en:Chapter 19
01:30:03.798 : en:Chapter 20
01:34:10.878 : en:Chapter 21
01:38:01.342 : en:Chapter 22
01:41:22.543 : en:Chapter 23
01:45:37.831 : en:Chapter 24
01:48:46.186 : en:Chapter 25
01:51:47.834 : en:Chapter 26
01:53:30.103 : en:Chapter 27
01:58:59.999 : en:Chapter 28
02:09:05.037 : en:Chapter 29
02:12:39.651 : en:Chapter 30
02:18:13.018 : en:Chapter 31
02:20:15.940 : en:Chapter 32
02:24:14.212 : en:Chapter 33

All screenshots taken from BDRip

Roberto Abbado, Orchestra of the Teatro Comunale di Bologna - Rossini: Mose in Egitto (2012) [Blu-Ray]

Roberto Abbado, Orchestra of the Teatro Comunale di Bologna – Rossini: Mose in Egitto (2012) [Blu-Ray] Download, Warez, DDL, Free, Full Album, Torrent, Legal.

Download