Robert Lamm – The Bossa Project (2008) [Digipak]

Download
Robert Lamm - The Bossa Project (2008) [Digipak]

Robert Lamm – The Bossa Project (2008) [Digipak]
EAC Rip | FLAC: Image+Cue+Log | 242 Mb | MP3 CBR 320 kbps | 100 Mb | Scans | Time: 41:42
Blue Infinity | 70026124098
Bossa Nova, Contemporary Jazz, Jazz-Pop

Although Robert Lamm, singer/songwriter/pianist of Chicago, has revealed a taste for Latin music among many other styles in his songs (e.g., "Another Rainy Day in New York City"), this solo album is a considerable departure for him. It is what it says it is, a collection of bossa nova arrangements on which Lamm serves as singer. The other major force in the project is John Van Eps, who plays piano, percussion, bass, and "orchestral programming," in addition to arranging and producing.

Robert Lamm - The Bossa Project (2008) [Digipak]
Robert Lamm
Wikipedia | Allmusic | Amazon

Track Listing

01. A Man And A Woman (03:15)
02. The Possibility Of Life (04:16)
03. Aguas De Marco (03:57)
04. Girl Talk (02:21)
05. Samba In Your Life (02:31)
06. Nice ‘N’ Easy (03:46)
07. Send Rain (04:00)
08. Speak Low (04:16)
09. Haute Girl (03:36)
10. Girl Talk (JVE Remix) (03:25)
11. Nice ‘N’ Easy (JVE Remix) (03:14)
12. Samba In Your Life (JVE Remix) (03:06)

Produced by John Van Eps

Personnel

• John Van Eps – Piano, Percussion, Bass, Orchestral Programming
• Robert Lamm – Vocal
• Ross Traut – Guitar
• Larry Klimas – Alto and Tenor Saxophone
• Ze Luis – Flute
• Dave Samuels – Vibraphone

EAC Log
Exact Audio Copy V0.99 prebeta 4 from 23. January 2008

Отчёт EAC об извлечении, выполненном 14. января 2010, 20:17

Robert Lamm / The Bossa Project

Дисковод: PLEXTOR DVDR PX-800A Adapter: 0 ID: 0

Режим чтения : Достоверность
Использование точного потока : Да
Отключение кэша аудио : Да
Использование указателей C2 : Нет

Коррекция смещения при чтении : 48
Способность читать области Lead-in и Lead-out : Нет
Заполнение пропущенных сэмплов тишиной : Да
Удаление блоков с тишиной в начале и конце : Нет
При вычислениях CRC использовались нулевые сэмплы : Да
Интерфейс : Встроенный Win32-интерфейс для Win NT/2000

Выходной формат : Внутренние WAV-операции
Формат сэмплов : 44.100 Гц; 16 бит; стерео

TOC извлечённого CD

Трек | Старт | Длительность | Начальный сектор | Конечный сектор
––––––––––––––––––––––––––––––––––-
1 | 0:00.00 | 3:15.02 | 0 | 14626
2 | 3:15.02 | 4:15.35 | 14627 | 33786
3 | 7:30.37 | 3:57.00 | 33787 | 51561
4 | 11:27.37 | 2:20.33 | 51562 | 62094
5 | 13:47.70 | 2:30.59 | 62095 | 73403
6 | 16:18.54 | 3:46.32 | 73404 | 90385
7 | 20:05.11 | 3:59.57 | 90386 | 108367
8 | 24:04.68 | 4:15.58 | 108368 | 127550
9 | 28:20.51 | 3:36.30 | 127551 | 143780
10 | 31:57.06 | 3:24.49 | 143781 | 159129
11 | 35:21.55 | 3:14.25 | 159130 | 173704
12 | 38:36.05 | 3:05.36 | 173705 | 187615

Характеристики диапазона извлечения и сообщения об ошибках

Выбранный диапазон

Имя файла D:LosslessRobert Lamm – The Bossa ProjectRobert Lamm – The Bossa Project.wav

Пиковый уровень 97.1 %
Качество диапазона 100.0 %
CRC копии AAAFA69C
Копирование… OK

Ошибок не произошло

Конец отчёта

Many thanks to the original uploader: SerBlues

SEE also:
Chicago 2003 A&E Network. Live By Request [DVD]
Chicago And Earth, Wind & Fire 2004 Live At The Greek Theatre [2DVD Set]
Chicago 2012 The Studio Albums 1969-1978 [10CD Box Set]

CTA (California Transit Authority) 2013 Sacred Ground

David Foster & Friends 2011 Hit Man Returns [DVD]

Jason Scheff 1997 Chauncy [Japanese Ed.]

Peter Cetera 1981 Peter Cetera [Japanese Ed. 1990]
Peter Cetera 1986 Solitude/Solitaire [Japanese Ed. 2010]
Peter Cetera 1988 One More Story [Canada 1st Press]
Peter Cetera 1992 World Falling Down
Peter Cetera 1995 One Clear Voice
Peter Cetera 2001 Another Perfect World [Japanese Ed.]
Peter Cetera 2003 Live In Concert… [Blu-ray]
Peter Cetera 2004 Live! [DVD]

Robert Lamm 1974 Skinny Boy [Reissue 1995]
Robert Lamm 1995 Life Is Good In My Neighborhood
Robert Lamm 1999 In My Head
Robert Lamm 2003 Subtlety & Passion [Digipak]
Robert Lamm 2004 Too Many Voices [Digipak]
Robert Lamm 2012 Living Proof [Digipak]

……
Welcome to My Blog for more wonderful music!
……

Robert Lamm – The Bossa Project (2008) [Digipak] Download, Warez, DDL, Free, Full Album, Torrent, Legal.

Tags:

  • Robert Lamm Songs: The JVE ReMixes 320 KBPS
Download