Robert Dick – Our Cells Know (2016) {Tzadik TZ 4015}

Download
Robert Dick - Our Cells Know (2016) {Tzadik TZ 4015}

Robert Dick – Our Cells Know (2016) {Tzadik TZ 4015}
EAC rip (secure mode) | FLAC (tracks)+CUE+LOG -> 241 Mb | MP3 @320 -> 113 Mb
Full Artwork @ 600 dpi (png) -> 307 Mb | 5% repair rar
© 2016 Tzadik | TZ 4015 | Tzadik Spectrum Series
Jazz / Classical / Avant-Garde Jazz / Chamber Music / Modern Composition / Contrabass Flute

A true revolutionary, composer/performer/improviser Robert Dick has literally redefined the flute for our age. He has worked with a wide range of musicians from classical, jazz and improvised music backgrounds including Steve Lacy, Evan Parker, George Lewis and many others. Here he focuses in on the elusive contrabass flute, and uses a wide range of extended techniques including multiphonics, percussive effects, circular breathing and more! A unique and heartfelt CD of modern flute music unlike anything you have heard before!

Robert Dick - Our Cells Know (2016) {Tzadik TZ 4015}

In April, 2014, John Zorn organized a memorial concert for Stephanie Stone at the Stone in New York. Inspired by Stephanie’s warmth and generosity of spirit – her first words were always to ask after my partner and children — I wanted to make something really special in her honor and created an improvisational piece on the contrabass flute. Shortly afterwards, John asked me to make this CD. I had originally thought of playing on a variety of flutes, but John kept encouraging me to focus on the contrabass. His vision was for me to go deeper into the deepest flute than ever and to break through to new musical terrains. I must admit I didn’t think I could do an entire CD on the contrabass and the recording session was a true voyage of discovery, for which I thank John profoundly. Our Cells Know is the best, most original solo improvising I have ever done!

Thanks also to Ned Rothenberg for his supportive, clear eared presence in the studio and to James Dellatacoma, who engineered and got the recorded sound of my dreams. And thanks and deepest love to my daughter Leonie Schlicht, who made the paintings on the front and back covers.

Robert Dick - Our Cells Know (2016) {Tzadik TZ 4015}

Improvisation has been central to my musical life since childhood. Rather than write pieces for this CD, I just practiced on my low flutes and allowed myself to go where the music wanted. I’m unconcerned with expectations of what a flute should sound like and what a flutist should play. To me, all instruments can be treated as human-powered synthesizers, embracing their traditions but not enslaved to them.

In this music, I have striven to be my most essential self. I thought of myself very little while playing, letting the music speak as unselfconsciously as possible. The contrabass flute offers expanded sonic dimensions in several ways, especially in its extraordinarily rich tone, husky down low and contralto up high, and its amazing percussive realms and surprising rhythmic impact. This is surely the first flute recording of any kind with a piece dedicated to the great rock drummer Ginger Baker, one of my musical heroes.

Robert Dick - Our Cells Know (2016) {Tzadik TZ 4015}

Personnel:
Robert Dick: Contrabass Flute

tracklist:
01 – Mitochondrial Ballet
02 – Aura Aurora
03 – Afterimage, Before (for Ginger Baker)
04 – Efflorescence
05 – On The Restless Seas Of Time
06 – Our Cells Know (for Stephanie Stone)

EAC log
Exact Audio Copy V1.1 from 23. June 2015

EAC extraction logfile from 5. February 2017, 22:44

Robert Dick / Our Cells Know

Used drive : TSSTcorpCDDVDW SE-208DB Adapter: 1 ID: 1

Read mode : Secure
Utilize accurate stream : Yes
Defeat audio cache : Yes
Make use of C2 pointers : No

Read offset correction : 6
Overread into Lead-In and Lead-Out : No
Fill up missing offset samples with silence : Yes
Delete leading and trailing silent blocks : No
Null samples used in CRC calculations : Yes
Used interface : Native Win32 interface for Win NT & 2000
Gap handling : Appended to previous track

Used output format : User Defined Encoder
Selected bitrate : 1024 kBit/s
Quality : High
Add ID3 tag : No
Command line compressor : C:Program Files (x86)FLAC Frontendtoolsflac.exe
Additional command line options : -8 -V -T "ARTIST=%artist%" -T "TITLE=%title%" -T "ALBUM=%albumtitle%" -T "DATE=%year%" -T "TRACKNUMBER=%tracknr%" -T "TOTALTRACKS=%numtracks%" -T "GENRE=%genre%" -T "ALBUMARTIST=%albumartist%" -T "ALBUM ARTIST=%albumartist%" -T "COMMENT=EAC Secure Mode, Test & Copy, AccurateRip, FLAC -8" %source%

TOC of the extracted CD

Track | Start | Length | Start sector | End sector
––––––––––––––––––––––––––––-
1 | 0:00.00 | 6:44.47 | 0 | 30346
2 | 6:44.47 | 5:34.10 | 30347 | 55406
3 | 12:18.57 | 6:44.38 | 55407 | 85744
4 | 19:03.20 | 8:25.38 | 85745 | 123657
5 | 27:28.58 | 12:22.22 | 123658 | 179329
6 | 39:51.05 | 8:11.02 | 179330 | 216156

Track 1

Filename D:_EACRobert Dick – Our Cells Know (2016) [FLAC] {Tzadik TZ 4015}1 – Mitochondrial Ballet.wav

Pre-gap length 0:00:02.00

Peak level 91.7 %
Extraction speed 1.1 X
Track quality 100.0 %
Test CRC DAD2DF47
Copy CRC DAD2DF47
Track not present in AccurateRip database
Copy OK

Track 2

Filename D:_EACRobert Dick – Our Cells Know (2016) [FLAC] {Tzadik TZ 4015}2 – Aura Aurora.wav

Peak level 90.0 %
Extraction speed 1.2 X
Track quality 100.0 %
Test CRC 6827EB63
Copy CRC 6827EB63
Track not present in AccurateRip database
Copy OK

Track 3

Filename D:_EACRobert Dick – Our Cells Know (2016) [FLAC] {Tzadik TZ 4015}3 – Afterimage, Before (for Ginger Baker).wav

Peak level 93.3 %
Extraction speed 1.3 X
Track quality 100.0 %
Test CRC 3D815510
Copy CRC 3D815510
Track not present in AccurateRip database
Copy OK

Track 4

Filename D:_EACRobert Dick – Our Cells Know (2016) [FLAC] {Tzadik TZ 4015}4 – Efflorescence.wav

Peak level 82.6 %
Extraction speed 1.5 X
Track quality 100.0 %
Test CRC 52DB13C9
Copy CRC 52DB13C9
Track not present in AccurateRip database
Copy OK

Track 5

Filename D:_EACRobert Dick – Our Cells Know (2016) [FLAC] {Tzadik TZ 4015}5 – On The Restless Seas Of Time.wav

Peak level 92.8 %
Extraction speed 1.7 X
Track quality 100.0 %
Test CRC E78A0333
Copy CRC E78A0333
Track not present in AccurateRip database
Copy OK

Track 6

Filename D:_EACRobert Dick – Our Cells Know (2016) [FLAC] {Tzadik TZ 4015}6 – Our Cells Know (for Stephanie Stone).wav

Peak level 89.9 %
Extraction speed 1.7 X
Track quality 99.9 %
Test CRC CB243766
Copy CRC CB243766
Track not present in AccurateRip database
Copy OK

None of the tracks are present in the AccurateRip database

No errors occurred

End of status report

==== Log checksum 7D41150D1A2E9FCAB181486D191C29A2DDBB04B473E3C95BCA0B438527A500F1 ====

Robert Dick - Our Cells Know (2016) {Tzadik TZ 4015}

Robert Dick - Our Cells Know (2016) {Tzadik TZ 4015}

More Tzadik…

NEXT -> More Tzadik on the way…

===

Robert Dick – Our Cells Know (2016) {Tzadik TZ 4015} Download, Warez, DDL, Free, Full Album, Torrent, Legal.

Download