Robben Ford – Tiger Walk (1997) [Re-Up]

Download
Robben Ford - Tiger Walk (1997) [Re-Up]

Robben Ford – Tiger Walk (1997)
EAC | FLAC | Image (Cue&Log) ~ 471 Mb | Mp3 (CBR320) ~ 189 Mb | Scans included | 01:04:08
Modern Electric Blues, Blues Rock, Jazz Rock, Jazz-Blues | Label: Blue Thumb/GRP | # BTR 70122

The first thing that comes to mind when listening to Tiger Walk is the pair of instrumental albums recorded by Jeff Beck in the mid-’70s, Blow by Blow and Wired. Like those two recordings, this outing showcases a fiery, inventive electric guitarist in a rock and jazz-rock setting. Robben Ford, known in recent years for his blues work with his band, the Blue Line, eschews vocals here, teaming up with keyboard funk master Bernie Worrell for some chunky, funky, wah-wah-laden grooves. This music, led by Ford’s blazing guitar lines, is more appropriately categorized as instrumental rock than jazz, but the rhythms recall James Brown and Worrell’s alma mater, the P-Funk gang, as often as they do those of a hard rock band. Tenor saxophonist Bob Malach turns in a couple of solid solos, and the rhythm section of drummer Steve Jordan and bassist Charlie Drayton cooks throughout.

Review by Jim Newsom, Allmusic.com

Robben Ford - Tiger Walk (1997) [Re-Up]

Robben Ford at Allmusic
Robben Ford Website
Robben Ford at Wiki

Tracklist:

01. In The Beginning (05:14)
02. Ghosts (05:27)
03. Freedom (06:43)
04. Red Lady W/ Cello (05:00)
05. Oasis (05:10)
06. Just Like It Is (03:07)
07. I Can’t Stand The Rain (03:31)
08. The Champ (05:12)
09. Tiger Walk (05:19)
10. Comin’ Up (04:54)
11. Don’t Let The Sun Catch You Crying (Bonus Track) (08:38)
12. Chevrolet (Bonus Track) (05:46)

EAC log
Exact Audio Copy V0.99 prebeta 5 from 4. May 2009

Отчёт EAC об извлечении, выполненном 19. декабря 2010, 23:20

Robben Ford / Tiger Walk

Дисковод: TEAC CD-W552G Adapter: 1 ID: 1

Режим чтения : Достоверность
Использование точного потока : Да
Отключение кэша аудио : Да
Использование указателей C2 : Нет

Коррекция смещения при чтении : 6
Способность читать области Lead-in и Lead-out : Нет
Заполнение пропущенных сэмплов тишиной : Да
Удаление блоков с тишиной в начале и конце : Нет
При вычислениях CRC использовались нулевые сэмплы : Да
Интерфейс : Установленный внешний ASPI-интерфейс

Выходной формат : Внутренние WAV-операции
Формат сэмплов : 44.100 Гц; 16 бит; стерео

TOC извлечённого CD

Трек | Старт | Длительность | Начальный сектор | Конечный сектор
––––––––––––––––––––––––––––––––––-
1 | 0:00.32 | 5:14.18 | 32 | 23599
2 | 5:14.50 | 5:27.15 | 23600 | 48139
3 | 10:41.65 | 6:43.55 | 48140 | 78419
4 | 17:25.45 | 5:00.45 | 78420 | 100964
5 | 22:26.15 | 5:10.57 | 100965 | 124271
6 | 27:36.72 | 3:07.55 | 124272 | 138351
7 | 30:44.52 | 3:31.25 | 138352 | 154201
8 | 34:16.02 | 5:12.65 | 154202 | 177666
9 | 39:28.67 | 5:19.03 | 177667 | 201594
10 | 44:47.70 | 4:54.65 | 201595 | 223709
11 | 49:42.60 | 8:38.42 | 223710 | 262601
12 | 58:21.27 | 5:46.58 | 262602 | 288609

Характеристики диапазона извлечения и сообщения об ошибках

Выбранный диапазон

Имя файла D:MusicCDTorrentRobben Ford – Tiger WalkRobben Ford – Tiger Walk.wav

Пиковый уровень 99.8 %
Качество диапазона 100.0 %
CRC теста C699767B
CRC копии C699767B
Копирование… OK

Ошибок не произошло

AccurateRip: сводка

Трек 1 точное извлечение (доверие 31) [263D44EA]
Трек 2 точное извлечение (доверие 31) [AC587172]
Трек 3 точное извлечение (доверие 31) [26C7CB57]
Трек 4 точное извлечение (доверие 30) [F45EDFEB]
Трек 5 точное извлечение (доверие 31) [9C5770F0]
Трек 6 точное извлечение (доверие 31) [259751DA]
Трек 7 точное извлечение (доверие 30) [4FCA0219]
Трек 8 точное извлечение (доверие 31) [2A8A2D37]
Трек 9 точное извлечение (доверие 30) [325A5C02]
Трек 10 точное извлечение (доверие 31) [2250D73B]
Трек 11 точное извлечение (доверие 31) [90092EDE]
Трек 12 точное извлечение (доверие 28) [C75B5849]

Все треки извлечены точно

Конец отчёта

DR log
foobar2000 1.2 / Dynamic Range Meter 1.1.1
log date: 2014-12-03 15:23:46

––––––––––––––––––––––––––––––––––––––––
Analyzed: Robben Ford / Tiger Walk
––––––––––––––––––––––––––––––––––––––––

DR Peak RMS Duration Track
––––––––––––––––––––––––––––––––––––––––
DR10 -0.01 dB -11.90 dB 5:14 01-In The Beginning
DR10 -0.01 dB -11.71 dB 5:27 02-Ghosts
DR12 -0.01 dB -14.69 dB 6:44 03-Freedom
DR11 -0.01 dB -12.69 dB 5:01 04-Red Lady W/ Cello
DR13 -0.01 dB -14.86 dB 5:11 05-Oasis
DR10 -0.01 dB -11.88 dB 3:08 06-Just Like It Is
DR12 -0.01 dB -14.23 dB 3:31 07-I Can’t Stand The Rain
DR11 -0.01 dB -12.67 dB 5:13 08-The Champ
DR12 -0.01 dB -15.42 dB 5:19 09-Tiger Walk
DR10 -0.01 dB -11.99 dB 4:55 10-Comin’ Up
DR15 -0.01 dB -19.00 dB 8:39 11-Don’t Let The Sun Catch You Crying (Bonus Track)
DR14 -0.01 dB -16.07 dB 5:47 12-Chevrolet (Bonus Track)
––––––––––––––––––––––––––––––––––––––––

Number of tracks: 12
Official DR value: DR12

Samplerate: 44100 Hz
Channels: 2
Bits per sample: 16
Bitrate: 934 kbps
Codec: FLAC
================================================================================

Robben Ford - Tiger Walk (1997) [Re-Up]

Robben Ford - Tiger Walk (1997) [Re-Up]

All thanks to original releaser – squirr

More Robben Ford music in My Blog

Robben Ford & The Blue Line – The Authorized Bootleg (1998)

Robben Ford – Tiger Walk (1997) [Re-Up] Download, Warez, DDL, Free, Full Album, Torrent, Legal.

Download