Richard Poole – Terrain (2003)

Download
Richard Poole - Terrain (2003)

Richard Poole – Terrain (2003)
EAC Rip | FLAC with CUE and log | scans | 230 mb
MP3 CBR 320kbps | RAR | 141 mb
Genre: jazz

Terrain is the 2003 album by pianist Richard Poole, where he is the sole musician. This was released by the Music Artists Co.

Richard Poole - Terrain (2003)

01. Terrain
02. Forever Roses
03. Blue Sky Shuffle
04. Miami (1975)
05. Miami (1975) (Improv)
06. Going Home Song
07. Imagination
08. Boston Common (1987)
09. Improv On Georgia
10. Escape To Maine
11. Softly As In A Morning Sunrise
12. Escape From Maine
13. Nancy May
14. When Sunny Gets Blue (A Section Improv)
15. Yankee Waltz
16. Intro Yo Yankee Waltz
17. Early Jacco (1977)
18. West Village Blues
19. When Sunny Gets Blue (A Section Improv)
20. Summerland
21. Do Nothin’ Til You Hear From Me

Produced by Max Curie
Engineered by Peter Contrimas
Recorded in 2003 at PBS Studio. Westwood. Massachusetts

EAC Log
EAC extraction logfile from 20. June 2017, 13:12 for CD
Richard Poole / Terrain

Used drive : TSSTcorpDVD+-RW TS-H653B Adapter: 2 ID: 0
Read mode : Secure with NO C2, accurate stream, disable cache
Read offset correction : 6
Overread into Lead-In and Lead-Out : No

Used output format : Internal WAV Routines
44.100 Hz; 16 Bit; Stereo

Other options :
Fill up missing offset samples with silence : Yes
Delete leading and trailing silent blocks : No
Native Win32 interface for Win NT & 2000

Track 1
Filename C:Documents and SettingsDesktopRichard Poole – Terrain (2003)

[FLAC]1 – Terrain.wav

Pre-gap length 0:00:02.00

Peak level 100.0 %
Track quality 100.0 %
Test CRC 1CA5A73A
Copy CRC 1CA5A73A
Copy OK

Track 2
Filename C:Documents and SettingsDesktopRichard Poole – Terrain (2003)

[FLAC]2 – Forever Roses.wav

Peak level 100.0 %
Track quality 99.9 %
Test CRC 5F79AE3E
Copy CRC 5F79AE3E
Copy OK

Track 3
Filename C:Documents and SettingsDesktopRichard Poole – Terrain (2003)

[FLAC]3 – Blue Sky Shuffle.wav

Peak level 100.0 %
Track quality 100.0 %
Test CRC 43F73BDB
Copy CRC 43F73BDB
Copy OK

Track 4
Filename C:Documents and SettingsDesktopRichard Poole – Terrain (2003)

[FLAC]4 – Miami (1975).wav

Peak level 100.0 %
Track quality 100.0 %
Test CRC 396F08D9
Copy CRC 396F08D9
Copy OK

Track 5
Filename C:Documents and SettingsDesktopRichard Poole – Terrain (2003)

[FLAC]5 – Miami (1975) (Improv).wav

Peak level 100.0 %
Track quality 99.8 %
Test CRC D94925E0
Copy CRC D94925E0
Copy OK

Track 6
Filename C:Documents and SettingsDesktopRichard Poole – Terrain (2003)

[FLAC]6 – Going Home Song.wav

Peak level 100.0 %
Track quality 99.9 %
Test CRC B93D77B5
Copy CRC B93D77B5
Copy OK

Track 7
Filename C:Documents and SettingsDesktopRichard Poole – Terrain (2003)

[FLAC]7 – Imagination.wav

Peak level 100.0 %
Track quality 100.0 %
Test CRC 78D51B68
Copy CRC 78D51B68
Copy OK

Track 8
Filename C:Documents and SettingsDesktopRichard Poole – Terrain (2003)

[FLAC]8 – Boston Common (1987).wav

Peak level 100.0 %
Track quality 99.9 %
Test CRC 22AF74F4
Copy CRC 22AF74F4
Copy OK

Track 9
Filename C:Documents and SettingsDesktopRichard Poole – Terrain (2003)

[FLAC]9 – Improv On Georgia.wav

Peak level 100.0 %
Track quality 100.0 %
Test CRC 6BA6AB01
Copy CRC 6BA6AB01
Copy OK

Track 10
Filename C:Documents and SettingsDesktopRichard Poole – Terrain (2003)

[FLAC]10 – Escape To Maine.wav

Peak level 100.0 %
Track quality 100.0 %
Test CRC B98DD22B
Copy CRC B98DD22B
Copy OK

Track 11
Filename C:Documents and SettingsDesktopRichard Poole – Terrain (2003)

[FLAC]11 – Softly As In A Morning Sunrise.wav

Peak level 100.0 %
Track quality 100.0 %
Test CRC FBF53C15
Copy CRC FBF53C15
Copy OK

Track 12
Filename C:Documents and SettingsDesktopRichard Poole – Terrain (2003)

[FLAC]12 – Escape From Maine.wav

Peak level 100.0 %
Track quality 100.0 %
Test CRC 48FA4688
Copy CRC 48FA4688
Copy OK

Track 13
Filename C:Documents and SettingsDesktopRichard Poole – Terrain (2003)

[FLAC]13 – Nancy May.wav

Peak level 100.0 %
Track quality 100.0 %
Test CRC DA5B7EDD
Copy CRC DA5B7EDD
Copy OK

Track 14
Filename C:Documents and SettingsDesktopRichard Poole – Terrain (2003)

[FLAC]14 – When Sunny Gets Blue (A Section Improv).wav

Peak level 100.0 %
Track quality 100.0 %
Test CRC B1C6F8DD
Copy CRC B1C6F8DD
Copy OK

Track 15
Filename C:Documents and SettingsDesktopRichard Poole – Terrain (2003)

[FLAC]15 – Yankee Waltz.wav

Peak level 100.0 %
Track quality 100.0 %
Test CRC A40D5FA3
Copy CRC A40D5FA3
Copy OK

Track 16
Filename C:Documents and SettingsDesktopRichard Poole – Terrain (2003)

[FLAC]16 – Intro Yo Yankee Waltz.wav

Peak level 100.0 %
Track quality 100.0 %
Test CRC 6EFA4611
Copy CRC 6EFA4611
Copy OK

Track 17
Filename C:Documents and SettingsDesktopRichard Poole – Terrain (2003)

[FLAC]17 – Early Jacco (1977).wav

Peak level 100.0 %
Track quality 100.0 %
Test CRC C6C4EEDB
Copy CRC C6C4EEDB
Copy OK

Track 18
Filename C:Documents and SettingsDesktopRichard Poole – Terrain (2003)

[FLAC]18 – West Village Blues.wav

Peak level 100.0 %
Track quality 100.0 %
Test CRC 51687426
Copy CRC 51687426
Copy OK

Track 19
Filename C:Documents and SettingsDesktopRichard Poole – Terrain (2003)

[FLAC]19 – When Sunny Gets Blue (A Section Improv).wav

Peak level 100.0 %
Track quality 100.0 %
Test CRC 7D26A6A6
Copy CRC 7D26A6A6
Copy OK

Track 20
Filename C:Documents and SettingsDesktopRichard Poole – Terrain (2003)

[FLAC]20 – Summerland.wav

Peak level 100.0 %
Track quality 100.0 %
Test CRC 291B6554
Copy CRC 291B6554
Copy OK

Track 21
Filename C:Documents and SettingsDesktopRichard Poole – Terrain (2003)

[FLAC]21 – Do Nothin’ Til You Hear From Me.wav

Peak level 100.0 %
Track quality 100.0 %
Test CRC C767FBFE
Copy CRC C767FBFE
Copy OK

No errors occured

End of status report

Richard Poole - Terrain (2003)

Richard Poole – Terrain (2003) Download, Warez, DDL, Free, Full Album, Torrent, Legal.

Download