Richard Kapp, Mela Tenenbaum – J.S. Bach: Sonatas for Violin and Piano (1999)

Download
Richard Kapp, Mela Tenenbaum - J.S. Bach: Sonatas for Violin and Piano (1999)

Richard Kapp, Mela Tenenbaum – J.S. Bach: Sonatas for Violin and Piano (1999)
EAC | FLAC (image+.cue, log) | Covers Included | 01:25:34 | 431 MB
Genre: Classical | Label: ESS.A.Y. | Catalog: 1066

This two-CD set is actually part of an ambitious undertaking: ESS.A.Y Recordings recorded these sonatas in two different versions, this one featuring Ms. Tenenbaum on a modern violin and accompanied by a modern piano played by Richard Kapp; the other recording (reviewed below) features Ms. Tenenbaum playing an older violin and accompanied by a harpsichord played by Gerald Ranck.
As for this piano/violin recording, all I can say is that this is a simply lovely recording. Ms. Tenenbaum and Mr. Kapp really seem to have an appreciation for the beauty of Bach’s music. This is not mechanical playing–it is thoughtful and expressive, revealing the lyricism of the music. Even though I found the performances so expressive and communicative, never did I feel as though the musicians were overdoing the interpretive side of things. The emotion that came through in their playing seemed both heartfelt and respectful.
The end result is, as I said above, lovely. This is a wonderful recording that should appeal to all fans of Bach–indeed, all lovers of music–and the sound quality is excellent.

AllMusic

Richard Kapp, Mela Tenenbaum - J.S. Bach: Sonatas for Violin and Piano (1999)

Track List:

CD 1:
01. Sonata for Violin and Piano no 1 in B minor, BWV 1014
02. Sonata for Violin and Piano no 2 in A major, BWV 1015
03. Sonata for Violin and Piano no 3 in E major, BWV 1016

EAC Log
Exact Audio Copy V0.99 prebeta 3 from 28. July 2007

EAC extraction logfile from 11. December 2009, 14:57

Bach JS / Sonatas for Violin and Piano – Tenenbaum & Kapp cd1

Used drive : PIONEER DVD-RW DVR-215 Adapter: 2 ID: 1

Read mode : Secure
Utilize accurate stream : Yes
Defeat audio cache : No
Make use of C2 pointers : Yes

Read offset correction : 48
Overread into Lead-In and Lead-Out : No
Fill up missing offset samples with silence : Yes
Delete leading and trailing silent blocks : No
Null samples used in CRC calculations : No
Used interface : Native Win32 interface for Win NT & 2000

Used output format : User Defined Encoder
Selected bitrate : 896 kBit/s
Quality : High
Add ID3 tag : No
Command line compressor : C:Program FilesExact Audio CopyFLACFLAC.EXE
Additional command line options : -6 -V -T "ARTIST=%a" -T "TITLE=%t" -T "ALBUM=%g" -T "DATE=%y" -T "TRACKNUMBER=%n" -T "GENRE=%m" -T "COMMENT=%e" %s -o %d

TOC of the extracted CD

Track | Start | Length | Start sector | End sector
––––––––––––––––––––––––––––-
1 | 0:00.00 | 4:25.53 | 0 | 19927
2 | 4:25.53 | 2:35.64 | 19928 | 31616
3 | 7:01.42 | 2:18.67 | 31617 | 42033
4 | 9:20.34 | 2:05.70 | 42034 | 51478
5 | 11:26.29 | 2:23.55 | 51479 | 62258
6 | 13:50.09 | 2:52.37 | 62259 | 75195
7 | 16:42.46 | 2:24.66 | 75196 | 86061
8 | 19:07.37 | 2:58.62 | 86062 | 99473
9 | 22:06.24 | 5:12.07 | 99474 | 122880
10 | 27:18.31 | 2:40.20 | 122881 | 134900
11 | 29:58.51 | 5:02.02 | 134901 | 157552
12 | 35:00.53 | 3:40.51 | 157553 | 174103

Range status and errors

Selected range

Filename C:UsersOttoDesktopcd1Bach JS – Sonatas for Violin and Piano – Tenenbaum & Kapp cd1.wav

Peak level 76.2 %
Range quality 100.0 %
Copy CRC A53BAE0A
Copy OK

No errors occurred

AccurateRip summary

Track 1 not present in database
Track 2 not present in database
Track 3 not present in database
Track 4 not present in database
Track 5 not present in database
Track 6 not present in database
Track 7 not present in database
Track 8 not present in database
Track 9 not present in database
Track 10 not present in database
Track 11 not present in database
Track 12 not present in database

None of the tracks are present in the AccurateRip database

End of status report

CUETools Log
[CUETools log; Date: 27.12.2016 18:42:52; Version: 2.1.5]
[CTDB TOCID: mQkZ_yA_geFKb._jKguuxkrRmS4-] found.
Track | CTDB Status
1 | (2/2) Accurately ripped
2 | (2/2) Accurately ripped
3 | (2/2) Accurately ripped
4 | (2/2) Accurately ripped
5 | (2/2) Accurately ripped
6 | (2/2) Accurately ripped
7 | (2/2) Accurately ripped
8 | (2/2) Accurately ripped
9 | (2/2) Accurately ripped
10 | (2/2) Accurately ripped
11 | (2/2) Accurately ripped
12 | (2/2) Accurately ripped
[AccurateRip ID: 001022d0-0097396c-8509110c] found.
Track [ CRC | V2 ] Status
01 [bfacfec9|8a9a699f] (0+0/2) No match
02 [99320cc9|e62d3aeb] (0+0/2) No match
03 [5eb3f5ce|c2d14a41] (0+0/2) No match
04 [3baf67e9|fb299374] (0+0/2) No match
05 [7cee0e3f|0a59bfbe] (0+0/2) No match
06 [c32620bb|53f19a79] (0+0/2) No match
07 [b123906a|a41c4455] (0+0/2) No match
08 [d0e0ce23|0dec43e8] (0+0/2) No match
09 [265571c6|b8520cfe] (0+0/2) No match
10 [5b5ca194|19a145f3] (0+0/2) No match
11 [417ab019|80e88c5f] (0+0/2) No match
12 [87789beb|b001fad9] (0+0/2) No match
Offsetted by -241:
01 [65a75d65] (0/2) No match (V2 was not tested)
02 [30c643ba] (0/2) No match (V2 was not tested)
03 [63977df4] (0/2) No match (V2 was not tested)
04 [31f45eef] (0/2) No match (V2 was not tested)
05 [f1a6246c] (0/2) No match (V2 was not tested)
06 [ad94a477] (0/2) No match (V2 was not tested)
07 [75a9992b] (0/2) No match (V2 was not tested)
08 [34ead702] (0/2) No match (V2 was not tested)
09 [e3b2d9b6] (0/2) No match (V2 was not tested)
10 [d4c9c0ed] (0/2) No match (V2 was not tested)
11 [aebc1dc8] (0/2) No match (V2 was not tested)
12 [57acbe17] (0/2) No match (V2 was not tested)

Track Peak [ CRC32 ] [W/O NULL] [ LOG ]
– 76,2 [968727F4] [A53BAE0A] W/O NULL
01 52,6 [B2E69E9C] [9E7E1319]
02 70,4 [98595518] [86413606]
03 38,1 [F4C4A893] [22C45C07]
04 71,3 [8F179A4F] [29659E42]
05 42,5 [85E01276] [17AFC2C8]
06 62,9 [38C53F42] [82DCA157]
07 32,7 [7E7BA6CA] [2045141F]
08 62,6 [4AE23AE2] [EC861328]
09 52,3 [EF5D315F] [49142BC5]
10 76,2 [CFEB9CD6] [0572132A]
11 59,7 [A089991C] [88CF64B5]
12 72,2 [452322DB] [9EF8ECC3]

CD 2:
01. Sonata for Violin and Piano no 4 in C minor, BWV 1017
02. Sonata for Violin and Piano no 5 in F minor, BWV 1018
03. Sonata for Violin and Piano no 6 in G major, BWV 1019

EAC Log
Exact Audio Copy V0.99 prebeta 3 from 28. July 2007

EAC extraction logfile from 11. December 2009, 15:00

Bach JS / Bach JS – Sonatas for Violin and Piano – Tenenbaum & Kapp cd2

Used drive : PIONEER DVD-RW DVR-215 Adapter: 2 ID: 1

Read mode : Secure
Utilize accurate stream : Yes
Defeat audio cache : No
Make use of C2 pointers : Yes

Read offset correction : 48
Overread into Lead-In and Lead-Out : No
Fill up missing offset samples with silence : Yes
Delete leading and trailing silent blocks : No
Null samples used in CRC calculations : No
Used interface : Native Win32 interface for Win NT & 2000

Used output format : User Defined Encoder
Selected bitrate : 896 kBit/s
Quality : High
Add ID3 tag : No
Command line compressor : C:Program FilesExact Audio CopyFLACFLAC.EXE
Additional command line options : -6 -V -T "ARTIST=%a" -T "TITLE=%t" -T "ALBUM=%g" -T "DATE=%y" -T "TRACKNUMBER=%n" -T "GENRE=%m" -T "COMMENT=%e" %s -o %d

TOC of the extracted CD

Track | Start | Length | Start sector | End sector
––––––––––––––––––––––––––––-
1 | 0:00.00 | 4:22.52 | 0 | 19701
2 | 4:22.52 | 3:51.70 | 19702 | 37096
3 | 8:14.47 | 3:15.09 | 37097 | 51730
4 | 11:29.56 | 3:53.31 | 51731 | 69236
5 | 15:23.12 | 5:46.39 | 69237 | 95225
6 | 21:09.51 | 4:14.09 | 95226 | 114284
7 | 25:23.60 | 3:30.31 | 114285 | 130065
8 | 28:54.16 | 2:07.35 | 130066 | 139625
9 | 31:01.51 | 3:02.71 | 139626 | 153346
10 | 34:04.47 | 1:30.04 | 153347 | 160100
11 | 35:34.51 | 4:10.39 | 160101 | 178889
12 | 39:45.15 | 2:18.31 | 178890 | 189270
13 | 42:03.46 | 2:51.65 | 189271 | 202160

Range status and errors

Selected range

Filename C:UsersOttoDesktopcd2Bach JS – Bach JS – Sonatas for Violin and Piano – Tenenbaum & Kapp cd2.wav

Peak level 79.1 %
Range quality 100.0 %
Copy CRC 87B1D93F
Copy OK

No errors occurred

AccurateRip summary

Track 1 not present in database
Track 2 not present in database
Track 3 not present in database
Track 4 not present in database
Track 5 not present in database
Track 6 not present in database
Track 7 not present in database
Track 8 not present in database
Track 9 not present in database
Track 10 not present in database
Track 11 not present in database
Track 12 not present in database
Track 13 not present in database

None of the tracks are present in the AccurateRip database

End of status report

CUETools Log
[CUETools log; Date: 27.12.2016 18:43:11; Version: 2.1.5]
[CTDB TOCID: 3YWHs8xV3QtkyFmOtw8LlE.67S8-] found.
Track | CTDB Status
1 | (2/2) Accurately ripped
2 | (2/2) Accurately ripped
3 | (2/2) Accurately ripped
4 | (2/2) Accurately ripped
5 | (2/2) Accurately ripped
6 | (2/2) Accurately ripped
7 | (2/2) Accurately ripped
8 | (2/2) Accurately ripped
9 | (2/2) Accurately ripped
10 | (2/2) Accurately ripped
11 | (2/2) Accurately ripped
12 | (2/2) Accurately ripped
13 | (2/2) Accurately ripped
[AccurateRip ID: 00178284-00e67964-b60a870d] found.
Track [ CRC | V2 ] Status
01 [6658e138|2be9262a] (0+0/2) No match
02 [3d142fa5|c53ebdde] (0+0/2) No match
03 [e6e1b7cb|4d906ebd] (0+0/2) No match
04 [54aaa17d|9e917c2d] (0+0/2) No match
05 [356bf426|24b808b9] (0+0/2) No match
06 [a6094724|8fcf4ae1] (0+0/2) No match
07 [8daa9851|43a026ee] (0+0/2) No match
08 [fccf3745|ae66dd32] (0+0/2) No match
09 [b3a3738e|a297fbaf] (0+0/2) No match
10 [983c6ff3|e45b75f0] (0+0/2) No match
11 [83b20850|92edb9a4] (0+0/2) No match
12 [5fdaf63e|9027efd0] (0+0/2) No match
13 [2a2d734c|1464a0dd] (0+0/2) No match
Offsetted by 395:
01 [bb31fdcc] (0/2) No match (V2 was not tested)
02 [088ba104] (0/2) No match (V2 was not tested)
03 [7aefd0f5] (0/2) No match (V2 was not tested)
04 [fae69e1b] (0/2) No match (V2 was not tested)
05 [a10ede46] (0/2) No match (V2 was not tested)
06 [e1c1b27f] (0/2) No match (V2 was not tested)
07 [fc971124] (0/2) No match (V2 was not tested)
08 [be278093] (0/2) No match (V2 was not tested)
09 [716e6fed] (0/2) No match (V2 was not tested)
10 [7e15313a] (0/2) No match (V2 was not tested)
11 [c581278a] (0/2) No match (V2 was not tested)
12 [e19858e4] (0/2) No match (V2 was not tested)
13 [c8cdbc12] (0/2) No match (V2 was not tested)

Track Peak [ CRC32 ] [W/O NULL] [ LOG ]
– 79,1 [7EE2C1FC] [87B1D93F] W/O NULL
01 54,2 [D3D749D7] [E317E364]
02 79,1 [783BB865] [F9D99DC3]
03 47,7 [CE4FDFFD] [E985CC05]
04 70,7 [86A76F2D] [BAA1F361]
05 68,8 [5B08F577] [79B9036C]
06 64,8 [741E874F] [B74E54D2]
07 68,9 [F2EDF3A6] [B0EC5A03]
08 71,9 [C38C312D] [995A8DA2]
09 72,2 [BF44BDBF] [AEB2BB98]
10 43,8 [F037F42A] [0FA3F7F4]
11 49,6 [8D2C01A6] [CAE99168]
12 54,6 [8508BEED] [A4252842]
13 64,4 [67656993] [B9724D20]

Performers:
Richard Kapp (Piano)
Mela Tenenbaum (Violin)

Thanks to the Original ripper (unknown)!

Download:

Richard Kapp, Mela Tenenbaum – J.S. Bach: Sonatas for Violin and Piano (1999) Download, Warez, DDL, Free, Full Album, Torrent, Legal.

Download