Republica – Ready To Go: The Best of Republica (2002)

Download
Republica - Ready To Go: The Best of Republica (2002)

Republica – Ready To Go: The Best of Republica (2002)
EAC | WV | Image (Cue&Log) ~ 533 Mb | Mp3 (CBR320) ~ 171 Mb | Scans included | 01:10:46
Alternative Pop/Rock, Dance Rock, Electronic | Label: BMG, Camden | # 74321 93979 2

Not quite as definitive of their time as Brit-pop sensations like Elastica and Sleeper and not quite as inventive and enduring as Garbage, Republica made a splash on the charts with "Ready to Go" and then more or less faded away, for stateside audiences at least. The British retrospective Ready to Go: The Best of Republica may be somewhat surprising to casual fans of the group, who may not have been aware that Republica recorded a second album, 1998’s Speed Ballads, which didn’t receive distribution in the U.S. An even mix of highlights from the group’s two albums, Ready to Go features two versions of the group’s catchy, dance-meets-Brit-pop title hit, along with the follow-up single "Drop Dead Gorgeous" and notable tracks from the more complex, electronic Speed Ballads such as "From Rush Hour With Love" and "Fading of the Man." Indeed, the collection manages to gather most of both of Republica’s albums, making it the only Republica release anyone curious about the band needs to own.

Review by Heather Phares, Allmusic.com

Republica - Ready To Go: The Best of Republica (2002)

Republica at Allmusic
Republica Website
Republica at Wiki

Tracklist:

01. Ready to Go (5:02)
02. Drop Dead Gorgeous (4:31)
03. From Rush Hour With Love (3:27)
04. Holly (4:24)
05. Fading of the Man (4:36)
06. Nothing’s Feeling New (3:52)
07. Pretty Girl Hate (3:48)
08. Kung Fu Movies (4:01)
09. Bitch (5:16)
10. Don’t You Ever (4:00)
11. Get Off (3:57)
12. Pub Pusher (4:23)
13. Bloke (4:52)
14. Out of the Darkness (3:50)
15. Picture Me (5:43)
16. Ready to Go (Original Mix) (5:03)

EAC log
Exact Audio Copy V0.99 prebeta 4 from 23. January 2008

EAC extraction logfile from 14. November 2008, 15:30

Republica / Ready to Go: The best of

Used drive : SONY DVD RW DRU-190S Adapter: 3 ID: 0

Read mode : Secure
Utilize accurate stream : Yes
Defeat audio cache : Yes
Make use of C2 pointers : No

Read offset correction : 6
Overread into Lead-In and Lead-Out : No
Fill up missing offset samples with silence : Yes
Delete leading and trailing silent blocks : No
Null samples used in CRC calculations : Yes
Used interface : Installed external ASPI interface

Used output format : Internal WAV Routines
Sample format : 44.100 Hz; 16 Bit; Stereo

TOC of the extracted CD

Track | Start | Length | Start sector | End sector
––––––––––––––––––––––––––––-
1 | 0:00.00 | 5:02.37 | 0 | 22686
2 | 5:02.37 | 4:30.48 | 22687 | 42984
3 | 9:33.10 | 3:26.55 | 42985 | 58489
4 | 12:59.65 | 4:24.02 | 58490 | 78291
5 | 17:23.67 | 4:35.40 | 78292 | 98956
6 | 21:59.32 | 3:52.05 | 98957 | 116361
7 | 25:51.37 | 3:48.13 | 116362 | 133474
8 | 29:39.50 | 4:01.05 | 133475 | 151554
9 | 33:40.55 | 5:15.65 | 151555 | 175244
10 | 38:56.45 | 4:00.17 | 175245 | 193261
11 | 42:56.62 | 3:57.23 | 193262 | 211059
12 | 46:54.10 | 4:23.25 | 211060 | 230809
13 | 51:17.35 | 4:52.32 | 230810 | 252741
14 | 56:09.67 | 3:50.18 | 252742 | 270009
15 | 60:00.10 | 5:43.37 | 270010 | 295771
16 | 65:43.47 | 5:02.38 | 295772 | 318459

Range status and errors

Selected range

Filename C:Republica – Ready to Go The best of.wav

Peak level 100.0 %
Range quality 99.9 %
Copy CRC C358740A
Copy OK

No errors occurred

AccurateRip summary

Track 1 cannot be verified as accurate (confidence 2) [673E453A], AccurateRip returned [9C67B686]
Track 2 cannot be verified as accurate (confidence 2) [9EDAD3AA], AccurateRip returned [5E79F24A]
Track 3 cannot be verified as accurate (confidence 2) [00BC2683], AccurateRip returned [7C332EC3]
Track 4 cannot be verified as accurate (confidence 2) [DFA8E5F4], AccurateRip returned [F77C5A70]
Track 5 cannot be verified as accurate (confidence 2) [5ABFF47F], AccurateRip returned [9F9703C5]
Track 6 cannot be verified as accurate (confidence 2) [5B5C1F59], AccurateRip returned [A048F977]
Track 7 cannot be verified as accurate (confidence 2) [24EAC1CE], AccurateRip returned [3CB69C61]
Track 8 cannot be verified as accurate (confidence 2) [CB973E41], AccurateRip returned [2876055F]
Track 9 cannot be verified as accurate (confidence 2) [AB3E66C9], AccurateRip returned [48029E64]
Track 10 cannot be verified as accurate (confidence 2) [60A4468F], AccurateRip returned [8EE1F687]
Track 11 cannot be verified as accurate (confidence 2) [8A5DF86A], AccurateRip returned [52E3A332]
Track 12 cannot be verified as accurate (confidence 2) [5F762BFA], AccurateRip returned [9F05E9DE]
Track 13 cannot be verified as accurate (confidence 2) [7DA011A6], AccurateRip returned [A4157622]
Track 14 cannot be verified as accurate (confidence 2) [CC3720FE], AccurateRip returned [C527437E]
Track 15 cannot be verified as accurate (confidence 2) [08170D64], AccurateRip returned [7F3E8CA4]
Track 16 cannot be verified as accurate (confidence 2) [709C1319], AccurateRip returned [B2E51E25]

No tracks could be verified as accurate
You may have a different pressing from the one(s) in the database

End of status report

AR log
[CUETools log; Date: 11.10.2017 23:47:21; Version: 2.1.4]
[CTDB TOCID: GC9ZEjJEOKnDyBciJwNPd_jEso8-] found.
Track | CTDB Status
1 | (20/20) Accurately ripped
2 | (20/20) Accurately ripped
3 | (20/20) Accurately ripped
4 | (20/20) Accurately ripped
5 | (20/20) Accurately ripped
6 | (20/20) Accurately ripped
7 | (20/20) Accurately ripped
8 | (20/20) Accurately ripped
9 | (20/20) Accurately ripped
10 | (20/20) Accurately ripped
11 | (20/20) Accurately ripped
12 | (20/20) Accurately ripped
13 | (20/20) Accurately ripped
14 | (20/20) Accurately ripped
15 | (20/20) Accurately ripped
16 | (20/20) Accurately ripped
[AccurateRip ID: 00287034-01e50481-d8109610] found.
Track [ CRC | V2 ] Status
01 [673e453a|a332560e] (07+08/26) Accurately ripped
02 [9edad3aa|0565c17c] (07+08/26) Accurately ripped
03 [00bc2683|09746492] (07+08/26) Accurately ripped
04 [dfa8e5f4|065297a0] (07+08/26) Accurately ripped
05 [5abff47f|17844d38] (07+08/26) Accurately ripped
06 [5b5c1f59|135a5843] (07+08/26) Accurately ripped
07 [24eac1ce|99339640] (07+08/26) Accurately ripped
08 [cb973e41|69c29cdf] (07+08/26) Accurately ripped
09 [ab3e66c9|6b6f3e1b] (07+08/26) Accurately ripped
10 [60a4468f|f372d97b] (07+08/26) Accurately ripped
11 [8a5df86a|431b5c99] (07+08/26) Accurately ripped
12 [5f762bfa|bec515ed] (07+08/26) Accurately ripped
13 [7da011a6|d564746e] (07+08/26) Accurately ripped
14 [cc3720fe|44ab528c] (07+08/26) Accurately ripped
15 [08170d64|9eac9e97] (07+08/26) Accurately ripped
16 [709c1319|e06343da] (07+08/26) Accurately ripped
Offsetted by 676:
01 [9c67b686] (05/26) Accurately ripped
02 [5e79f24a] (05/26) Accurately ripped
03 [7c332ec3] (05/26) Accurately ripped
04 [f77c5a70] (05/26) Accurately ripped
05 [9f9703c5] (05/26) Accurately ripped
06 [a048f977] (05/26) Accurately ripped
07 [3cb69c61] (05/26) Accurately ripped
08 [2876055f] (05/26) Accurately ripped
09 [48029e64] (05/26) Accurately ripped
10 [8ee1f687] (05/26) Accurately ripped
11 [52e3a332] (05/26) Accurately ripped
12 [9f05e9de] (05/26) Accurately ripped
13 [a4157622] (05/26) Accurately ripped
14 [c527437e] (05/26) Accurately ripped
15 [7f3e8ca4] (05/26) Accurately ripped
16 [b2e51e25] (05/26) Accurately ripped

Track Peak [ CRC32 ] [W/O NULL] [ LOG ]
– 100,0 [C358740A] [874413F3] CRC32
01 100,0 [CD49447B] [1C6BDB3B]
02 100,0 [878EF44D] [41013CE9]
03 100,0 [12FA4BD3] [82812395]
04 100,0 [DE556F8B] [2F9AEED1]
05 100,0 [912B8CAA] [12C27FAA]
06 84,0 [05D36942] [65EE91ED]
07 98,0 [A88F4DB1] [64F2997B]
08 100,0 [4A0EF981] [D19298F1]
09 100,0 [B0FA4177] [1F33ADC5]
10 100,0 [F9B294F9] [9DA961AF]
11 100,0 [E71DC0B3] [488BC49C]
12 100,0 [E09A675B] [9EE8FAFE]
13 100,0 [C389FBB9] [C30295BE]
14 100,0 [FA6E322D] [D65849B3]
15 100,0 [FAECD1DA] [781FFA8A]
16 100,0 [AD27C3F3] [E08D38FC]

DR log
foobar2000 1.2 / Dynamic Range Meter 1.1.1
log date: 2017-10-11 23:48:28

––––––––––––––––––––––––––––––––––––––––
Analyzed: Republica / Ready to Go: The best of
––––––––––––––––––––––––––––––––––––––––

DR Peak RMS Duration Track
––––––––––––––––––––––––––––––––––––––––
DR7 0.00 dB -8.60 dB 5:02 01-Ready to Go
DR7 0.00 dB -8.13 dB 4:31 02-Drop Dead Gorgeous
DR8 0.00 dB -9.26 dB 3:27 03-From Rush Hour With Love
DR7 0.00 dB -8.36 dB 4:24 04-Holly
DR8 0.00 dB -9.39 dB 4:36 05-Fading of the Man
DR5 -1.51 dB -6.99 dB 3:52 06-Nothing’s Feeling New
DR5 -0.17 dB -6.88 dB 3:48 07-Pretty Girl Hate
DR7 0.00 dB -8.57 dB 4:01 08-Kung Fu Movies
DR8 0.00 dB -8.78 dB 5:16 09-Bitch
DR7 0.00 dB -8.58 dB 4:00 10-Don’t You Ever
DR6 0.00 dB -7.86 dB 3:57 11-Get Off
DR7 0.00 dB -8.23 dB 4:23 12-Pub Pusher
DR7 0.00 dB -8.35 dB 4:52 13-Bloke
DR7 0.00 dB -8.77 dB 3:50 14-Out of the Darkness
DR7 0.00 dB -9.82 dB 5:43 15-Picture Me
DR7 0.00 dB -8.37 dB 5:03 16-Ready to Go (Original Mix)
––––––––––––––––––––––––––––––––––––––––

Number of tracks: 16
Official DR value: DR7

Samplerate: 44100 Hz
Channels: 2
Bits per sample: 16
Bitrate: 1036 kbps
Codec: WavPack
================================================================================

Republica - Ready To Go: The Best of Republica (2002)

Republica - Ready To Go: The Best of Republica (2002)

All thanks to original releaser – In-Valid

More interesting music in My Blog

Republica – Ready To Go: The Best of Republica (2002) Download, Warez, DDL, Free, Full Album, Torrent, Legal.

Download