Red Sand – Music For Sharks (2009)

Download
Red Sand - Music For Sharks (2009)

Red Sand – Music For Sharks (2009)
EAC Rip | FLAC: Image+Cue+Log | 356 Mb | MP3 CBR 320 kbps | 134 Mb | Scans | Time: 53:05
SPBN Production | SBPN 004
Progressive Rock, Neo-Prog

Album Music For Sharks is a cynical concept about the music industry, a subject that always lent itself successfully to sublimate one’s anger into music. Remember Fish. Red Sand still sounds like early Marillion due to the wonderful and moving guitar work in the vein of Steve Rothery, but the musical direction has slightly moved towards modern Pendragon.

Singer Mathieu Lessard has a voice that sounds similar to the voice of Nick Barrett, that is, with the same melancholic undertone. Compared with their previous studio-album Human Trafficking, I notice to my delight a more omnipresent role for the keyboards. Especially the unsurpassed mellotron sound can be enjoyed in its full splendour in most of the six alternating tracks. The songs have been structured with emotional guitar playing by Simon Caron, who plays many outstanding solos with the use of the tremolo-arm. Mathieu Gosselin’s keyboard playing is very exciting: church organ in Empty Calendar, a flashy synthesizer solo and lush mellotron in Love And Music and floating keyboards in Sad Song. However, the highlight on this album is the 15-minutes long epic composition Shark Man. It starts with angry vocals in a bombastic atmosphere with tight drumming. Then the atmospheres change ranging from dreamy with piano and warm vocals, to mid-tempo with sensational work on keyboards and guitar, culminating in an impressive build-up and a grand finale with a sensitive electric guitar solo, accompanied by lush mellotron and synthesizers. Man, this is prog heaven! In my opinion Red Sand has made their most mature and varied album so far. Highly recommended! Review

Red Sand - Music For Sharks (2009)
Red Sand
Progarchives

Track Listing

01. Empty Calendar (8:42)
02. Love and Music (10:11)
03. How Can You Help Me? (6:26)
04. Sad Song (7:52)
05. Shark Man (16:14)
06. All You Need is Love (3:40)

Produced by Mathieu Gosselin

The Band

• Hemel: Voice
• Simon Caron: Guitars
• Mathieu Gosselin: Keyboards, Bass
• Perry Angelillo: drums

EAC Log
Exact Audio Copy V0.99 prebeta 5 from 4. May 2009

EAC extraction logfile from 7. November 2009, 21:27

Red Sand / Music For Sharks

Used drive : ASUS DRW-24B1LT Adapter: 4 ID: 0

Read mode : Secure
Utilize accurate stream : Yes
Defeat audio cache : Yes
Make use of C2 pointers : No

Read offset correction : 6
Overread into Lead-In and Lead-Out : No
Fill up missing offset samples with silence : Yes
Delete leading and trailing silent blocks : No
Null samples used in CRC calculations : Yes
Used interface : Native Win32 interface for Win NT & 2000

Used output format : User Defined Encoder
Selected bitrate : 1024 kBit/s
Quality : High
Add ID3 tag : Yes
Command line compressor : C:Program FilesFLACflac.exe
Additional command line options : -6 -V -T "ARTIST=%a" -T "TITLE=%t" -T "ALBUM=%g" -T "DATE=%y" -T "TRACKNUMBER=%n" -T "GENRE=%m" -T "COMMENT=%e" %s -o %d

TOC of the extracted CD

Track | Start | Length | Start sector | End sector
––––––––––––––––––––––––––––-
1 | 0:00.00 | 8:42.22 | 0 | 39171
2 | 8:42.22 | 10:11.20 | 39172 | 85016
3 | 18:53.42 | 6:26.57 | 85017 | 114023
4 | 25:20.24 | 7:52.43 | 114024 | 149466
5 | 33:12.67 | 16:14.35 | 149467 | 222551
6 | 49:27.27 | 3:40.69 | 222552 | 239120

Range status and errors

Selected range

Filename Y:EACwurenshRed SandRed Sand – Music For Sharks.wav

Peak level 99.9 %
Range quality 100.0 %
Copy CRC B67F696C
Copy OK

No errors occurred

AccurateRip summary

Track 1 not present in database
Track 2 not present in database
Track 3 not present in database
Track 4 not present in database
Track 5 not present in database
Track 6 not present in database

None of the tracks are present in the AccurateRip database

End of status report

Many thanks to the original uploader: wurensh

SEE also:
Red Sand 2005 Gentry
Red Sand 2007 Human Trafficking

……
Welcome to My Blog for more wonderful music!
……

Red Sand – Music For Sharks (2009) Download, Warez, DDL, Free, Full Album, Torrent, Legal.

Download