Real Side Records Presents – Soul On The Real Side Volume #7 (2017)

Download
Real Side Records Presents - Soul On The Real Side Volume #7 (2017)

Real Side Records Presents – Soul On The Real Side Volume #7 (2017)
EAC Rip | FLAC (Tracks) +CUE, LOG | 494 MB | Covers Included
Genre: Soul | Label: Outta Sight | Catalog Number: OSCD057

VOLUME 7 carries on the Real Side tradition of collating classic crossover soul, rare original 45s, new-to-CD nuggets and oddities from the infinitely strange world of Northern Soul. Seasoned southern soul man Grover Mitchell opens the set with his sublime 1971 recording "What Hurts", co-written and produced by Len Barry for John Madara Enterprises. Darrow Fletcher, well known to the Northern fraternity, follows with his rarity "It’s No Mistake", recorded for Ray Charles’ appropriately named Crossover Records. More floorfillers follow c/o Bobby Sheen with his irrepressible "Something New To Do", Percy And Them, Al Hudson, Richard Searling’s Wigan spin "Love Is A Serious Business" plus a little Mecca magic from Magic Night with the Roulette winner "If You And I Had Never Met".
Jay Proctor and his Techniques finally make it to CD with their forgotten B-side "Don’t Ask Me To Forget" produced by our good friend Jerry Ross and arranged by the legendary Joe Renzetti. Other new-to-CD tracks include the original version of "Incompatible" by Ultra High Frequency, "If My Heart Was An Open Book" by Bobby Holley’s Third Demetion, the Herb Rooney composition "Mighty Love Man" by Black Stash and Rick Thompson’s obscure beater "What Do I Have To Do".

EAC Log
Exact Audio Copy V1.3 from 2. September 2016

EAC extraction logfile from 15. July 2017, 21:39

– / Soul On The Real Side Volume 7

Used drive : GENERIC CDRCB05 Adapter: 1 ID: 1

Read mode : Secure
Utilize accurate stream : Yes
Defeat audio cache : Yes
Make use of C2 pointers : No

Read offset correction : 102
Overread into Lead-In and Lead-Out : No
Fill up missing offset samples with silence : Yes
Delete leading and trailing silent blocks : No
Null samples used in CRC calculations : Yes
Used interface : Native Win32 interface for Win NT & 2000
Gap handling : Appended to previous track

Used output format : User Defined Encoder
Selected bitrate : 768 kBit/s
Quality : High
Add ID3 tag : No
Command line compressor : C:Program Files (x86)Exact Audio CopyFLACFLAC.EXE
Additional command line options : -6 -V -T "ARTIST=%artist%" -T "TITLE=%title%" -T "ALBUM=%albumtitle%" -T "DATE=%year%" -T "TRACKNUMBER=%tracknr%" -T "GENRE=%genre%" -T "COMMENT=%comment%" -T "BAND=%albuminterpret%" -T "ALBUMARTIST=%albuminterpret%" -T "COMPOSER=%composer%" %haslyrics%–tag-from-file=LYRICS="%lyricsfile%"%haslyrics% -T "DISCNUMBER=%cdnumber%" -T "TOTALDISCS=%totalcds%" -T "TOTALTRACKS=%numtracks%" %hascover%–picture="%coverfile%"%hascover% %source% -o %dest%

TOC of the extracted CD

Track | Start | Length | Start sector | End sector
––––––––––––––––––––––––––––-
1 | 0:00.00 | 2:54.41 | 0 | 13090
2 | 2:54.41 | 3:38.63 | 13091 | 29503
3 | 6:33.29 | 2:32.68 | 29504 | 40971
4 | 9:06.22 | 3:14.29 | 40972 | 55550
5 | 12:20.51 | 2:54.05 | 55551 | 68605
6 | 15:14.56 | 3:26.16 | 68606 | 84071
7 | 18:40.72 | 4:01.12 | 84072 | 102158
8 | 22:42.09 | 3:28.32 | 102159 | 117790
9 | 26:10.41 | 3:02.30 | 117791 | 131470
10 | 29:12.71 | 3:20.37 | 131471 | 146507
11 | 32:33.33 | 2:40.30 | 146508 | 158537
12 | 35:13.63 | 2:49.64 | 158538 | 171276
13 | 38:03.52 | 3:12.06 | 171277 | 185682
14 | 41:15.58 | 3:52.72 | 185683 | 203154
15 | 45:08.55 | 3:15.10 | 203155 | 217789
16 | 48:23.65 | 3:18.34 | 217790 | 232673
17 | 51:42.24 | 2:54.56 | 232674 | 245779
18 | 54:37.05 | 2:50.74 | 245780 | 258603
19 | 57:28.04 | 3:38.51 | 258604 | 275004
20 | 61:06.55 | 2:43.68 | 275005 | 287297

Track 1

Filename L:POSTReal Side Records Presents – Soul On The Real Side Volume #7 (2017)1 What Hurts.wav

Pre-gap length 0:00:02.00

Peak level 99.1 %
Extraction speed 2.2 X
Track quality 100.0 %
Test CRC BE24F000
Copy CRC BE24F000
Track not present in AccurateRip database
Copy OK

Track 2

Filename L:POSTReal Side Records Presents – Soul On The Real Side Volume #7 (2017)2 It’s No Mistake.wav

Peak level 98.8 %
Extraction speed 2.6 X
Track quality 100.0 %
Test CRC 8C8F3DA8
Copy CRC 8C8F3DA8
Track not present in AccurateRip database
Copy OK

Track 3

Filename L:POSTReal Side Records Presents – Soul On The Real Side Volume #7 (2017)3 Something New To Do.wav

Peak level 98.8 %
Extraction speed 2.6 X
Track quality 100.0 %
Test CRC 8D5E05CB
Copy CRC 8D5E05CB
Track not present in AccurateRip database
Copy OK

Track 4

Filename L:POSTReal Side Records Presents – Soul On The Real Side Volume #7 (2017)4 Look In The Mirror Of My Eyes.wav

Peak level 98.8 %
Extraction speed 2.8 X
Track quality 100.0 %
Test CRC D3137BF6
Copy CRC D3137BF6
Track not present in AccurateRip database
Copy OK

Track 5

Filename L:POSTReal Side Records Presents – Soul On The Real Side Volume #7 (2017)5 I’m About Lovin’ You.wav

Peak level 98.8 %
Extraction speed 2.9 X
Track quality 100.0 %
Test CRC 4E9FEBB6
Copy CRC 4E9FEBB6
Track not present in AccurateRip database
Copy OK

Track 6

Filename L:POSTReal Side Records Presents – Soul On The Real Side Volume #7 (2017)6 If You And I Had Never Met (Stereo Mix).wav

Peak level 90.0 %
Extraction speed 3.1 X
Track quality 100.0 %
Test CRC F5BB2977
Copy CRC F5BB2977
Track not present in AccurateRip database
Copy OK

Track 7

Filename L:POSTReal Side Records Presents – Soul On The Real Side Volume #7 (2017)7 Don’t Ask Me To Forget.wav

Peak level 90.0 %
Extraction speed 3.3 X
Track quality 100.0 %
Test CRC 457298F1
Copy CRC 457298F1
Track not present in AccurateRip database
Copy OK

Track 8

Filename L:POSTReal Side Records Presents – Soul On The Real Side Volume #7 (2017)8 Love Is A Serious Business.wav

Peak level 90.0 %
Extraction speed 3.4 X
Track quality 100.0 %
Test CRC 2603206B
Copy CRC 2603206B
Track not present in AccurateRip database
Copy OK

Track 9

Filename L:POSTReal Side Records Presents – Soul On The Real Side Volume #7 (2017)9 Let’s Get Together Now.wav

Peak level 98.8 %
Extraction speed 3.5 X
Track quality 100.0 %
Test CRC 1D6EE608
Copy CRC 1D6EE608
Track not present in AccurateRip database
Copy OK

Track 10

Filename L:POSTReal Side Records Presents – Soul On The Real Side Volume #7 (2017)10 A House For Sale.wav

Peak level 98.8 %
Extraction speed 3.2 X
Track quality 99.9 %
Test CRC D4C516AE
Copy CRC D4C516AE
Track not present in AccurateRip database
Copy OK

Track 11

Filename L:POSTReal Side Records Presents – Soul On The Real Side Volume #7 (2017)11 Incompatible.wav

Peak level 98.8 %
Extraction speed 3.6 X
Track quality 100.0 %
Test CRC 2D22ED6A
Copy CRC 2D22ED6A
Track not present in AccurateRip database
Copy OK

Track 12

Filename L:POSTReal Side Records Presents – Soul On The Real Side Volume #7 (2017)12 I Love You, Yes I Do.wav

Peak level 99.8 %
Extraction speed 3.8 X
Track quality 100.0 %
Test CRC 7D623EEA
Copy CRC 7D623EEA
Track not present in AccurateRip database
Copy OK

Track 13

Filename L:POSTReal Side Records Presents – Soul On The Real Side Volume #7 (2017)13 I Just Can’t Say Goodbye (7” Inch Edit).wav

Peak level 98.8 %
Extraction speed 4.0 X
Track quality 100.0 %
Test CRC C8EFBE51
Copy CRC C8EFBE51
Track not present in AccurateRip database
Copy OK

Track 14

Filename L:POSTReal Side Records Presents – Soul On The Real Side Volume #7 (2017)14 I Wanna Hold On To You.wav

Peak level 98.8 %
Extraction speed 4.2 X
Track quality 100.0 %
Test CRC 2A2B4CEB
Copy CRC 2A2B4CEB
Track not present in AccurateRip database
Copy OK

Track 15

Filename L:POSTReal Side Records Presents – Soul On The Real Side Volume #7 (2017)15 Mighty Love Man (Part 1).wav

Peak level 90.2 %
Extraction speed 4.2 X
Track quality 100.0 %
Test CRC 2435E067
Copy CRC 2435E067
Track not present in AccurateRip database
Copy OK

Track 16

Filename L:POSTReal Side Records Presents – Soul On The Real Side Volume #7 (2017)16 All Alone By The Telephone.wav

Peak level 98.8 %
Extraction speed 4.4 X
Track quality 100.0 %
Test CRC 33CEC4CA
Copy CRC 33CEC4CA
Track not present in AccurateRip database
Copy OK

Track 17

Filename L:POSTReal Side Records Presents – Soul On The Real Side Volume #7 (2017)17 If My Heart Was An Open Book.wav

Peak level 98.8 %
Extraction speed 4.4 X
Track quality 100.0 %
Test CRC 286D1C10
Copy CRC 286D1C10
Track not present in AccurateRip database
Copy OK

Track 18

Filename L:POSTReal Side Records Presents – Soul On The Real Side Volume #7 (2017)18 Tomorrow Keeps Shining On Me.wav

Peak level 98.8 %
Extraction speed 3.8 X
Track quality 99.9 %
Test CRC FB83E6A0
Copy CRC FB83E6A0
Track not present in AccurateRip database
Copy OK

Track 19

Filename L:POSTReal Side Records Presents – Soul On The Real Side Volume #7 (2017)19 (Call Me Your) Anything Man.wav

Peak level 98.8 %
Extraction speed 4.7 X
Track quality 100.0 %
Test CRC 464CCC85
Copy CRC 464CCC85
Track not present in AccurateRip database
Copy OK

Track 20

Filename L:POSTReal Side Records Presents – Soul On The Real Side Volume #7 (2017)20 What Do I Have To Do.wav

Peak level 81.9 %
Extraction speed 4.6 X
Track quality 100.0 %
Test CRC 934E5D49
Copy CRC 934E5D49
Track not present in AccurateRip database
Copy OK

None of the tracks are present in the AccurateRip database

No errors occurred

End of status report

–– CUETools DB Plugin V2.1.6

[CTDB TOCID: njMk3bRTyfsdInsF28wubi.RDZQ-] disk not present in database
Submit result: njMk3bRTyfsdInsF28wubi.RDZQ- has been uploaded

==== Log checksum F009930D03B392872886D7D9B92AB6E5565AA43C0B29F29ED1D92FB8B5D42C10 ====

Tracklist:
01. Grover Mitchell – What Hurts
02. Darrow Fletcher – It’s No Mistake
03. Bobby Sheen – Something New To Do
04. Percy And Them – Look In The Mirror Of My Eyes
05. Al Hudson & Soul Partners – I’m About Lovin’ You
06. Magic Night – If You And I Had Never Met (Stereo Mix)
07. Jay And The Techniques – Don’t Ask Me To Forget
08. Alfie Davison – Love Is A Serious Business
09. Aristocrats – Let’s Get Together Now
10. Connie Laverne – A House For Sale
11. Ultra High Frequency – Incompatible
12. The Independents – I Love You, Yes I Do
13. Touch Of Class – I Just Can’t Say Goodbye (7" Inch Edit)
14. Loose Change – I Wanna Hold On To You
15. Black Stash – Mighty Love Man (Part 1)
16. Checkmates Ltd. – All Alone By The Telephone
17. Third Demetion – If My Heart Was An Open Book
18. Chris Bartley – Tomorrow Keeps Shining On Me
19. Bobby Moore – (Call Me Your) Anything Man
20. Rick Thompson – What Do I Have To Do

Real Side Records Presents – Soul On The Real Side Volume #7 (2017) Download, Warez, DDL, Free, Full Album, Torrent, Legal.

Download