Ravi Shankar – The Living Room Sessions Part 2 (2013)

Download
Ravi Shankar - The Living Room Sessions Part 2 (2013)

Ravi Shankar – The Living Room Sessions Part 2 (2013)
EAC Rip | FLAC with CUE and log | scans | 310 mb
MP3 CBR 320kbps | RAR | 115 mb
Genre: Indian classical

The Living Room Sessions Part 2 is a 2013 live album by sitar maestro Ravi Shankar. This was recorded in his living room in California to a small but devoted audience. This was released on his own East Meets West.

Ravi Shankar - The Living Room Sessions Part 2 (2013)

1. Raga Mishra Kafi
2. Raga Sindhi Bhairavi
3. Raga Bhairavi

Ravi Shankar-sitar
Tanmoy Bose-tabla
Kenji Ota-treble tanpura
Barry Phillips-bass tanpura

Produced by Barry Phillips & Shyama Priya
Recording and mastering engineer: Barry Phillips

EAC Log
Exact Audio Copy V1.1 from 23. June 2015

EAC extraction logfile from 13. December 2016, 10:52

Ravi Shankar / The Living Room Sessions Part 2

Used drive : TEAC DVD-ROM DV-28SW Adapter: 1 ID: 0

Read mode : Secure
Utilize accurate stream : Yes
Defeat audio cache : Yes
Make use of C2 pointers : No

Read offset correction : 6
Overread into Lead-In and Lead-Out : No
Fill up missing offset samples with silence : Yes
Delete leading and trailing silent blocks : No
Null samples used in CRC calculations : Yes
Used interface : Native Win32 interface for Win NT & 2000
Gap handling : Appended to previous track

Used output format : Internal WAV Routines
Sample format : 44.100 Hz; 16 Bit; Stereo

TOC of the extracted CD

Track | Start | Length | Start sector | End sector
––––––––––––––––––––––––––––-
1 | 0:00.00 | 18:13.31 | 0 | 82005
2 | 18:13.31 | 22:14.48 | 82006 | 182103
3 | 40:28.04 | 10:54.21 | 182104 | 231174

Track 1

Filename C:My DocumentsMy FLACRavi Shankar – The Living Room Sessions Part 2 (2013) [FLAC]1 – Raga Mishra Kafi.wav

Pre-gap length 0:00:02.00

Peak level 96.5 %
Extraction speed 1.6 X
Track quality 100.0 %
Test CRC 5587452F
Copy CRC 5587452F
Accurately ripped (confidence 6) [2E540F46] (AR v2)
Copy OK

Track 2

Filename C:My DocumentsMy FLACRavi Shankar – The Living Room Sessions Part 2 (2013) [FLAC]2 – Raga Sindhi Bhairavi.wav

Pre-gap length 0:00:03.00

Peak level 96.5 %
Extraction speed 2.1 X
Track quality 99.9 %
Test CRC 15CD169B
Copy CRC 15CD169B
Accurately ripped (confidence 5) [247D181E] (AR v2)
Copy OK

Track 3

Filename C:My DocumentsMy FLACRavi Shankar – The Living Room Sessions Part 2 (2013) [FLAC]3 – Raga Bhairavi.wav

Pre-gap length 0:00:04.00

Peak level 96.5 %
Extraction speed 2.4 X
Track quality 100.0 %
Test CRC 1698AF89
Copy CRC 1698AF89
Accurately ripped (confidence 6) [A1687964] (AR v2)
Copy OK

All tracks accurately ripped

No errors occurred

End of status report

–– CUETools DB Plugin V2.1.6

[CTDB TOCID: HDrikTA34KinDnc.Y1_iSqq4bG4-] found
Submit result: HDrikTA34KinDnc.Y1_iSqq4bG4- has been confirmed
Track | CTDB Status
1 | (12/12) Accurately ripped
2 | (12/12) Accurately ripped
3 | (12/12) Accurately ripped

==== Log checksum D547E53CEAE311A79F58FED1F07F691769E9A4656F9661A4F7746758477AC9AA ====

Ravi Shankar - The Living Room Sessions Part 2 (2013)

Ravi Shankar – The Living Room Sessions Part 2 (2013) Download, Warez, DDL, Free, Full Album, Torrent, Legal.

Download