Raphael – Transsiberien (2008) [Japanese Ed.] | ViralVideoPk

Daily Dose of Free Downloads

Raphael – Transsiberien (2008) [Japanese Ed.]

Download

Raphael - Transsiberien (2008) [Japanese Ed.]

Raphael – Transsiberien (2008) [Japanese Ed.]
EAC Rip | FLAC: Image+Cue+Log | 281 Mb | MP3 CBR 320 kbps | 131 Mb | Scans | 177 Mb | | Time: 35:23
EMI Music Japan | TOCP-70543
Pop Rock, Chanson

2008 release from the amazing Raphael. His voice blended with the music is a wonderful combination that will make anyone appreciate him. You don’t need to speak French to tune into the emotion on this album. Raphael is a true artist. ~ Capitol

Raphaël Haroche was born on November 7, 1975 in Paris, France. His father was Russian & his mother was Argentinian. In his teens, he started playing piano then turned to guitar. He left university to continue playing music. He appeared in some films but he wanted to be a singer. In 1999, ready to sing, he signed to Capitol. Influenced by many singers (David Bowie, Bob Dylan, Jacques Brel & Léo Ferré), Raphaël started with French pop/rock.

Raphael
Wikipedia | Amazon | CDJapan
Raphael - Transsiberien (2008) [Japanese Ed.]

Track Listing

01. Caravane (Japanese Version) (3:31)
02. Je Sais Que La Terre Est Plate (2:30)
03. Le Vent De L’hiver (3:29)
04. Le Petit Train (Mixe par Mark Plati) (3:29)
05. Adieu Haiti (featuring Toots) (3:02)
06. La Jonque (3:06)
07. Quand C’est Toi Qui Conduis (3:06)
08. Sixieme Etage (3:21)
09. Concordia (3:20)
10. Les Limites Du Monde (3:26)
11. Transsiberien (3:03)

Produced by Raphael, Renaud Letang & Tony Visconti

Raphael - Transsiberien (2008) [Japanese Ed.]
EAC Log
Exact Audio Copy V0.99 prebeta 5 from 4. May 2009

EAC extraction logfile from 19. September 2009, 21:19

Raphael / Transsiberien

Used drive : ASUS DRW-1608P Adapter: 2 ID: 0

Read mode : Secure
Utilize accurate stream : Yes
Defeat audio cache : Yes
Make use of C2 pointers : No

Read offset correction : 48
Overread into Lead-In and Lead-Out : No
Fill up missing offset samples with silence : Yes
Delete leading and trailing silent blocks : No
Null samples used in CRC calculations : Yes
Used interface : Installed external ASPI interface

Used output format : User Defined Encoder
Selected bitrate : 1024 kBit/s
Quality : High
Add ID3 tag : No
Command line compressor : C:Program Files (x86)Exact Audio CopyFlacflac.exe
Additional command line options : -5 -V -T "ARTIST=%a" -T "TITLE=%t" -T "ALBUM=%g" -T "DATE=%y" -T "TRACKNUMBER=%n" -T "GENRE=%m" -T "COMMENT=EAC FLAC -5" %s

TOC of the extracted CD

Track | Start | Length | Start sector | End sector
––––––––––––––––––––––––––––-
1 | 0:00.00 | 3:31.28 | 0 | 15852
2 | 3:31.28 | 2:30.03 | 15853 | 27105
3 | 6:01.31 | 3:29.35 | 27106 | 42815
4 | 9:30.66 | 3:29.43 | 42816 | 58533
5 | 13:00.34 | 3:02.20 | 58534 | 72203
6 | 16:02.54 | 3:06.62 | 72204 | 86215
7 | 19:09.41 | 3:06.50 | 86216 | 100215
8 | 22:16.16 | 3:21.53 | 100216 | 115343
9 | 25:37.69 | 3:20.45 | 115344 | 130388
10 | 28:58.39 | 3:26.71 | 130389 | 145909
11 | 32:25.35 | 3:03.03 | 145910 | 159637

Range status and errors

Selected range

Filename F:Raphael – Transsiberien – 2008 (Japan)Raphael – Transsiberien.wav

Peak level 100.0 %
Range quality 99.9 %
Test CRC 9DC1F8BD
Copy CRC 9DC1F8BD
Copy OK

No errors occurred

AccurateRip summary

Track 1 not present in database
Track 2 not present in database
Track 3 not present in database
Track 4 not present in database
Track 5 not present in database
Track 6 not present in database
Track 7 not present in database
Track 8 not present in database
Track 9 not present in database
Track 10 not present in database
Track 11 not present in database

None of the tracks are present in the AccurateRip database

End of status report

Many thanks to the original uploader: bvstudio

……
Welcome to My Blog for more wonderful music!
……

Raphael – Transsiberien (2008) [Japanese Ed.] Download, Warez, DDL, Free, Full Album, Torrent, Legal.

Download


  • Recent Posts

  • Recent Tags