Ransom Wilson, Peter Frankl – Schubert, Beethoven, Schumann: Works for Flute & Piano (2015)

Download
Ransom Wilson, Peter Frankl - Schubert, Beethoven, Schumann: Works for Flute & Piano (2015)

Ransom Wilson, Peter Frankl – Schubert, Beethoven, Schumann: Works for Flute & Piano (2015)
EAC | FLAC (image+.cue, log) | Covers Included | 63:53 | 266 MB
Genre: Classical | Label: Nimbus Alliance | Catalog: NI6309

Ransom Wilson has long been recognized internationally as one of the greatest flutists of his generation. After graduation from the Juilliard School in 1973, he spent a year in Paris as a private student of Jean-Pierre Rampal. In 1976 he gave his official debut concert in New York City, with Rampal as his guest artist. An exclusive recording contract with Angel/EMI followed soon thereafter, along with extensive performances all over the world. Ransom Wilson is an Artist of the Chamber Music Society of Lincoln Center, Professor of Flute at Yale University, Conductor at SUNY Purchase, Assistant Conductor at the Metropolitan Opera, Artistic Director of LE TRAIN BLEU ensemble, and Music Director of the Lar Lubovitch Dance Company, and Artistic Director of the NY State Summer School of the Arts, School of Orchestral Studies.
Franz Schubert’s only significant work for flute is an offshoot of his famous song-cycle Die schöne Müllerin, completed in November 1823. In January 1824 he took the melody of the 18th song, ‘Trockne Blumen’ (Faded Flowers) and made it the basis of his Introduction and Variations in E minor on ‘Trockne Blumen’ for flute and piano. It may have been composed for Schubert’s friend F erdinand Bogner, a professor of flute at the Vienna Conservatory, but it remained unpublished – and perhaps unperformed – until 1850, when the work was issued posthumously as
Schubert’s op. 160. Since then it has formed an essential part of the flute repertoire.
Beethoven’s only mature and substantial contribution to the instrument’s repertoire is the Serenade, op.25 for flute, violin and viola, written in 1801. In 1803, the Bohemian composer Franz X.
Kleinheinz (1772-1832), who had recently arrived in Vienna to study with Beethoven’s old teacher Albrechtsberger, arranged this work for flute (or violin) and piano. The arrangement was obviously carried out with Beethoven’s full approval, as he is known to have checked it over and sanctioned it before it was printed in December, 1803. Robert Schumann wrote no original pieces for flute. However, it is but a small leap for flautists to include the 3 Romanzen op.94 in their repertoire. They were written in 1849, for oboe, but with the composer’s indication that they were suitable for either clarinet or violin. The Romanzen are simply ‘Songs without Words’, and as such open to all instrumental colours equally.

AllMusic

Ransom Wilson, Peter Frankl - Schubert, Beethoven, Schumann: Works for Flute & Piano (2015)

Track List:

Tracklist:

Franz Schubert
[1]-[9] Introduction and Variations on ‘Trockne Blumen’
from Die schöne Müllerein, D802 (1824)

Ludwig van Beethoven
[10]-[16] Serenade in D major, Op.41 (1803)

Robert Schumann
[17]-[19] 3 Romances, Op.94 (1849)
[20]-[22] 3 Lieder

Performers:
Ransom Wilson, flute
Peter Frankl, piano

EAC Log
Exact Audio Copy V1.1 from 23. June 2015

EAC extraction logfile from 1. October 2016, 15:42

Ransom Wilson, Peter Frankl / Schubert, Beethoven, Schumann – Works for Flute & Piano

Used drive : HL-DT-STDVDRAM GU70N Adapter: 1 ID: 0

Read mode : Secure
Utilize accurate stream : Yes
Defeat audio cache : Yes
Make use of C2 pointers : No

Read offset correction : 48
Overread into Lead-In and Lead-Out : No
Fill up missing offset samples with silence : Yes
Delete leading and trailing silent blocks : No
Null samples used in CRC calculations : Yes
Used interface : Native Win32 interface for Win NT & 2000

Used output format : User Defined Encoder
Selected bitrate : 128 kBit/s
Quality : High
Add ID3 tag : No
Command line compressor : C:Program Files (x86)Exact Audio CopyFlacflac.exe
Additional command line options : -V -8 -T "Date=%year%" -T "Genre=%genre%" %source%

TOC of the extracted CD

Track | Start | Length | Start sector | End sector
––––––––––––––––––––––––––––-
1 | 0:00.00 | 2:49.21 | 0 | 12695
2 | 2:49.21 | 1:48.40 | 12696 | 20835
3 | 4:37.61 | 1:41.37 | 20836 | 28447
4 | 6:19.23 | 1:43.33 | 28448 | 36205
5 | 8:02.56 | 2:31.59 | 36206 | 47589
6 | 10:34.40 | 1:49.55 | 47590 | 55819
7 | 12:24.20 | 2:10.67 | 55820 | 65636
8 | 14:35.12 | 2:39.45 | 65637 | 77606
9 | 17:14.57 | 3:11.29 | 77607 | 91960
10 | 20:26.11 | 3:36.58 | 91961 | 108218
11 | 24:02.69 | 4:42.33 | 108219 | 129401
12 | 28:45.27 | 2:11.63 | 129402 | 139289
13 | 30:57.15 | 6:13.47 | 139290 | 167311
14 | 37:10.62 | 2:13.33 | 167312 | 177319
15 | 39:24.20 | 1:07.13 | 177320 | 182357
16 | 40:31.33 | 4:07.53 | 182358 | 200935
17 | 44:39.11 | 3:19.10 | 200936 | 215870
18 | 47:58.21 | 3:37.74 | 215871 | 232219
19 | 51:36.20 | 4:09.72 | 232220 | 250966
20 | 55:46.17 | 2:02.60 | 250967 | 260176
21 | 57:49.02 | 2:44.36 | 260177 | 272512
22 | 60:33.38 | 3:17.21 | 272513 | 287308

Range status and errors

Selected range

Filename C:tempSchubert, Beethoven, Schumann – Works for Flute & PianoSchubert, Beethoven, Schumann – Works for Flute & Piano.wav

Peak level 85.6 %
Extraction speed 2.2 X
Range quality 100.0 %
Test CRC 7FBA5329
Copy CRC 7FBA5329
Copy OK

No errors occurred

AccurateRip summary

Track 1 not present in database
Track 2 not present in database
Track 3 not present in database
Track 4 not present in database
Track 5 not present in database
Track 6 not present in database
Track 7 not present in database
Track 8 not present in database
Track 9 not present in database
Track 10 not present in database
Track 11 not present in database
Track 12 not present in database
Track 13 not present in database
Track 14 not present in database
Track 15 not present in database
Track 16 not present in database
Track 17 not present in database
Track 18 not present in database
Track 19 not present in database
Track 20 not present in database
Track 21 not present in database
Track 22 not present in database

None of the tracks are present in the AccurateRip database

End of status report

==== Log checksum 34D239C48081C65CBE9215A0B0A46975D804F7FD0D56B105D24C308EC2E8E706 ====

Thanks to the Original ripper A-Z!

Download:

Ransom Wilson, Peter Frankl – Schubert, Beethoven, Schumann: Works for Flute & Piano (2015) Download, Warez, DDL, Free, Full Album, Torrent, Legal.

Download