Queensrÿche – The Warning (1984) [Japan 1st Press, 1988]

Download
Queensrÿche - The Warning (1984) [Japan 1st Press, 1988]

Queensrÿche – The Warning (1984) [Japan 1st Press, 1988]
EAC Rip | FLAC: Image+Cue+Log | 315 Mb | MP3 CBR 320 kbps | 115 Mb | Scans | Time: 48:38
Toshiba-EMI Ltd. | CP28-1043
Heavy Metal, Progressive Metal

The Warning is the first studio album by American heavy metal band Queensrÿche, released on September 7, 1984. Queensrÿche wrote the material for The Warning during their tour in support of the Queensrÿche EP, inspired by world events and the 1949 George Orwell novel Nineteen Eighty-Four. The album was recorded in various recording studios in London with Pink Floyd-producer James Guthrie.

Queensrÿche - The Warning (1984) [Japan 1st Press, 1988]
Queensrÿche
Wikipedia

Track Listing

01. Warning (04:47)
02. En Force (05:17)
03. Deliverance (03:21)
04. No Sanctuary (06:05)
05. N M 156 (04:41)
06. Take Hold Of The Flame (04:57)
07. Before The Storm (04:26)
08. Child Of Fire (05:22)
09. Roads To Madness (09:42)

Produced by James Guthrie

The Band

• Geoff Tate – lead vocals
• Chris DeGarmo – guitar (lead guitar on "Take Hold of the Flame"), background vocals
• Michael Wilton – guitar (lead guitar on "Warning"), background vocals
• Eddie Jackson – bass, background vocals
• Scott Rockenfield – drums

*****
• Michael Kamen – conducting, orchestral arrangement

EAC Log
Exact Audio Copy V0.99 prebeta 5 from 4. May 2009

Отчёт EAC об извлечении, выполненном 15. июня 2012, 13:42

Queensryche / The Warning [CP28-1043]

Дисковод: HL-DT-STDVDRAM GT30N Adapter: 0 ID: 0

Режим чтения : Достоверность
Использование точного потока : Да
Отключение кэша аудио : Да
Использование указателей C2 : Нет

Коррекция смещения при чтении : 103
Способность читать области Lead-in и Lead-out : Нет
Заполнение пропущенных сэмплов тишиной : Да
Удаление блоков с тишиной в начале и конце : Нет
При вычислениях CRC использовались нулевые сэмплы : Да
Интерфейс : Встроенный Win32-интерфейс для Win NT/2000

Выходной формат : Пользовательский кодировщик
Выбранный битрейт : 128 kBit/s
Качество : Высокий
Добавление ID3-тэга : Нет
Утилита сжатия : C:Program Files (x86)Exact Audio CopyFlacflac.exe
Дополнительные параметры : -8 -V -T "artist=%a" -T "title=%t" -T "album=%g" -T "date=%y" -T "tracknumber=%n" -T "genre=%m" -T "comment=EAC

TOC извлечённого CD

Трек | Старт | Длительность | Начальный сектор | Конечный сектор
––––––––––––––––––––––––––––––––––-
1 | 0:00.00 | 4:46.50 | 0 | 21499
2 | 4:46.50 | 5:16.62 | 21500 | 45261
3 | 10:03.37 | 3:20.48 | 45262 | 60309
4 | 13:24.10 | 6:05.27 | 60310 | 87711
5 | 19:29.37 | 4:41.08 | 87712 | 108794
6 | 24:10.45 | 4:57.25 | 108795 | 131094
7 | 29:07.70 | 4:26.25 | 131095 | 151069
8 | 33:34.20 | 5:21.65 | 151070 | 175209
9 | 38:56.10 | 9:41.40 | 175210 | 218824

Характеристики диапазона извлечения и сообщения об ошибках

Выбранный диапазон

Имя файла Y:MusicQueensryche1984 The WarningQueensryche – The Warning [CP28-1043].wav

Пиковый уровень 92.0 %
Качество диапазона 100.0 %
CRC теста 683640F6
CRC копии 683640F6
Копирование… OK

Ошибок не произошло

AccurateRip: сводка

Трек 1 нет в базе данных
Трек 2 нет в базе данных
Трек 3 нет в базе данных
Трек 4 нет в базе данных
Трек 5 нет в базе данных
Трек 6 нет в базе данных
Трек 7 нет в базе данных
Трек 8 нет в базе данных
Трек 9 нет в базе данных

Ни одного трека нет в базе AccurateRip

Конец отчёта

Many thanks to the original uploader: jarpomarx

SEE also:
Queensrÿche 1983 Queensrÿche (EP) [Japan 1st Press, 1989]
Queensrÿche 1994 Promised Land [Japanese Ed.]
Queensrÿche 2000 Greatest Hits [Japan SHM-CD 2014]
Queensrÿche 2013 Queensrÿche [Limited Ed. 2CD Mediabook]

……
Welcome to My Blog for more wonderful music!
……
Password: pass

Queensrÿche – The Warning (1984) [Japan 1st Press, 1988] Download, Warez, DDL, Free, Full Album, Torrent, Legal.

Download