Queen – The Miracle (1989)

Download
Queen - The Miracle (1989)

Queen – The Miracle (1989)
EAC | Flac(Image) + Cue + Log > 397 Mb | Mp3 CBR 320Kpbs > 139 Mb
Hard/Prog/Classic Rock | TT – 58:35 | Label: Hollywood | Cat. # HR-61234-2 | US
Scans (png) > 28 Mb | NitroFlare, FileFactory | 1991, 20th Anniversary Edition

Following their massive 1986 European stadium tour for the A Kind of Magic album, Queen took an extended break. Rumors swirled about an impending breakup, but it turned out the break was brought on by a painful marital divorce for guitarist Brian May (who subsequently battled depression and contemplated suicide), and Freddie Mercury being diagnosed with AIDS. Instead of sinking further into misery, the band regrouped, worked on each other’s mental state, and recorded one of their most inspired albums, 1989’s The Miracle. Lyrically, the songs tend to reflect on the band’s past accomplishments ("Khashoggi’s Ship," "Was It All Worth It") as well as the state of the world in the late ’80s (the title track, "I Want It All"). Produced by the band and David Richards, The Miracle packs quite a sonic punch, recalling the rich sounds of their past classics (1976’s A Day at the Races, etc.). Split 50/50 between pop ("Breakthru," "The Invisible Man," "Rain Must Fall") and heavy rock (the aforementioned "I Want It All," "Khashoggi’s Ship," "Was It All Worth It"), the album was another global smash, even re-establishing the band stateside (going Top 30 and attaining gold status). Along with The Game, The Miracle is Queen’s strongest album of the ’80s.

by Greg Prato, allmusic.com
Queen - The Miracle (1989)

Queen at wiki | Queen at discogs | Queen official website

*********

Queen – The Miracle at discogs

Queen - The Miracle (1989)

Tracklist:

01. Party [02:23]
02. Khashoggi’s Ship [02:47]
03. The Miracle [05:01]
04. I Want It All [04:33]
05. The Invisible Man [03:56]
06. Breakthru [04:08]
07. Rain Must Fall [04:23]
08. Scandal [04:42]
09. My Baby Does Me [03:22]
10. Was It All Worth It [05:45]

Bonus tracks:
11. Hang On In There [03:45]
12. Chinese Torture [01:44]
13. The Invisible Man (12′ Version) [05:28]
14. Scandal (12′ Mix) [06:33]

EAC
Exact Audio Copy V0.99 prebeta 5 from 4. May 2009

EAC extraction logfile from 28. June 2012, 8:10

Queen / The Miracle

Used drive : ASUS DRW-24B3ST Adapter: 3 ID: 0

Read mode : Secure
Utilize accurate stream : Yes
Defeat audio cache : Yes
Make use of C2 pointers : No

Read offset correction : 6
Overread into Lead-In and Lead-Out : No
Fill up missing offset samples with silence : Yes
Delete leading and trailing silent blocks : No
Null samples used in CRC calculations : Yes
Used interface : Native Win32 interface for Win NT & 2000

Used output format : User Defined Encoder
Selected bitrate : 1024 kBit/s
Quality : High
Add ID3 tag : No
Command line compressor : C:Program Files (x86)EACWVwavpack.exe
Additional command line options : -h -hh -m %s %d

TOC of the extracted CD

Track | Start | Length | Start sector | End sector
––––––––––––––––––––––––––––-
1 | 0:00.32 | 2:24.00 | 32 | 10831
2 | 2:24.32 | 2:48.35 | 10832 | 23466
3 | 5:12.67 | 5:02.15 | 23467 | 46131
4 | 10:15.07 | 4:33.60 | 46132 | 66666
5 | 14:48.67 | 3:56.55 | 66667 | 84421
6 | 18:45.47 | 4:08.23 | 84422 | 103044
7 | 22:53.70 | 4:23.05 | 103045 | 122774
8 | 27:17.00 | 4:43.07 | 122775 | 144006
9 | 32:00.07 | 3:22.65 | 144007 | 159221
10 | 35:22.72 | 5:46.23 | 159222 | 185194
11 | 41:09.20 | 3:46.52 | 185195 | 202196
12 | 44:55.72 | 1:45.03 | 202197 | 210074
13 | 46:41.00 | 5:29.45 | 210075 | 234794
14 | 52:10.45 | 6:33.70 | 234795 | 264339

Range status and errors

Selected range

Filename G:QUEEN• 20th Anniversary- Remastered with bonus tracks by Hollywood Records, 1991 •1989- The Miracle (US Hollywood Records • HR-61234-2)Queen – The Miracle.wav

Peak level 94.0 %
Range quality 99.9 %
Test CRC 6111C879
Copy CRC 6111C879
Copy OK

No errors occurred

AccurateRip summary

Track 1 accurately ripped (confidence 26) [DD408707]
Track 2 accurately ripped (confidence 26) [F6ABD9D2]
Track 3 accurately ripped (confidence 26) [0C5181A8]
Track 4 accurately ripped (confidence 26) [3C701295]
Track 5 accurately ripped (confidence 25) [1470D7F8]
Track 6 accurately ripped (confidence 25) [B84A18E0]
Track 7 accurately ripped (confidence 25) [C096FCA8]
Track 8 accurately ripped (confidence 25) [B7D4409E]
Track 9 accurately ripped (confidence 25) [11CEEE2D]
Track 10 accurately ripped (confidence 25) [F92A00B1]
Track 11 accurately ripped (confidence 26) [91364D57]
Track 12 accurately ripped (confidence 25) [0F5BBDE8]
Track 13 accurately ripped (confidence 26) [0D517BE2]
Track 14 accurately ripped (confidence 24) [290DE97E]

All tracks accurately ripped

End of status report

Dynamic Range
foobar2000 1.2.9 / Dynamic Range Meter 1.1.1
log date: 2016-12-28 17:42:02

––––––––––––––––––––––––––––––––––––––––
Analyzed: Queen / The Miracle
––––––––––––––––––––––––––––––––––––––––

DR Peak RMS Duration Track
––––––––––––––––––––––––––––––––––––––––
DR10 -0.54 dB -13.32 dB 2:24 01-Party
DR10 -0.54 dB -12.86 dB 2:48 02-Khashoggi’s Ship
DR10 -0.54 dB -12.09 dB 5:02 03-The Miracle
DR11 -0.54 dB -13.70 dB 4:34 04-I Want It All
DR12 -0.54 dB -14.24 dB 3:57 05-The Invisible Man
DR11 -0.54 dB -13.95 dB 4:08 06-Breakthru
DR11 -0.54 dB -13.04 dB 4:23 07-Rain Must Fall
DR10 -0.54 dB -13.36 dB 4:43 08-Scandal
DR14 -0.54 dB -16.02 dB 3:23 09-My Baby Does Me
DR10 -0.54 dB -12.98 dB 5:46 10-Was It All Worth It
DR11 -0.54 dB -13.86 dB 3:47 11-Hang On In There
DR13 -0.54 dB -15.20 dB 1:45 12-Chinese Torture
DR11 -0.54 dB -14.22 dB 5:30 13-The Invisible Man (12′ Version)
DR12 -0.54 dB -14.04 dB 6:34 14-Scandal (12′ Mix)
––––––––––––––––––––––––––––––––––––––––

Number of tracks: 14
Official DR value: DR11

Samplerate: 44100 Hz
Channels: 2
Bits per sample: 16
Bitrate: 918 kbps
Codec: FLAC

CUETools
[CUETools log; Date: 28.12.2016 17:41:47; Version: 2.1.4]
Pregap length 00:00:32.
[CTDB TOCID: gdzGH5xKDqR44Ol2P6ngg8tRgCc-] found.
Track | CTDB Status
1 | (12/12) Accurately ripped
2 | (12/12) Accurately ripped
3 | (12/12) Accurately ripped
4 | (12/12) Accurately ripped
5 | (12/12) Accurately ripped
6 | (12/12) Accurately ripped
7 | (12/12) Accurately ripped
8 | (12/12) Accurately ripped
9 | (12/12) Accurately ripped
10 | (12/12) Accurately ripped
11 | (12/12) Accurately ripped
12 | (12/12) Accurately ripped
13 | (12/12) Accurately ripped
14 | (12/12) Accurately ripped
[AccurateRip ID: 001c56b3-01338a7c-b50dc40e] found.
Track [ CRC | V2 ] Status
01 [dd408707|3a468450] (27+16/45) Accurately ripped
02 [f6abd9d2|768d9084] (27+17/46) Accurately ripped
03 [0c5181a8|37ba590e] (27+17/46) Accurately ripped
04 [3c701295|50a59608] (27+16/45) Accurately ripped
05 [1470d7f8|67bd380e] (26+17/45) Accurately ripped
06 [b84a18e0|cc3a9863] (26+16/44) Accurately ripped
07 [c096fca8|f08a06a2] (26+17/45) Accurately ripped
08 [b7d4409e|b5b19ed6] (26+17/45) Accurately ripped
09 [11ceee2d|a7cf6135] (26+17/45) Accurately ripped
10 [f92a00b1|30caf731] (26+17/45) Accurately ripped
11 [91364d57|852b9d90] (27+17/46) Accurately ripped
12 [0f5bbde8|6589e386] (26+16/44) Accurately ripped
13 [0d517be2|781862f9] (27+16/45) Accurately ripped
14 [290de97e|b31e4311] (25+17/44) Accurately ripped
Offsetted by 6:
01 [042da3e5] (00/45) No match (V2 was not tested)
02 [01a6fff8] (00/46) No match (V2 was not tested)
03 [1fea66dc] (00/46) No match (V2 was not tested)
04 [28711613] (00/45) No match (V2 was not tested)
05 [478380c8] (00/45) No match (V2 was not tested)
06 [3e3735fc] (00/44) No match (V2 was not tested)
07 [a9a51006] (00/45) No match (V2 was not tested)
08 [35b56b6c] (00/45) No match (V2 was not tested)
09 [19d7b08a] (00/45) No match (V2 was not tested)
10 [e5296e30] (00/45) No match (V2 was not tested)
11 [2c59a107] (00/46) No match (V2 was not tested)
12 [ccf8d4a2] (00/44) No match (V2 was not tested)
13 [8046051c] (00/45) No match (V2 was not tested)
14 [6e5198b8] (00/44) No match (V2 was not tested)

Track Peak [ CRC32 ] [W/O NULL] [ LOG ]
– 94,0 [6111C879] [3A2EDC63] CRC32
01 94,0 [58048204] [B63DCF01]
02 94,0 [70A77C06] [DA775180]
03 94,0 [76F2C774] [0DC1C92C]
04 94,0 [CD6B3C1A] [3371A11E]
05 94,0 [61892E48] [5C4B7937]
06 94,0 [D5F18647] [6A5E490B]
07 94,0 [98373BFC] [FB5B91C7]
08 94,0 [0A72937A] [4D0EB314]
09 94,0 [8A627F2C] [674260F5]
10 94,0 [1C1888BA] [518781ED]
11 94,0 [AD7E546B] [A8900A02]
12 94,0 [A00C7BFA] [0A4F5533]
13 94,0 [4F943093] [CD4ECDC2]
14 94,0 [044A99DC] [B1015694]

Queen - The Miracle (1989)

All thanks go to original releaser …

Queen – The Miracle (1989) Download, Warez, DDL, Free, Full Album, Torrent, Legal.

Download