Queen – Hot Space (1982) | ViralVideoPk

Daily Dose of Free Downloads

Queen – Hot Space (1982)

Download

Queen - Hot Space (1982)

Queen – Hot Space (1982)
EAC | Flac(Image) + Cue + Log > 294 Mb | Mp3 CBR 320Kpbs > 114 Mb
Hard/Prog/Classic Rock | TT – 48:15 | Label: Hollywood | Cat. # HR-61038-2 | US
Scans (png) > 21 Mb | NitroFlare, FileFactory | 1991, 20th Anniversary Edition

Anybody who was a little dismayed by the pop inclinations of The Game would have been totally distressed by Queen’s 1982 follow-up, Hot Space, an unabashed pop and dance album. The band that once proudly proclaimed not to use synthesizers on their albums has suddenly, dramatically reversed course, devoting the entire first side of the album to robotic, new wave dance-pop, all driven by drum machines and colored by keyboards, with Brian May’s guitar coming in as flavor only on occasion. The second side is better, as it finds the group rocking, but there are still electronic drums. But the Beatlesque "Life Is Real (Song for Lennon)" is a sweet, if a bit too literal, tribute and with "Calling All Girls" Queen finally gets synth-driven new wave rock right, resulting in a sharp piece of pop. But the album’s undeniable saving grace is the concluding "Under Pressure," an utterly majestic, otherworldly duet with David Bowie that recaptures the effortless grace of Queen’s mid-’70s peak, but is underscored with a truly affecting melancholy heart that gives it a genuine human warmth unheard in much of their music. Frankly, "Under Pressure" is the only reason most listeners remember this album, which is as much a testament to the song’s strength as it is to the rather desultory nature of the rest of Hot Space.

by Stephen Thomas Erlewine, allmusic.com
Queen - Hot Space (1982)

Queen at wiki | Queen at discogs | Queen official website

*********

Queen – Hot Space at discogs

Queen - Hot Space (1982)

Tracklist:

01. Staying Power [04:11]
02. Dancer [03:49]
03. Back Chat [04:35]
04. Body Language [04:32]
05. Action This Day [03:32]
06. Put Out The Fire [03:18]
07. Life Is Real (Song For Lennon) [03:32]
08. Calling All Girls [03:51]
09. Las Palabras De Amor (The Words Of Love) [04:31]
10. Cool Cat [03:29]
11. Under Pressure [04:05]

Bonus track:
12. Body Language (1991 Remix by Susan Rogers) [04:44]

EAC
Exact Audio Copy V0.99 prebeta 5 from 4. May 2009

EAC extraction logfile from 27. June 2012, 23:59

Queen / Hot Space

Used drive : ASUS DRW-24B3ST Adapter: 2 ID: 0

Read mode : Secure
Utilize accurate stream : Yes
Defeat audio cache : Yes
Make use of C2 pointers : No

Read offset correction : 6
Overread into Lead-In and Lead-Out : No
Fill up missing offset samples with silence : Yes
Delete leading and trailing silent blocks : No
Null samples used in CRC calculations : Yes
Used interface : Native Win32 interface for Win NT & 2000

Used output format : User Defined Encoder
Selected bitrate : 1024 kBit/s
Quality : High
Add ID3 tag : No
Command line compressor : C:Program Files (x86)EACWVwavpack.exe
Additional command line options : -h -hh -m %s %d

TOC of the extracted CD

Track | Start | Length | Start sector | End sector
––––––––––––––––––––––––––––-
1 | 0:00.32 | 4:12.28 | 32 | 18959
2 | 4:12.60 | 3:50.22 | 18960 | 36231
3 | 8:03.07 | 4:36.00 | 36232 | 56931
4 | 12:39.07 | 4:32.35 | 56932 | 77366
5 | 17:11.42 | 3:32.50 | 77367 | 93316
6 | 20:44.17 | 3:19.13 | 93317 | 108254
7 | 24:03.30 | 3:32.70 | 108255 | 124224
8 | 27:36.25 | 3:51.37 | 124225 | 141586
9 | 31:27.62 | 4:31.43 | 141587 | 161954
10 | 35:59.30 | 3:29.02 | 161955 | 177631
11 | 39:28.32 | 4:08.70 | 177632 | 196301
12 | 43:37.27 | 4:44.15 | 196302 | 217616

Range status and errors

Selected range

Filename G:QUEEN• 20th Anniversary- Remastered with bonus tracks by Hollywood Records, 1991 •1982- Hot Space (US Hollywood Records • HR-61038-2)Queen – Hot Space.wav

Peak level 100.0 %
Range quality 99.9 %
Test CRC 07292E6B
Copy CRC 07292E6B
Copy OK

No errors occurred

AccurateRip summary

Track 1 accurately ripped (confidence 39) [34C60F57]
Track 2 accurately ripped (confidence 39) [80B2AE19]
Track 3 accurately ripped (confidence 39) [D086B0F7]
Track 4 accurately ripped (confidence 40) [36530E02]
Track 5 accurately ripped (confidence 40) [704967F7]
Track 6 accurately ripped (confidence 39) [293C05BB]
Track 7 accurately ripped (confidence 40) [3544F827]
Track 8 accurately ripped (confidence 40) [C7EE2508]
Track 9 accurately ripped (confidence 40) [470D7C38]
Track 10 accurately ripped (confidence 40) [F42229AF]
Track 11 accurately ripped (confidence 38) [BDE7A275]
Track 12 accurately ripped (confidence 37) [8867CD60]

All tracks accurately ripped

End of status report

Dynamic Range
foobar2000 1.2.9 / Dynamic Range Meter 1.1.1
log date: 2016-12-24 16:33:48

––––––––––––––––––––––––––––––––––––––––
Analyzed: Queen / Hot Space
––––––––––––––––––––––––––––––––––––––––

DR Peak RMS Duration Track
––––––––––––––––––––––––––––––––––––––––
DR13 0.00 dB -15.23 dB 4:12 01-Staying Power
DR12 -0.04 dB -14.70 dB 3:50 02-Dancer
DR14 -0.09 dB -16.37 dB 4:36 03-Back Chat
DR14 -0.64 dB -16.39 dB 4:32 04-Body Language
DR12 -0.44 dB -15.08 dB 3:33 05-Action This Day
DR13 -0.25 dB -15.08 dB 3:19 06-Put Out The Fire
DR12 0.00 dB -16.47 dB 3:33 07-Life Is Real (Song For Lennon)
DR13 -0.40 dB -15.21 dB 3:51 08-Calling All Girls
DR12 -0.08 dB -15.88 dB 4:32 09-Las Palabras De Amor (The Words Of Love)
DR13 -0.18 dB -16.02 dB 3:29 10-Cool Cat
DR11 -0.50 dB -15.98 dB 4:09 11-Under Pressure
DR13 -0.48 dB -15.03 dB 4:44 12-Body Language (1991 Remix by Susan Rogers)
––––––––––––––––––––––––––––––––––––––––

Number of tracks: 12
Official DR value: DR13

Samplerate: 44100 Hz
Channels: 2
Bits per sample: 16
Bitrate: 825 kbps
Codec: FLAC

CUETools
[CUETools log; Date: 24.12.2016 16:33:37; Version: 2.1.4]
Pregap length 00:00:32.
[CTDB TOCID: tbR.3ExFA5nTUmVZCObw_7wEwpw-] found.
Track | CTDB Status
1 | (24/24) Accurately ripped
2 | (24/24) Accurately ripped
3 | (24/24) Accurately ripped
4 | (24/24) Accurately ripped
5 | (24/24) Accurately ripped
6 | (24/24) Accurately ripped
7 | (24/24) Accurately ripped
8 | (24/24) Accurately ripped
9 | (24/24) Accurately ripped
10 | (24/24) Accurately ripped
11 | (24/24) Accurately ripped
12 | (24/24) Accurately ripped
[AccurateRip ID: 0015856d-00c7f7e8-a40b550c] found.
Track [ CRC | V2 ] Status
01 [34c60f57|988a80be] (40+33/73) Accurately ripped
02 [80b2ae19|fb12fee1] (39+35/74) Accurately ripped
03 [d086b0f7|d2d19b1f] (40+33/73) Accurately ripped
04 [36530e02|ac56d601] (41+33/74) Accurately ripped
05 [704967f7|41bc60f8] (41+33/74) Accurately ripped
06 [293c05bb|6c784c3e] (40+34/74) Accurately ripped
07 [3544f827|fc6ffcf6] (41+33/74) Accurately ripped
08 [c7ee2508|72810584] (41+34/75) Accurately ripped
09 [470d7c38|4d1651cf] (41+34/75) Accurately ripped
10 [f42229af|864a8ac4] (41+34/75) Accurately ripped
11 [bde7a275|c446becf] (38+37/75) Accurately ripped
12 [8867cd60|5206c84c] (38+33/71) Accurately ripped
Offsetted by 6:
01 [397098e9] (00/73) No match
02 [01465c6d] (00/74) No match
03 [0102f91f] (00/73) No match
04 [ad25ac30] (00/74) No match
05 [71a2e006] (00/74) No match
06 [f9a09e76] (00/74) No match
07 [f0d443cd] (00/74) No match
08 [8abd80d8] (00/75) No match
09 [a89dd6c2] (00/75) No match
10 [99dd7dfe] (00/75) No match
11 [45e09598] (00/75) No match (V2 was not tested)
12 [ae3d4584] (00/71) No match

Track Peak [ CRC32 ] [W/O NULL] [ LOG ]
– 100,0 [07292E6B] [F0D170D2] CRC32
01 99,9 [40CB85C4] [DDCA4B5A]
02 99,5 [89E8F2B9] [F418EBA3]
03 98,9 [1512640B] [59636098]
04 92,8 [2CACE4D6] [9646D481]
05 95,0 [C98D861E] [24955C70]
06 97,1 [4EA92B21] [E2011D32]
07 100,0 [40616D5A] [4C1F23C8]
08 95,5 [55DD88F1] [B2F4527B]
09 99,1 [1F0C8F39] [0DB792CE]
10 98,0 [CBB92E20] [D78ACDEB]
11 94,4 [6E2B6285] [9F54F32E]
12 94,6 [9E73DE2D] [1AC88313]

Queen - Hot Space (1982)

All thanks go to original releaser …

Queen – Hot Space (1982) Download, Warez, DDL, Free, Full Album, Torrent, Legal.

Download


  • Recent Posts

  • Recent Tags