Queen – A Kind Of Magic (1986)

Download
Queen - A Kind Of Magic (1986)

Queen – A Kind Of Magic (1986)
EAC | Flac(Image) + Cue + Log > 315 Mb | Mp3 CBR 320Kpbs > 119 Mb
Hard/Prog/Classic Rock | TT – 50:14 | Label: Hollywood | Cat. # HR-61152-2 | US
Scans (png) > 18 Mb | NitroFlare, FileFactory | 1991, 20th Anniversary Edition

By the release of 1986’s A Kind of Magic, Queen’s stature as a prominent rock band in the U.S. had slipped considerably, while in all other parts of the world (especially Europe), they remained superstar hitmakers. A Kind of Magic was their biggest album yet in England, where it reached number one, remained on the charts for 63 weeks, and spawned several hit singles – the epic title track, the tuneful pop/rocker "Friends Will Be Friends," and one of their most haunting ballads, "Who Wants to Live Forever" (also included was the Live Aid-inspired hit anthem "One Vision," which was originally released as a single in 1985). Most of the songs were written for the movie Highlander – "Gimme the Prize (Kurgan’s Theme)," "Princes of the Universe," the aforementioned "Who Wants to Live Forever," etc. – but instead of issuing just a movie soundtrack, the band added a few non-movie tracks and made an official Queen release out of it. It may not have been as cohesive as some of their other albums, but A Kind of Magic was their best work in some time. Queen would embark on a sold-out tour of outdoor stadiums in Europe upon the album’s release, which would sadly turn out to be their final tour.

by Greg Prato, allmusic.com
Queen - A Kind Of Magic (1986)

Queen at wiki | Queen at discogs | Queen official website

*********

Queen – A Kind Of Magic at discogs

Queen - A Kind Of Magic (1986)

Tracklist:

01. One Vision [05:10]
02. A Kind Of Magic [04:24]
03. One Year Of Love [04:28]
04. Pain Is So Close To Pleasure [04:22]
05. Friends Will Be Friends [04:03]
06. Who Wants To Live Forever [05:15]
07. Gimme The Prize (Kurgan’s Theme) [04:32]
08. Don’t Lose Your Head [04:37]
09. Princes Of The Universe [03:31]

Bonus tracks:
10. Forever [03:20]
11. One Vision (Extended Vision) [06:28]

EAC
Exact Audio Copy V0.99 prebeta 5 from 4. May 2009

EAC extraction logfile from 28. June 2012, 7:36

Queen / A Kind Of Magic

Used drive : ASUS DRW-24B3ST Adapter: 2 ID: 0

Read mode : Secure
Utilize accurate stream : Yes
Defeat audio cache : Yes
Make use of C2 pointers : No

Read offset correction : 6
Overread into Lead-In and Lead-Out : No
Fill up missing offset samples with silence : Yes
Delete leading and trailing silent blocks : No
Null samples used in CRC calculations : Yes
Used interface : Native Win32 interface for Win NT & 2000

Used output format : User Defined Encoder
Selected bitrate : 1024 kBit/s
Quality : High
Add ID3 tag : No
Command line compressor : C:Program Files (x86)EACWVwavpack.exe
Additional command line options : -h -hh -m %s %d

TOC of the extracted CD

Track | Start | Length | Start sector | End sector
––––––––––––––––––––––––––––-
1 | 0:00.32 | 5:10.50 | 32 | 23331
2 | 5:11.07 | 4:24.30 | 23332 | 43161
3 | 9:35.37 | 4:28.50 | 43162 | 63311
4 | 14:04.12 | 4:23.03 | 63312 | 83039
5 | 18:27.15 | 4:04.40 | 83040 | 101379
6 | 22:31.55 | 5:16.60 | 101380 | 125139
7 | 27:48.40 | 4:34.45 | 125140 | 145734
8 | 32:23.10 | 4:37.72 | 145735 | 166581
9 | 37:01.07 | 3:37.15 | 166582 | 182871
10 | 40:38.22 | 3:22.35 | 182872 | 198056
11 | 44:00.57 | 6:28.35 | 198057 | 227191

Range status and errors

Selected range

Filename G:QUEEN• 20th Anniversary- Remastered with bonus tracks by Hollywood Records, 1991 •1986- A Kind Of Magic (US Hollywood Records • HR-61152-2)Queen – A Kind Of Magic.wav

Peak level 100.0 %
Range quality 100.0 %
Test CRC 88EFD6D5
Copy CRC 88EFD6D5
Copy OK

No errors occurred

AccurateRip summary

Track 1 accurately ripped (confidence 54) [0CC64097]
Track 2 accurately ripped (confidence 53) [7F51D289]
Track 3 accurately ripped (confidence 54) [EA3CF9F3]
Track 4 accurately ripped (confidence 54) [86FB8A11]
Track 5 accurately ripped (confidence 54) [3B409C28]
Track 6 accurately ripped (confidence 55) [BE0E1EF1]
Track 7 accurately ripped (confidence 54) [20969F02]
Track 8 accurately ripped (confidence 53) [C36080F0]
Track 9 accurately ripped (confidence 53) [05A4E6C3]
Track 10 accurately ripped (confidence 53) [5CE4DFB4]
Track 11 accurately ripped (confidence 51) [B7FE6049]

All tracks accurately ripped

End of status report

Dynamic Range
foobar2000 1.2.9 / Dynamic Range Meter 1.1.1
log date: 2016-12-24 20:16:32

––––––––––––––––––––––––––––––––––––––––
Analyzed: Queen / A Kind Of Magic
––––––––––––––––––––––––––––––––––––––––

DR Peak RMS Duration Track
––––––––––––––––––––––––––––––––––––––––
DR12 -0.89 dB -15.22 dB 5:11 01-One Vision
DR14 0.00 dB -15.98 dB 4:24 02-A Kind Of Magic
DR13 -0.54 dB -16.58 dB 4:29 03-One Year Of Love
DR13 -0.54 dB -14.96 dB 4:23 04-Pain Is So Close To Pleasure
DR11 -0.90 dB -15.35 dB 4:05 05-Friends Will Be Friends
DR13 -1.05 dB -19.60 dB 5:17 06-Who Wants To Live Forever
DR12 -1.26 dB -15.82 dB 4:35 07-Gimme The Prize (Kurgan’s Theme)
DR11 -2.22 dB -15.38 dB 4:38 08-Don’t Lose Your Head
DR13 -0.54 dB -15.63 dB 3:37 09-Princes Of The Universe
DR11 -2.33 dB -17.73 dB 3:22 10-Forever
DR11 -0.38 dB -14.22 dB 6:28 11-One Vision (Extended Vision)
––––––––––––––––––––––––––––––––––––––––

Number of tracks: 11
Official DR value: DR12

Samplerate: 44100 Hz
Channels: 2
Bits per sample: 16
Bitrate: 818 kbps
Codec: FLAC

CUETools
[CUETools log; Date: 24.12.2016 20:16:43; Version: 2.1.4]
Pregap length 00:00:32.
[CTDB TOCID: fkCsmf7qsztW4CrF1xNy2qvE_Ms-] found.
Track | CTDB Status
1 | (53/53) Accurately ripped
2 | (53/53) Accurately ripped
3 | (52/53) Accurately ripped
4 | (53/53) Accurately ripped
5 | (53/53) Accurately ripped
6 | (53/53) Accurately ripped
7 | (53/53) Accurately ripped
8 | (53/53) Accurately ripped
9 | (53/53) Accurately ripped
10 | (53/53) Accurately ripped
11 | (52/53) Accurately ripped
[AccurateRip ID: 0014bfdc-00b2f32b-870bd50b] found.
Track [ CRC | V2 ] Status
01 [0cc64097|3ddcc49a] (054+033/128) Accurately ripped
02 [7f51d289|80779a32] (054+033/128) Accurately ripped
03 [ea3cf9f3|9e3fa85e] (056+030/124) Accurately ripped
04 [86fb8a11|8ff3f65d] (056+030/124) Accurately ripped
05 [3b409c28|d3beb5d8] (056+030/126) Accurately ripped
06 [be0e1ef1|40edf176] (057+030/127) Accurately ripped
07 [20969f02|2c818a82] (055+030/124) Accurately ripped
08 [c36080f0|bc519fd9] (054+029/122) Accurately ripped
09 [05a4e6c3|cc9d1d2f] (053+030/122) Accurately ripped
10 [5ce4dfb4|fad0b716] (054+027/120) Accurately ripped
11 [b7fe6049|782d5c38] (051+030/122) Accurately ripped
Offsetted by 384:
01 [f96b5497] (025/128) Accurately ripped
02 [1355a966] (025/128) Accurately ripped
03 [b6d3eda6] (023/124) Accurately ripped
04 [b65a5691] (023/124) Accurately ripped
05 [3c19aba8] (024/126) Accurately ripped
06 [6f17edf1] (024/127) Accurately ripped
07 [82b11202] (023/124) Accurately ripped
08 [bf04db70] (023/122) Accurately ripped
09 [3b5bbf43] (023/122) Accurately ripped
10 [5857be34] (023/120) Accurately ripped
11 [42b38604] (025/122) Accurately ripped

Track Peak [ CRC32 ] [W/O NULL] [ LOG ]
– 100,0 [88EFD6D5] [5B775B72] CRC32
01 90,2 [186CFB36] [C69990DA]
02 100,0 [E3854B95] [CF54F476]
03 94,0 [89655004] [CDAD2EEB]
04 94,0 [4D028814] [777E5389]
05 90,1 [696D7161] [002809EA]
06 88,5 [82739951] [76F38E3A]
07 86,4 [768321A4] [AD3E6AFF]
08 77,4 [51D43C81] [5B33A2BF]
09 94,0 [A9D90A31] [22C07E34]
10 76,4 [7C496EC5] [3556A9E1]
11 95,6 [412785F3] [F3F109AE]

Queen - A Kind Of Magic (1986)

All thanks go to original releaser …

Queen – A Kind Of Magic (1986) Download, Warez, DDL, Free, Full Album, Torrent, Legal.

Download