Quatermass – Quatermass (1970) | ViralVideoPk

Daily Dose of Free Downloads

Quatermass – Quatermass (1970)

Download

Quatermass - Quatermass (1970)

Quatermass – Quatermass (1970)
EAC | Flac(Image) + Cue + Log & MP3 CBR 320Kbps
1990 | Repertoire, RR 4044-C | ~ 342 or 144 Mb | Scans(png) -> 32 Mb
Progressive Rock

Quatermass’ only album is a must-have for prog rock enthusiasts, especially lovers of the keyboard-dominated style which flourished in the early ’70s. Although there are only three members of the band, their histories are just as colorful as the music they produced. Keyboard player Pete Robinson and bass man Johnny Gustafson met drummer Mick Underwood and founded Episode Six, a band which included Ian Gillan who later fronted Deep Purple. Underwood was also involved with the Outlaws as well as the Herd, only a few years before Peter Frampton arrived. When the band finally formed Quatermass in 1970, they had set their sights on a power rock format which would use Robinson’s keyboards to shape their sound. Both "Black Sheep" and "One Blind Mice" were released as singles which fell mostly on deaf ears, but the band’s sound was equally as moving as the Nice’s repertoire, for example, at around the same time. Quatermass’ sound is far from sounding hollow, isolated, or directionless, but all of the cuts are rather rock-sturdy and instrumentally voluptuous from all points. The string work that swoops in is encompassing, Underwood’s drumming exhibits personality, and the keyboard portions are remarkably striking and distinct. Even Gustafson’s robust vocals work well within the music’s structure, subsiding and ascending when called for, and all of the cuts result in worthy examples of well-built progressive rock, in both ballad and power rock form. Following this album, the band broke up, with Gustafson later doing session work for Kevin Ayers, Steve Hackett, and Ian Hunter, among others, while Robinson found new life within the jazz-prog band Brand X. Beautifully packaged with informative liner notes, Quatermass sounds as resounding today as it did in 1970, and upon hearing it, one can only wonder why it was so overlooked during its release.

by Mike DeGagne, allmusic

Quatermass – Quatermass (1970):

Quatermass - Quatermass (1970)

Tracklist:

01. Entropy
02. Black Sheep Of The Family
03. Post War, Saturday Echo
04. Good Lord Knows
05. Up On The Ground
06. Gemini
07. Make Up Your Mind
08. Laughin’ Tackle
09. Entropy
10. One Blind Mice
11. Punting

EAC Log
Exact Audio Copy V1.2 from 12. August 2016

EAC extraction logfile from 25. December 2016, 13:35

Quatermass / Quatermass

Used drive : MATSHITADVD-RAM UJ8A0AS Adapter: 1 ID: 0

Read mode : Secure
Utilize accurate stream : Yes
Defeat audio cache : Yes
Make use of C2 pointers : No

Read offset correction : 102
Overread into Lead-In and Lead-Out : No
Fill up missing offset samples with silence : Yes
Delete leading and trailing silent blocks : No
Null samples used in CRC calculations : Yes
Used interface : Native Win32 interface for Win NT & 2000

Used output format : Internal WAV Routines
Sample format : 44.100 Hz; 16 Bit; Stereo

TOC of the extracted CD

Track | Start | Length | Start sector | End sector
––––––––––––––––––––––––––––-
1 | 0:00.00 | 1:10.35 | 0 | 5284
2 | 1:10.35 | 3:40.40 | 5285 | 21824
3 | 4:51.00 | 9:42.65 | 21825 | 65539
4 | 14:33.65 | 2:54.15 | 65540 | 78604
5 | 17:28.05 | 7:11.22 | 78605 | 110951
6 | 24:39.27 | 5:53.60 | 110952 | 137486
7 | 30:33.12 | 8:43.55 | 137487 | 176766
8 | 39:16.67 | 10:35.35 | 176767 | 224426
9 | 49:52.27 | 0:42.15 | 224427 | 227591
10 | 50:34.42 | 3:16.60 | 227592 | 242351
11 | 53:51.27 | 7:09.48 | 242352 | 274574

Range status and errors

Selected range

Filename F:AlexharveyQuatermass – Quatermass.wav

Peak level 81.7 %
Extraction speed 2.5 X
Range quality 100.0 %
Test CRC 18B0F57D
Copy CRC 18B0F57D
Copy OK

No errors occurred

AccurateRip summary

Track 1 accurately ripped (confidence 11) [85569A25] (AR v2)
Track 2 accurately ripped (confidence 10) [8A9FB9FF] (AR v2)
Track 3 accurately ripped (confidence 10) [2402F7E3] (AR v2)
Track 4 accurately ripped (confidence 10) [37DEADF3] (AR v2)
Track 5 accurately ripped (confidence 10) [B63BD2EE] (AR v2)
Track 6 accurately ripped (confidence 10) [03B72E8D] (AR v2)
Track 7 accurately ripped (confidence 10) [471E78FF] (AR v2)
Track 8 accurately ripped (confidence 11) [D163EF93] (AR v2)
Track 9 accurately ripped (confidence 10) [B3A3D9EF] (AR v2)
Track 10 accurately ripped (confidence 10) [9948DF63] (AR v2)
Track 11 accurately ripped (confidence 11) [CEACA392] (AR v2)

All tracks accurately ripped

End of status report

–– CUETools DB Plugin V2.1.6

[CTDB TOCID: hkE6G1lMhGbD3vBjuUoXgGrT0DM-] found
Submit result: hkE6G1lMhGbD3vBjuUoXgGrT0DM- has been confirmed
Track | CTDB Status
1 | (12/13) Accurately ripped
2 | (12/13) Accurately ripped
3 | (12/13) Accurately ripped
4 | (12/13) Accurately ripped
5 | (12/13) Accurately ripped
6 | (12/13) Accurately ripped
7 | (12/13) Accurately ripped
8 | (12/13) Accurately ripped
9 | (12/13) Accurately ripped
10 | (12/13) Accurately ripped
11 | (12/13) Accurately ripped

==== Log checksum 445B580B3F3310B914E6B9969B73B8A04B666C132301E6398B95800EDAED7F17 ====

DR Log
foobar2000 1.2.9 / Dynamic Range Meter 1.1.1
log date: 2016-12-25 16:51:07

––––––––––––––––––––––––––––––––––––––––
Analyzed: Quatermass / Quatermass
––––––––––––––––––––––––––––––––––––––––

DR Peak RMS Duration Track
––––––––––––––––––––––––––––––––––––––––
DR8 -21.06 dB -31.14 dB 1:10 01-Entropy
DR11 -1.75 dB -15.26 dB 3:41 02-Black Sheep Of The Family
DR11 -2.77 dB -19.00 dB 9:43 03-Post War, Saturday Echo
DR10 -5.85 dB -20.24 dB 2:54 04-Good Lord Knows
DR11 -2.06 dB -17.66 dB 7:11 05-Up On The Ground
DR10 -2.57 dB -15.14 dB 5:54 06-Gemini
DR11 -2.46 dB -17.02 dB 8:44 07-Make Up Your Mind
DR12 -2.64 dB -19.87 dB 10:35 08-Laughin’ Tackle
DR10 -12.31 dB -30.38 dB 0:42 09-Entropy
DR11 -5.87 dB -19.15 dB 3:17 10-One Blind Mice
DR13 -7.49 dB -22.39 dB 7:10 11-Punting
––––––––––––––––––––––––––––––––––––––––

Number of tracks: 11
Official DR value: DR11

Samplerate: 44100 Hz
Channels: 2
Bits per sample: 16
Bitrate: 760 kbps
Codec: FLAC

CUETools Log
[CUETools log; Date: 25.12.2016 16:34:50; Version: 2.1.4]
[CTDB TOCID: hkE6G1lMhGbD3vBjuUoXgGrT0DM-] found.
Track | CTDB Status
1 | (13/14) Accurately ripped
2 | (13/14) Accurately ripped
3 | (13/14) Accurately ripped
4 | (13/14) Accurately ripped
5 | (13/14) Accurately ripped
6 | (13/14) Accurately ripped
7 | (13/14) Accurately ripped
8 | (13/14) Accurately ripped
9 | (13/14) Accurately ripped
10 | (13/14) Accurately ripped
11 | (13/14) Accurately ripped
[AccurateRip ID: 0017e2df-00d614c7-930e4d0b] found.
Track [ CRC | V2 ] Status
01 [bd833767|85569a25] (04+11/15) Accurately ripped
02 [c79778f4|8a9fb9ff] (04+10/14) Accurately ripped
03 [3e55e3dd|2402f7e3] (04+10/14) Accurately ripped
04 [d3995440|37deadf3] (04+10/14) Accurately ripped
05 [4b7fa03a|b63bd2ee] (04+10/14) Accurately ripped
06 [ecc01520|03b72e8d] (04+10/14) Accurately ripped
07 [a4fa9cb3|471e78ff] (04+10/14) Accurately ripped
08 [3a794d80|d163ef93] (04+11/15) Accurately ripped
09 [f597eccb|b3a3d9ef] (04+10/14) Accurately ripped
10 [11da36da|9948df63] (04+10/14) Accurately ripped
11 [e91157ca|ceaca392] (03+11/14) Accurately ripped

Track Peak [ CRC32 ] [W/O NULL] [ LOG ]
– 81,7 [18B0F57D] [520F831E] CRC32
01 8,8 [105EC122] [9779F7AF]
02 81,7 [DECEDEF0] [A34C8E0C]
03 72,6 [94858041] [FA34C913]
04 51,0 [2EFA445E] [200E32EF]
05 78,8 [FB0C4418] [4AD90436]
06 74,3 [33FBF35B] [85DF9544]
07 75,3 [439A4892] [DC44391E]
08 73,7 [8FB08A39] [579B9D01]
09 24,2 [0BB38BE6] [B46E57F9]
10 50,8 [FFDEA4FA] [22AEFB9D]
11 42,2 [C9E878B2] [82D4D9ED]

Quatermass - Quatermass (1970)

All thanks go to Alexharvey

Download Quatermass – Quatermass (1970):

Quatermass – Quatermass (1970) Download, Warez, DDL, Free, Full Album, Torrent, Legal.

Download


  • Recent Posts

  • Recent Tags