Pride Of Lions – Fearless (2017) [Japanese Ed.]

Download
Pride Of Lions - Fearless (2017) [Japanese Ed.]

Pride Of Lions – Fearless (2017) [Japanese Ed.]
EAC Rip | FLAC: Image+Cue+Log | 462 Mb | MP3 CBR 320 kbps | 161 Mb | Scans | 89 Mb | Time: 57:44
Marquee Inc./Avalon | MICP-11331
Melodic Rock, AOR

When Frontiers released Pride Of Lions’ groundbreaking first album in 2003, many people asked is this one of those side project bands that do one or two albums and then disappear – or a real band? Now, with the release of their fifth studio album, Fearless, Pride Of Lions proves to the world that Jim Peterik (Survivor) and Toby Hitchcock and their band are not just a studio concoction, but a real force to be reckoned with!

Pride Of Lions - Fearless (2017) [Japanese Ed.]
Pride Of Lions | Jim Peterik
Wikipedia | Frontiers Music

Track Listing

01. All I See Is You (03:59)
02. The Tell (04:42)
03. In Caricature (03:57)
04. Silent Music (04:16)
05. Fearless (04:43)
06. Everlasting Love (04:13)
07. Freedom Of The Night (05:07)
08. The Light In Your Eyes (04:33)
09. Rising Up (03:37)
10. The Silence Says It All (04:25)
11. Faster Than A Prayer (04:50)
12. Unmasking The Mystery (05:06)
Bonus track for Japan
13. Everlasting Love (acoustic version) (04:15)

Produced by Jim Peterik

The Band

• Jim Peterik (Survivor, The Ides of March): Vocals, Keyboard, Lead and Rhythm Guitar
• Toby Hitchcock: Lead Vocals
• Mike Aquino: Lead and Rhythm Guitar
• Klem Hayes: Bass
• Ed Breckenfeld: Drums and Percussion
• Christian Cullen: Keyboards

EAC Log
Exact Audio Copy V1.0 beta 3 from 29. August 2011

EAC extraction logfile from 4. February 2017, 21:28

Pride Of Lions / Fearless

Used drive : SlimtypeDVD A DS8A5SH Adapter: 0 ID: 0

Read mode : Secure
Utilize accurate stream : Yes
Defeat audio cache : Yes
Make use of C2 pointers : No

Read offset correction : 6
Overread into Lead-In and Lead-Out : No
Fill up missing offset samples with silence : Yes
Delete leading and trailing silent blocks : No
Null samples used in CRC calculations : Yes
Used interface : Installed external ASPI interface

Used output format : User Defined Encoder
Selected bitrate : 320 kBit/s
Quality : High
Add ID3 tag : No
Command line compressor : C:Program Files (x86)Exact Audio CopyFlacflac.exe
Additional command line options : -V -8 -T "Date=%year%" -T "Genre=%genre%" %source%

TOC of the extracted CD

Track | Start | Length | Start sector | End sector
––––––––––––––––––––––––––––-
1 | 0:00.00 | 3:58.69 | 0 | 17918
2 | 3:58.69 | 4:42.12 | 17919 | 39080
3 | 8:41.06 | 3:57.30 | 39081 | 56885
4 | 12:38.36 | 4:15.73 | 56886 | 76083
5 | 16:54.34 | 4:42.46 | 76084 | 97279
6 | 21:37.05 | 4:12.46 | 97280 | 116225
7 | 25:49.51 | 5:07.07 | 116226 | 139257
8 | 30:56.58 | 4:32.72 | 139258 | 159729
9 | 35:29.55 | 3:37.11 | 159730 | 176015
10 | 39:06.66 | 4:24.41 | 176016 | 195856
11 | 43:31.32 | 4:50.29 | 195857 | 217635
12 | 48:21.61 | 5:06.07 | 217636 | 240592
13 | 53:27.68 | 4:15.23 | 240593 | 259740

Range status and errors

Selected range

Filename D:My MusicPride Of Lions – 2017 FearlessPride Of Lions – Fearless.wav

Peak level 99.8 %
Extraction speed 4.4 X
Range quality 100.0 %
Test CRC 679788F0
Copy CRC 679788F0
Copy OK

No errors occurred

AccurateRip summary

Track 1 not present in database
Track 2 not present in database
Track 3 not present in database
Track 4 not present in database
Track 5 not present in database
Track 6 not present in database
Track 7 not present in database
Track 8 not present in database
Track 9 not present in database
Track 10 not present in database
Track 11 not present in database
Track 12 not present in database
Track 13 not present in database

None of the tracks are present in the AccurateRip database

End of status report

==== Log checksum A0C78658E2B76786A78710FD7A46767A53684F448FC8A44BB75D7CA6B5389336 ====

Many thanks to the original uploader: kolushew

SEE also:
Jimi Jamison & Jim Peterik 2010 Extra Moments

Pride Of Lions 2003 Pride Of Lions [Japanese Ed.]
Pride Of Lions 2004 The Destiny Stone [Japanese Ed.]
Pride Of Lions 2006 Live In Belgium [Japanese Ed.] 2CD
Pride Of Lions 2007 The Roaring Of Dreams [Japanese Ed.]
Pride Of Lions 2012 Immortal [Japanese Ed.]

Shooting Star 1979 Shooting Star [Reissue 2007]
Shooting Star 1981 Hang On For Your Life [Reissue 2007]
Shooting Star 1982 III Wishes [Reissue 2007]
Shooting Star 1983 Burning [Reissue 2007]
Shooting Star 1985 Silent Scream [Reissue 2007]
Shooting Star 1991 It’s Not Over [Reissue 2008]
Shooting Star 2000 Leap Of Faith
Shooting Star 2006 Circles [Japanese Edition]
Shooting Star 2015 Into The Night

Toby Hitchcock 2011 Mercury’s Down

Two Fires 2000 Two Fires [Japanese Ed.]
Two Fires 2002 Ignition [Japanese Ed.]
Two Fires 2010 Burning Bright

W.E.T. 2009 W.E.T. [Japanese Ed. 2010]
W.E.T. 2013 Rise Up
W.E.T. 2013 Rise Up [Japanese Ed.]
W.E.T. 2014 One Live – In Stockholm [Box Set] 2CD+DVD

……
Welcome to My Blog for more wonderful music!
……

Pride Of Lions – Fearless (2017) [Japanese Ed.] Download, Warez, DDL, Free, Full Album, Torrent, Legal.

Download