Porter | Di Castri | Sferra Trio – Italian Encounter: Lewis Porter At Siena Jazz (2007)

Download
Porter | Di Castri | Sferra Trio - Italian Encounter: Lewis Porter At Siena Jazz (2007)

Porter | Di Castri | Sferra Trio – Italian Encounter: Lewis Porter At Siena Jazz (2007)
EAC Rip | FLAC with CUE and log | scans | 289 mb
MP3 CBR 320kbps | RAR | 147 mb
Genre: jazz

Italian Encounter: Lewis Porter At Siena Jazz is a 2007 CD by the Porter | Di Castri | Sferra Trio, consisting of Lewis Porter. Furio Di Castri, and Fabrizio Sferra. This was released by Altrisuoni.

Porter | Di Castri | Sferra Trio - Italian Encounter: Lewis Porter At Siena Jazz (2007)

1. Blues For Siena
2. Cherokee Variation
3. A Summer Night
4. Wine Hot
5. Body And Soul
6. Lester Young Samba
7. Again And Again (ii-V-I)

Lewis Porter-piano
Furio Di Castri-bass
Fabrizio Sferra-drums

Porter | Di Castri | Sferra Trio - Italian Encounter: Lewis Porter At Siena Jazz (2007)
EAC Log
EAC extraction logfile from 20. June 2017, 8:54 for CD
Porter/Di Castri/Sferra Trio / Italian Encounter: Lewis Porter At Siena Jazz

Used drive : TSSTcorpDVD+-RW TS-H653B Adapter: 2 ID: 0
Read mode : Secure with NO C2, accurate stream, disable cache
Read offset correction : 6
Overread into Lead-In and Lead-Out : No

Used output format : Internal WAV Routines
44.100 Hz; 16 Bit; Stereo

Other options :
Fill up missing offset samples with silence : Yes
Delete leading and trailing silent blocks : No
Native Win32 interface for Win NT & 2000

Track 1
Filename C:Documents and SettingsDesktopPorter, Di Castri, Sferra Trio – Italian Encounter, Lewis Porter At Siena Jazz (2007) [FLAC]1 – Blues For Siena.wav

Pre-gap length 0:00:02.00

Peak level 100.0 %
Track quality 100.0 %
Test CRC BCB6519D
Copy CRC BCB6519D
Copy OK

Track 2
Filename C:Documents and SettingsDesktopPorter, Di Castri, Sferra Trio – Italian Encounter, Lewis Porter At Siena Jazz (2007) [FLAC]2 – Cherokee Variation.wav

Peak level 99.9 %
Track quality 100.0 %
Test CRC F02A7D2D
Copy CRC F02A7D2D
Copy OK

Track 3
Filename C:Documents and SettingsDesktopPorter, Di Castri, Sferra Trio – Italian Encounter, Lewis Porter At Siena Jazz (2007) [FLAC]3 – A Summer Night.wav

Peak level 60.5 %
Track quality 100.0 %
Test CRC 8D22F309
Copy CRC 8D22F309
Copy OK

Track 4
Filename C:Documents and SettingsDesktopPorter, Di Castri, Sferra Trio – Italian Encounter, Lewis Porter At Siena Jazz (2007) [FLAC]4 – Wine Hot.wav

Peak level 99.8 %
Track quality 100.0 %
Test CRC 543B146B
Copy CRC 543B146B
Copy OK

Track 5
Filename C:Documents and SettingsDesktopPorter, Di Castri, Sferra Trio – Italian Encounter, Lewis Porter At Siena Jazz (2007) [FLAC]5 – Body And Soul.wav

Peak level 73.6 %
Track quality 100.0 %
Test CRC FB42B9FF
Copy CRC FB42B9FF
Copy OK

Track 6
Filename C:Documents and SettingsDesktopPorter, Di Castri, Sferra Trio – Italian Encounter, Lewis Porter At Siena Jazz (2007) [FLAC]6 – Lester Young Samba.wav

Peak level 99.9 %
Track quality 99.9 %
Test CRC 43C288C3
Copy CRC 43C288C3
Copy OK

Track 7
Filename C:Documents and SettingsDesktopPorter, Di Castri, Sferra Trio – Italian Encounter, Lewis Porter At Siena Jazz (2007) [FLAC]7 – Again And Again (ii-V-I).wav

Peak level 78.0 %
Track quality 100.0 %
Test CRC B94FE5FF
Copy CRC B94FE5FF
Copy OK

No errors occured

End of status report

Porter | Di Castri | Sferra Trio - Italian Encounter: Lewis Porter At Siena Jazz (2007)

Porter | Di Castri | Sferra Trio – Italian Encounter: Lewis Porter At Siena Jazz (2007) Download, Warez, DDL, Free, Full Album, Torrent, Legal.

Download