Pohaku – We're Comin' (2008)

Download
Pohaku - We're Comin' (2008)

Pohaku – We’re Comin’ (2008)
EAC Rip | FLAC with CUE and log | scans | 268 mb
MP3 CBR 320kbps | RAR | 107 mb
Genre: reggae, pop reggae, Jawaiian

Rhe members of Pohaku are approaching you to entertain with their music and friendly vibes with their CD called We’re Comin’. They released this on their own in 2008.

Pohaku - We're Comin' (2008)

01. We’re Comin’
02. Rootz
03. I Love You
04. Sweet Like Candy
05. She’s Lovely
06. Come Around
07. You Are
08. Just A Little Love
09. Far Away
10. Roots I Style

Daniel Keliikoa-guitar and vocals
Kaao "Shaggamon" Wilhelm-vocals
Adam Marques-drums
Garrett Sevellino-bass guitar

Produced by Pohaku Productions LLC
Engineered by Bill Mousser
Mixed & mastered by Wendell Ching

Pohaku - We're Comin' (2008)
EAC Log
EAC extraction logfile from 26. June 2017, 23:39 for CD
Pohaku / We’re Comin’

Used drive : TSSTcorpDVD+-RW TS-H653B Adapter: 2 ID: 0
Read mode : Secure with NO C2, accurate stream, disable cache
Read offset correction : 6
Overread into Lead-In and Lead-Out : No

Used output format : Internal WAV Routines
44.100 Hz; 16 Bit; Stereo

Other options :
Fill up missing offset samples with silence : Yes
Delete leading and trailing silent blocks : No
Native Win32 interface for Win NT & 2000

Track 1
Filename C:Documents and SettingscuntfistDesktopFLAC’s15Pohaku – We’re Comin’ (2008) [FLAC]1 – We’re Comin’.wav

Pre-gap length 0:00:02.00

Peak level 100.0 %
Track quality 100.0 %
Test CRC 4D0449D1
Copy CRC 4D0449D1
Copy OK

Track 2
Filename C:Documents and SettingscuntfistDesktopFLAC’s15Pohaku – We’re Comin’ (2008) [FLAC]2 – Rootz.wav

Peak level 97.3 %
Track quality 100.0 %
Test CRC 5307FE86
Copy CRC 5307FE86
Copy OK

Track 3
Filename C:Documents and SettingscuntfistDesktopFLAC’s15Pohaku – We’re Comin’ (2008) [FLAC]3 – I Love You.wav

Peak level 100.0 %
Track quality 100.0 %
Test CRC 82AAD526
Copy CRC 82AAD526
Copy OK

Track 4
Filename C:Documents and SettingscuntfistDesktopFLAC’s15Pohaku – We’re Comin’ (2008) [FLAC]4 – Sweet Like Candy.wav

Peak level 100.0 %
Track quality 99.9 %
Test CRC 2D2B8E5B
Copy CRC 2D2B8E5B
Copy OK

Track 5
Filename C:Documents and SettingscuntfistDesktopFLAC’s15Pohaku – We’re Comin’ (2008) [FLAC]5 – She’s Lovely.wav

Peak level 100.0 %
Track quality 100.0 %
Test CRC 63513843
Copy CRC 63513843
Copy OK

Track 6
Filename C:Documents and SettingscuntfistDesktopFLAC’s15Pohaku – We’re Comin’ (2008) [FLAC]6 – Come Around.wav

Peak level 100.0 %
Track quality 100.0 %
Test CRC 783B9FF1
Copy CRC 783B9FF1
Copy OK

Track 7
Filename C:Documents and SettingscuntfistDesktopFLAC’s15Pohaku – We’re Comin’ (2008) [FLAC]7 – You Are.wav

Peak level 100.0 %
Track quality 100.0 %
Test CRC 4EC9D065
Copy CRC 4EC9D065
Copy OK

Track 8
Filename C:Documents and SettingscuntfistDesktopFLAC’s15Pohaku – We’re Comin’ (2008) [FLAC]8 – Just A Little Love.wav

Peak level 100.0 %
Track quality 100.0 %
Test CRC 5043B072
Copy CRC 5043B072
Copy OK

Track 9
Filename C:Documents and SettingscuntfistDesktopFLAC’s15Pohaku – We’re Comin’ (2008) [FLAC]9 – Far Away.wav

Peak level 100.0 %
Track quality 100.0 %
Test CRC 342B5498
Copy CRC 342B5498
Copy OK

Track 10
Filename C:Documents and SettingscuntfistDesktopFLAC’s15Pohaku – We’re Comin’ (2008) [FLAC]10 – Roots I Style.wav

Peak level 100.0 %
Track quality 100.0 %
Test CRC 79A68D2A
Copy CRC 79A68D2A
Copy OK

No errors occured

End of status report

Pohaku - We're Comin' (2008)

Pohaku – We're Comin' (2008) Download, Warez, DDL, Free, Full Album, Torrent, Legal.

Download