Pleyel Quartett Koln – Donizetti: String Quartets Nos. 1-3 (2017)

Download
Pleyel Quartett Koln - Donizetti: String Quartets Nos. 1-3 (2017)

Pleyel Quartett Koln – Donizetti: String Quartets Nos. 1-3
Classical | WEB FLAC (tracks) & d. booklet | 55:15 min | 251 MB
Label: CPO | Tracks: 12 | Rls.date: 2017

The renowned American music magazine Fanfare called the first cpo production featuring Gaetano Donizettis string quartets a compelling demonstration on behalf of some of the most dazzling works of the quartet literature. Now the Pleyel Quartet of Cologne, which during the course of its existence has gained fame above all for its rediscoveries of forgotten masterpieces of the string quartet literature, presents three more quartets by the Bergamo master his early Quartets Nos. 1-3. Performed on original instruments, these quartets offer astonishing examples of Donizettis compositional talent. Since they are obliged to an older ideal, they combine seriousness and delightful sound; both technically and musically, demanding and entertaining elements maintain a balance. According to a friends memoirs, Donizetti wrote his first six string quartets at his desk, with the greatest concentration and without the assistance of the piano. On the one hand, they reflect impulses and influences from the Viennese quartet literature and from the Parisian quatuor concertant. On the other hand, they also show just how astonishingly quickly Donizetti was increasingly able to develop mastery while working with his models and contributing his own ideas.

TRACKLIST
01. String Quartet No. 1 in E-Flat Major: I. Allegro
02. String Quartet No. 1 in E-Flat Major: II. Largo
03. String Quartet No. 1 in E-Flat Major: III. Minuetto. Presto
04. String Quartet No. 1 in E-Flat Major: IV. Allegro
05. String Quartet No. 2 in A Major: I. Allegro assai
06. String Quartet No. 2 in A Major: II. Largo
07. String Quartet No. 2 in A Major: III. Minuetto. Presto
08. String Quartet No. 2 in A Major: IV. Allegro
09. String Quartet No. 3 in C Minor: I. Allegro
10. String Quartet No. 3 in C Minor: II. Adagio
11. String Quartet No. 3 in C Minor: III. Minuetto. Presto
12. String Quartet No. 3 in C Minor: IV. Prestissimo

auCDtect
PERFORMER: auCDtect Task Manager, ver. 1.6.0 RC1 build 1.6.0.1
Copyright © 2008-2010 y-soft. All rights reserved

ANALYZER: auCDtect: CD records authenticity detector, version 0.8.2
Copyright © 2004 Oleg Berngardt. All rights reserved.
Copyright © 2004 Alexander Djourik. All rights reserved.

FILE: 12. String Quartet No. 3 in C Minor IV. Prestissimo.flac
Size: 15934957 Hash: 122CE2F4ED4C7A485C476289FEBA4ADB Accuracy: -m0
Conclusion: CDDA 100%
Signature: 25F132872341C837792B7210839A11180B80222D
FILE: 11. String Quartet No. 3 in C Minor III. Minuetto. Presto.flac
Size: 14568225 Hash: 11680F767A145F6104EA097866085A3B Accuracy: -m0
Conclusion: CDDA 100%
Signature: E01D80DF9C7DB5D320BF6FD1B494FD8B88101E5F
FILE: 10. String Quartet No. 3 in C Minor II. Adagio.flac
Size: 15017975 Hash: 6E8D72F35ADAA2EDC30824A6558C8D86 Accuracy: -m0
Conclusion: CDDA 100%
Signature: 346C0B0DF87DDAFD632D6A8C4ED0DD2819A471BB
FILE: 09. String Quartet No. 3 in C Minor I. Allegro.flac
Size: 39597756 Hash: E7712B6BA41BA96EFD71AA606C695DF2 Accuracy: -m0
Conclusion: CDDA 100%
Signature: B8A32233A5937C5E7C9CF5F92BE189B41F32C823
FILE: 08. String Quartet No. 2 in A Major IV. Allegro.flac
Size: 23309385 Hash: F72EA8E9AA48A872381D4113C9C3E4DE Accuracy: -m0
Conclusion: CDDA 100%
Signature: 3F48B44FA517C275168100F93D3DAC65F6E540D2
FILE: 07. String Quartet No. 2 in A Major III. Minuetto. Presto.flac
Size: 14486345 Hash: F0B913BD8A8D60C7CB18C6B63DF3039A Accuracy: -m0
Conclusion: CDDA 100%
Signature: 6F249FED0A2558C3D5B7BEAE4E01342572AFD63C
FILE: 06. String Quartet No. 2 in A Major II. Largo.flac
Size: 15635397 Hash: C84E4CAF9CCF8A7BD7AE4027CE0A234F Accuracy: -m0
Conclusion: CDDA 100%
Signature: D913B0AA2FF3B258D547F9EFC267A1866DCD93CD
FILE: 05. String Quartet No. 2 in A Major I. Allegro assai.flac
Size: 43563413 Hash: 1554609C9AD5E631EC951A3DE1C44AC2 Accuracy: -m0
Conclusion: CDDA 100%
Signature: 7A09A2CC9064F1B85048FACD26BB828F4D40E859
FILE: 04. String Quartet No. 1 in E-Flat Major IV. Allegro.flac
Size: 16108271 Hash: C0AC0BA94077576758DBDF5476944089 Accuracy: -m0
Conclusion: CDDA 100%
Signature: CBCA97F716E01C5D77BC00AF2D32BD800EC48319
FILE: 03. String Quartet No. 1 in E-Flat Major III. Minuetto. Presto.flac
Size: 9051721 Hash: 01D2793A52F653DFA2D6EF83830859FF Accuracy: -m0
Conclusion: CDDA 100%
Signature: 586D1B4F6D8C02F62C9D4DC94B58932E5FE5CD04
FILE: 02. String Quartet No. 1 in E-Flat Major II. Largo.flac
Size: 14981577 Hash: 50F1AB821C875A17B476A3461E65A9C6 Accuracy: -m0
Conclusion: CDDA 100%
Signature: B70ABF9129ACBCA75AA1815AF50668E17A1EC0E7
FILE: 01. String Quartet No. 1 in E-Flat Major I. Allegro.flac
Size: 39508103 Hash: 99D142866A4523E9AA6480C08ECC1BB7 Accuracy: -m0
Conclusion: CDDA 100%
Signature: BE8846A9539494C24833DCB403E7225BFEDEB18C

DR
foobar2000 1.3.7 / Dynamic Range Meter 1.1.1
log date: 2017-10-08 17:31:35

––––––––––––––––––––––––––––––––––––––––
Analyzed: Pleyel Quartett Koln / Donizetti: String Quartets Nos. 1-3
––––––––––––––––––––––––––––––––––––––––

DR Peak RMS Duration Track
––––––––––––––––––––––––––––––––––––––––
DR15 -4.28 dB -23.84 dB 8:10 01-String Quartet No. 1 in E-Flat Major: I. Allegro
DR15 -8.97 dB -28.56 dB 3:29 02-String Quartet No. 1 in E-Flat Major: II. Largo
DR17 -8.04 dB -28.61 dB 2:01 03-String Quartet No. 1 in E-Flat Major: III. Minuetto. Presto
DR15 -5.22 dB -25.65 dB 3:37 04-String Quartet No. 1 in E-Flat Major: IV. Allegro
DR16 -0.45 dB -22.98 dB 8:43 05-String Quartet No. 2 in A Major: I. Allegro assai
DR16 -4.47 dB -26.42 dB 3:31 06-String Quartet No. 2 in A Major: II. Largo
DR15 -3.23 dB -23.41 dB 2:56 07-String Quartet No. 2 in A Major: III. Minuetto. Presto
DR14 -3.18 dB -22.24 dB 4:45 08-String Quartet No. 2 in A Major: IV. Allegro
DR16 -3.55 dB -23.41 dB 8:16 09-String Quartet No. 3 in C Minor: I. Allegro
DR14 -9.95 dB -27.62 dB 3:13 10-String Quartet No. 3 in C Minor: II. Adagio
DR17 -3.72 dB -25.88 dB 3:10 11-String Quartet No. 3 in C Minor: III. Minuetto. Presto
DR14 -0.55 dB -23.44 dB 3:28 12-String Quartet No. 3 in C Minor: IV. Prestissimo
––––––––––––––––––––––––––––––––––––––––

Number of tracks: 12
Official DR value: DR15

Samplerate: 44100 Hz
Channels: 2
Bits per sample: 16
Bitrate: 600 kbps
Codec: FLAC
================================================================================

Pleyel Quartett Koln - Donizetti: String Quartets Nos. 1-3 (2017)
Thanks to the Original customer.

Pleyel Quartett Koln – Donizetti: String Quartets Nos. 1-3 (2017) Download, Warez, DDL, Free, Full Album, Torrent, Legal.

Download