Player – Room With A View (1980) {2002, Japanese Edition}

Download
Player - Room With A View (1980) {2002, Japanese Edition}

Player – Room With A View (1980) {2002, Japanese Edition}
EAC Rip | FLAC (Img) + Cue + Log ~ 282 Mb | MP3 CBR320 ~ 96 Mb
Scans (JPG, 600 dpi) ~ 57 Mb | RAR 5% Recovery
Classic Rock, Pop Rock | Mercury / Universal Music #UICY-3345

Player is an American rock band that made their mark during the late 1970s. Formed in 1977 in Los Angeles, California, U.S. as an evolution of Bandana that had released a single in 1976. Their biggest hit is the No.1 smash "Baby Come Back" written by Peter Beckett and J.C. Crowley, produced by Brian Potter and Dennis Lambert. In 1979, after their two first albums, Peter Beckett and J.C. Crowley left the band. They released four albums between 1977- 1982 and three more when the band reformed by Peter Beckett and Ron Moss, between 1996 – 2013.

Official Website | Wiki | Discogs | All Music

***************

Player - Room With A View (1980) {2002, Japanese Edition}

Track List:

01. Room With A View [4:14]
02. It’s For You [4:38]
03. Upside Down [4:12]
04. Who Do You Think You Are [4:18]
05. Bad News Travels Fast [4:27]
06. All Tied Up [4:50]
07. Givin’ It All [4:20]
08. It May Never Happen [4:02]
09. Tip Of The Iceberg [4:58]

Personnel:

Peter Beckett – lead vocals & guitars
Ron Moss – bass & vocals
John (Hub) Friesen – drums

Additional musicians:
Miles Joseph – guitars & vocals
Gabriel Katona – keyboards & vocals

EAC Log
Exact Audio Copy V1.0 beta 3 from 29. August 2011

EAC extraction logfile from 28. December 2016, 23:06

Player / Room With A View

Used drive : SlimtypeDVD A DS8A5SH Adapter: 0 ID: 0

Read mode : Secure
Utilize accurate stream : Yes
Defeat audio cache : Yes
Make use of C2 pointers : No

Read offset correction : 6
Overread into Lead-In and Lead-Out : No
Fill up missing offset samples with silence : Yes
Delete leading and trailing silent blocks : No
Null samples used in CRC calculations : Yes
Used interface : Installed external ASPI interface

Used output format : User Defined Encoder
Selected bitrate : 320 kBit/s
Quality : High
Add ID3 tag : No
Command line compressor : C:Program Files (x86)Exact Audio CopyFlacflac.exe
Additional command line options : -V -8 -T "Date=%year%" -T "Genre=%genre%" %source%

TOC of the extracted CD

Track | Start | Length | Start sector | End sector
––––––––––––––––––––––––––––-
1 | 0:00.00 | 4:14.20 | 0 | 19069
2 | 4:14.20 | 4:38.15 | 19070 | 39934
3 | 8:52.35 | 4:11.47 | 39935 | 58806
4 | 13:04.07 | 4:17.68 | 58807 | 78149
5 | 17:22.00 | 4:26.62 | 78150 | 98161
6 | 21:48.62 | 4:49.60 | 98162 | 119896
7 | 26:38.47 | 4:19.40 | 119897 | 139361
8 | 30:58.12 | 4:02.18 | 139362 | 157529
9 | 35:00.30 | 4:58.10 | 157530 | 179889

Range status and errors

Selected range

Filename D:My MusicPlayer – 1980 Room With A ViewPlayer – Room With A View.wav

Peak level 90.9 %
Extraction speed 1.7 X
Range quality 100.0 %
Test CRC 7EDB61D2
Copy CRC 7EDB61D2
Copy OK

No errors occurred

AccurateRip summary

Track 1 not present in database
Track 2 not present in database
Track 3 not present in database
Track 4 not present in database
Track 5 not present in database
Track 6 not present in database
Track 7 not present in database
Track 8 not present in database
Track 9 not present in database

None of the tracks are present in the AccurateRip database

End of status report

==== Log checksum A73848F1B565E04D387452A2DC91D09D829CF8A978C9E6EDCA20ABF5AD23AB18 ====

DR Log
foobar2000 1.2.6 / Dynamic Range Meter 1.1.1
log date: 2016-12-29 21:45:16

––––––––––––––––––––––––––––––––––––––––
Analyzed: Player / Room With A View
––––––––––––––––––––––––––––––––––––––––

DR Peak RMS Duration Track
––––––––––––––––––––––––––––––––––––––––
DR9 -0.83 dB -12.43 dB 4:14 01-Room With A View
DR10 -0.96 dB -13.65 dB 4:38 02-It’s For You
DR10 -0.92 dB -12.72 dB 4:12 03-Upside Down
DR9 -0.88 dB -11.23 dB 4:18 04-Who Do You Think You Are
DR8 -0.92 dB -12.44 dB 4:27 05-Bad News Travels Fast
DR7 -1.43 dB -10.87 dB 4:50 06-All Tied Up
DR9 -0.94 dB -12.50 dB 4:20 07-Givin’ It All
DR9 -0.87 dB -11.89 dB 4:02 08-It May Never Happen
DR8 -0.85 dB -11.24 dB 4:58 09-Tip Of The Iceberg
––––––––––––––––––––––––––––––––––––––––

Number of tracks: 9
Official DR value: DR9

Samplerate: 44100 Hz
Channels: 2
Bits per sample: 16
Bitrate: 940 kbps
Codec: FLAC
================================================================================

CUETools Log
[CUETools log; Date: 29.12.2016 21:44:31; Version: 2.1.5]
[CTDB TOCID: m6NFzcaM3Y7gkHK3WqrqNJFToDU-] disk not present in database.
[AccurateRip ID: 000d97b3-0063d97d-59095e09] disk not present in database.

Track Peak [ CRC32 ] [W/O NULL] [ LOG ]
– 90,9 [7EDB61D2] [E0773EBE] CRC32
01 90,9 [3762D029] [42CB887B]
02 89,5 [75A48CBE] [4F3C3E49]
03 89,9 [336770DB] [CEEB234C]
04 90,3 [66E4AF7F] [F41821F4]
05 89,9 [5EEB27D3] [1C85415C]
06 84,8 [91FCAF47] [BA265BCE]
07 89,7 [D5CB5820] [28D6FCF4]
08 90,5 [525892D7] [880A741C]
09 90,6 [DC9887D4] [F4A45EB1]

Player - Room With A View (1980) {2002, Japanese Edition}

Player - Room With A View (1980) {2002, Japanese Edition}

All thanks go to kolushew

> Visit my blog <

Download:

Player – Room With A View (1980) {2002, Japanese Edition} Download, Warez, DDL, Free, Full Album, Torrent, Legal.

Download