Pino Donaggio – The Howling: Original Motion Picture Soundtrack (1981) CD Reissue 2005 [Re-Up]

Download
Pino Donaggio - The Howling: Original Motion Picture Soundtrack (1981) CD Reissue 2005 [Re-Up]

Pino Donaggio – The Howling: Original Motion Picture Soundtrack (1981) CD Reissue 2005
EAC | FLAC (Tracks) + cue.+log ~ 274 Mb | Mp3, CBR320 kbps ~ 105 Mb | Scans ~ 81 Mb
Soundtrack, Score | Label: La-La Land | # LLLCD 1037 | 00:45:58

Available for the first time on CD, Pino Donaggio’s immortal score to the THE HOWLING is finally here, digitally remastered from the original ¼ inch album mastertapes. Directed by Joe Dante (“Gremlins”, “Innerspace”) and co-written by John Sayles (“Lone Star”, “Passion Fish”) this film remains a touchstone of contemporary horror, mixing classic scares with a still-relevant satiric look at media-obsessed culture. Mr. Donaggio (“Dressed to Kill”, “Body Double”, “Carrie”) anchors all the film’s suspense, chills and eroticism with his legendary orchestral score. Features bonus tracks and exclusive liner notes from the composer!

Pino Donaggio’s score to the 1981 Joe Dante classic The Howling remains a model of horror movie music. Pulpy and melodramatic yet never silly, its skillful mosaic of gothic organ, supernatural strings, and sound effects is a chillingly potent evocation of dread. Donaggio’s melodies are tightrope-taut, ratcheting the suspense at every turn, and while his music is an integral element of Dante’s onscreen narrative, The Howling is one of a precious few horror soundtracks that succeeds independently of visual media, artfully combining human voices, lush synthesizer motifs, and Herrmann-inspired dissonance to create a symphony of fear. La-La Land’s 2005 edition represents the definitive release of this material, assembling commentary from Donaggio and Dante as well as dozens of color photos from the film. It’s a shame all reissues aren’t handled with such care.

Jason Ankeny, All Music Guide

~ Pino Donaggio at Allmusic
~ Pino Donaggio at Wiki

~ Film at Wiki
~ Film at IMDB

Tracklist:

01. Opening Title – Phone Call – Dark Streets (02:18)
02. Sleaze – Karen’s Nightmare (02:27)
03. Eddie’s Room (00:56)
04. Doctor’s Orders (00:51)
05. The Howling (00:19)
06. Spectre – Escape from the Morgue (01:03)
07. Something Nasty in the Woods (01:30)
08. Hunting for Shadows (01:03)
09. Wolf Bites Man! (01:31)
10. Terry and Karen – Delirium (01:16)
11. Animal Magnetism (03:45)
12. Wolf at the Door (02:34)
13. Run for Your Life! (00:41)
14. The Big Bad Wolf (01:20)
15. Wolfing Down Terry (00:55)
16. Eddie Lives Again (01:02)
17. Transformation (03:20)
18. Welcome to ‘The Colony’ (02:44)
19. Fur from the Madding Crowd (03:46)
20. Shapeshifters (01:31)
21. To Make You Believe (00:28)

Bonus Tracks:
22. End Title (04:26)
23. Flashback to Eddie (00:22)
24. ‘I’m Going to Light Your Whole Body Up!’ (00:30)
25. Karen Screams – Eddie Shot (00:28)
26. Remembering Eddie (00:17)
27. The Cabin (00:46)
28. Karen Transforms (00:19)
29. Channel 6 Update News Theme (00:39)

Electronic Stingers:
30. Synth #1 (00:19)
31. Synth #2 (00:20)
32. Synth #3 (00:32)
33. Synth #4 (00:38)
34. Synth #5 (00:42)

EAC log CD
Exact Audio Copy V0.99 prebeta 4 from 23. January 2008

EAC extraction logfile from 15. February 2011, 8:47

Pino Donaggio / The Howling

Used drive : Optiarc DVD RW AD-7241S Adapter: 1 ID: 1

Read mode : Secure
Utilize accurate stream : Yes
Defeat audio cache : Yes
Make use of C2 pointers : No

Read offset correction : 48
Overread into Lead-In and Lead-Out : No
Fill up missing offset samples with silence : Yes
Delete leading and trailing silent blocks : No
Null samples used in CRC calculations : Yes
Used interface : Installed external ASPI interface
Gap handling : Appended to previous track

Used output format : User Defined Encoder
Selected bitrate : 1024 kBit/s
Quality : High
Add ID3 tag : No
Command line compressor : C:Program FilesExact Audio CopyFlacflac.exe
Additional command line options : -8 -V -T "ARTIST=%a" -T "TITLE=%t" -T "ALBUM=%g" -T "DATE=%y" -T "TRACKNUMBER=%n" -T "GENRE=%m" -T "COMMENT=EAC FLAC -8" %s

TOC of the extracted CD

Track | Start | Length | Start sector | End sector
––––––––––––––––––––––––––––-
1 | 0:00.00 | 2:18.03 | 0 | 10352
2 | 2:18.03 | 2:27.45 | 10353 | 21422
3 | 4:45.48 | 0:56.02 | 21423 | 25624
4 | 5:41.50 | 0:51.55 | 25625 | 29504
5 | 6:33.30 | 0:19.55 | 29505 | 30984
6 | 6:53.10 | 1:03.50 | 30985 | 35759
7 | 7:56.60 | 1:30.47 | 35760 | 42556
8 | 9:27.32 | 1:03.68 | 42557 | 47349
9 | 10:31.25 | 1:31.58 | 47350 | 54232
10 | 12:03.08 | 1:16.28 | 54233 | 59960
11 | 13:19.36 | 3:45.16 | 59961 | 76851
12 | 17:04.52 | 2:34.56 | 76852 | 88457
13 | 19:39.33 | 0:41.11 | 88458 | 91543
14 | 20:20.44 | 1:20.44 | 91544 | 97587
15 | 21:41.13 | 0:55.38 | 97588 | 101750
16 | 22:36.51 | 1:02.43 | 101751 | 106443
17 | 23:39.19 | 3:20.40 | 106444 | 121483
18 | 26:59.59 | 2:44.24 | 121484 | 133807
19 | 29:44.08 | 3:46.38 | 133808 | 150795
20 | 33:30.46 | 1:31.60 | 150796 | 157680
21 | 35:02.31 | 0:28.20 | 157681 | 159800
22 | 35:30.51 | 4:26.70 | 159801 | 179820
23 | 39:57.46 | 0:22.34 | 179821 | 181504
24 | 40:20.05 | 0:30.40 | 181505 | 183794
25 | 40:50.45 | 0:28.73 | 183795 | 185967
26 | 41:19.43 | 0:17.72 | 185968 | 187314
27 | 41:37.40 | 0:46.70 | 187315 | 190834
28 | 42:24.35 | 0:19.72 | 190835 | 192331
29 | 42:44.32 | 0:39.08 | 192332 | 195264
30 | 43:23.40 | 0:19.03 | 195265 | 196692
31 | 43:42.43 | 0:20.63 | 196693 | 198255
32 | 44:03.31 | 0:32.39 | 198256 | 200694
33 | 44:35.70 | 0:38.46 | 200695 | 203590
34 | 45:14.41 | 0:42.29 | 203591 | 206769

Track 1

Filename F:torrentThe Howling_Pino Donaggioscore1. Pino Donaggio – Opening Title – Phone Call – Dark Streets.wav

Pre-gap length 0:00:02.00

Peak level 98.9 %
Track quality 100.0 %
Test CRC E3F2CEB9
Copy CRC E3F2CEB9
Accurately ripped (confidence 4) [8C57FC02]
Copy OK

Track 2

Filename F:torrentThe Howling_Pino Donaggioscore2. Pino Donaggio – Sleaze – Karen’s Nightmare.wav

Pre-gap length 0:00:02.00

Peak level 91.6 %
Track quality 100.0 %
Test CRC 10DB37BF
Copy CRC 10DB37BF
Accurately ripped (confidence 4) [53B10246]
Copy OK

Track 3

Filename F:torrentThe Howling_Pino Donaggioscore3. Pino Donaggio – Eddie’s Room.wav

Pre-gap length 0:00:01.98

Peak level 89.6 %
Track quality 100.0 %
Test CRC 95DE7667
Copy CRC 95DE7667
Accurately ripped (confidence 4) [54DEBF84]
Copy OK

Track 4

Filename F:torrentThe Howling_Pino Donaggioscore4. Pino Donaggio – Doctor’s Orders.wav

Pre-gap length 0:00:02.00

Peak level 99.3 %
Track quality 100.0 %
Test CRC 03A806DF
Copy CRC 03A806DF
Accurately ripped (confidence 4) [ECFB29D9]
Copy OK

Track 5

Filename F:torrentThe Howling_Pino Donaggioscore5. Pino Donaggio – The Howling.wav

Pre-gap length 0:00:02.00

Peak level 88.2 %
Track quality 100.0 %
Test CRC BD15F81F
Copy CRC BD15F81F
Accurately ripped (confidence 4) [6697F8AD]
Copy OK

Track 6

Filename F:torrentThe Howling_Pino Donaggioscore6. Pino Donaggio – Spectre – Escape from the Morgue.wav

Pre-gap length 0:00:02.00

Peak level 93.3 %
Track quality 100.0 %
Test CRC 3B5E914E
Copy CRC 3B5E914E
Accurately ripped (confidence 4) [73EE5841]
Copy OK

Track 7

Filename F:torrentThe Howling_Pino Donaggioscore7. Pino Donaggio – Something Nasty in the Woods.wav

Pre-gap length 0:00:02.00

Peak level 91.8 %
Track quality 100.0 %
Test CRC BCEFC8EE
Copy CRC BCEFC8EE
Accurately ripped (confidence 4) [A09D5ED9]
Copy OK

Track 8

Filename F:torrentThe Howling_Pino Donaggioscore8. Pino Donaggio – Hunting for Shadows.wav

Pre-gap length 0:00:02.00

Peak level 79.6 %
Track quality 100.0 %
Test CRC AAFD461A
Copy CRC AAFD461A
Accurately ripped (confidence 4) [C78AA954]
Copy OK

Track 9

Filename F:torrentThe Howling_Pino Donaggioscore9. Pino Donaggio – Wolf Bites Man!.wav

Pre-gap length 0:00:02.00

Peak level 90.3 %
Track quality 100.0 %
Test CRC F9AF9D15
Copy CRC F9AF9D15
Accurately ripped (confidence 4) [48F618DE]
Copy OK

Track 10

Filename F:torrentThe Howling_Pino Donaggioscore10. Pino Donaggio – Terry and Karen – Delirium.wav

Pre-gap length 0:00:02.00

Peak level 92.4 %
Track quality 99.8 %
Test CRC D4D46BF3
Copy CRC D4D46BF3
Accurately ripped (confidence 4) [AD420261]
Copy OK

Track 11

Filename F:torrentThe Howling_Pino Donaggioscore11. Pino Donaggio – Animal Magnetism.wav

Pre-gap length 0:00:02.00

Peak level 92.2 %
Track quality 100.0 %
Test CRC 102F1F97
Copy CRC 102F1F97
Accurately ripped (confidence 4) [6F84F941]
Copy OK

Track 12

Filename F:torrentThe Howling_Pino Donaggioscore12. Pino Donaggio – Wolf at the Door.wav

Pre-gap length 0:00:02.00

Peak level 92.0 %
Track quality 99.9 %
Test CRC 77B3C733
Copy CRC 77B3C733
Accurately ripped (confidence 4) [2CBE8144]
Copy OK

Track 13

Filename F:torrentThe Howling_Pino Donaggioscore13. Pino Donaggio – Run for Your Life!.wav

Pre-gap length 0:00:02.00

Peak level 90.3 %
Track quality 100.0 %
Test CRC 104363F8
Copy CRC 104363F8
Accurately ripped (confidence 4) [A5BD5407]
Copy OK

Track 14

Filename F:torrentThe Howling_Pino Donaggioscore14. Pino Donaggio – The Big Bad Wolf.wav

Pre-gap length 0:00:02.00

Peak level 98.5 %
Track quality 100.0 %
Test CRC E7412AF7
Copy CRC E7412AF7
Accurately ripped (confidence 4) [BDFFA9F6]
Copy OK

Track 15

Filename F:torrentThe Howling_Pino Donaggioscore15. Pino Donaggio – Wolfing Down Terry.wav

Pre-gap length 0:00:02.00

Peak level 90.4 %
Track quality 100.0 %
Test CRC 209825E6
Copy CRC 209825E6
Accurately ripped (confidence 4) [C7F57588]
Copy OK

Track 16

Filename F:torrentThe Howling_Pino Donaggioscore16. Pino Donaggio – Eddie Lives Again.wav

Pre-gap length 0:00:02.00

Peak level 95.0 %
Track quality 100.0 %
Test CRC 8A09F1D6
Copy CRC 8A09F1D6
Accurately ripped (confidence 4) [DB38FFD2]
Copy OK

Track 17

Filename F:torrentThe Howling_Pino Donaggioscore17. Pino Donaggio – Transformation.wav

Pre-gap length 0:00:02.00

Peak level 99.5 %
Track quality 100.0 %
Test CRC FD650555
Copy CRC FD650555
Accurately ripped (confidence 4) [E2C4D440]
Copy OK

Track 18

Filename F:torrentThe Howling_Pino Donaggioscore18. Pino Donaggio – Welcome to ‘The Colony’.wav

Pre-gap length 0:00:02.00

Peak level 79.2 %
Track quality 100.0 %
Test CRC B7F442B6
Copy CRC B7F442B6
Accurately ripped (confidence 4) [159F888F]
Copy OK

Track 19

Filename F:torrentThe Howling_Pino Donaggioscore19. Pino Donaggio – Fur from the Madding Crowd.wav

Pre-gap length 0:00:02.00

Peak level 86.7 %
Track quality 100.0 %
Test CRC 7C2B1F62
Copy CRC 7C2B1F62
Accurately ripped (confidence 4) [56D81E85]
Copy OK

Track 20

Filename F:torrentThe Howling_Pino Donaggioscore20. Pino Donaggio – Shapeshifters.wav

Pre-gap length 0:00:02.00

Peak level 96.8 %
Track quality 100.0 %
Test CRC DAF3EBAC
Copy CRC DAF3EBAC
Accurately ripped (confidence 4) [79D2E5B9]
Copy OK

Track 21

Filename F:torrentThe Howling_Pino Donaggioscore21. Pino Donaggio – To Make You Believe.wav

Pre-gap length 0:00:02.00

Peak level 98.7 %
Track quality 100.0 %
Test CRC B1148C0A
Copy CRC B1148C0A
Accurately ripped (confidence 4) [80044CE0]
Copy OK

Track 22

Filename F:torrentThe Howling_Pino Donaggioscore22. Pino Donaggio – End Title.wav

Pre-gap length 0:00:02.00

Peak level 100.0 %
Track quality 100.0 %
Test CRC 0D401CEE
Copy CRC 0D401CEE
Accurately ripped (confidence 4) [DC933C4A]
Copy OK

Track 23

Filename F:torrentThe Howling_Pino Donaggioscore23. Pino Donaggio – Flashback to Eddie.wav

Pre-gap length 0:00:04.00

Peak level 93.9 %
Track quality 100.0 %
Test CRC 24BA4B61
Copy CRC 24BA4B61
Accurately ripped (confidence 4) [4EB1A097]
Copy OK

Track 24

Filename F:torrentThe Howling_Pino Donaggioscore24. Pino Donaggio – ‘I’m Going to Light Your Whole Body Up!’.wav

Pre-gap length 0:00:02.00

Peak level 57.8 %
Track quality 99.6 %
Test CRC D8675B63
Copy CRC D8675B63
Accurately ripped (confidence 4) [4CA961E4]
Copy OK

Track 25

Filename F:torrentThe Howling_Pino Donaggioscore25. Pino Donaggio – Karen Screams – Eddie Shot.wav

Pre-gap length 0:00:02.00

Peak level 98.8 %
Track quality 100.0 %
Test CRC D6E3DE9D
Copy CRC D6E3DE9D
Accurately ripped (confidence 4) [ED7203DA]
Copy OK

Track 26

Filename F:torrentThe Howling_Pino Donaggioscore26. Pino Donaggio – Remembering Eddie.wav

Pre-gap length 0:00:02.00

Peak level 51.5 %
Track quality 100.0 %
Test CRC 5C20517F
Copy CRC 5C20517F
Accurately ripped (confidence 4) [F903E388]
Copy OK

Track 27

Filename F:torrentThe Howling_Pino Donaggioscore27. Pino Donaggio – The Cabin.wav

Pre-gap length 0:00:02.00

Peak level 47.6 %
Track quality 100.0 %
Test CRC 4D90D5BC
Copy CRC 4D90D5BC
Accurately ripped (confidence 4) [11B536E1]
Copy OK

Track 28

Filename F:torrentThe Howling_Pino Donaggioscore28. Pino Donaggio – Karen Transforms.wav

Pre-gap length 0:00:02.00

Peak level 77.7 %
Track quality 100.0 %
Test CRC 3E340909
Copy CRC 3E340909
Accurately ripped (confidence 4) [6A8919B7]
Copy OK

Track 29

Filename F:torrentThe Howling_Pino Donaggioscore29. Pino Donaggio – Channel 6 Update News Theme.wav

Pre-gap length 0:00:02.00

Peak level 98.0 %
Track quality 100.0 %
Test CRC 4F85E717
Copy CRC 4F85E717
Accurately ripped (confidence 4) [5A55903D]
Copy OK

Track 30

Filename F:torrentThe Howling_Pino Donaggioscore30. Pino Donaggio – Synth #1.wav

Pre-gap length 0:00:02.00

Peak level 62.3 %
Track quality 100.0 %
Test CRC 78B6B561
Copy CRC 78B6B561
Accurately ripped (confidence 4) [A4E868B2]
Copy OK

Track 31

Filename F:torrentThe Howling_Pino Donaggioscore31. Pino Donaggio – Synth #2.wav

Pre-gap length 0:00:02.00

Peak level 79.0 %
Track quality 100.0 %
Test CRC 994330E1
Copy CRC 994330E1
Accurately ripped (confidence 4) [2687FD3A]
Copy OK

Track 32

Filename F:torrentThe Howling_Pino Donaggioscore32. Pino Donaggio – Synth #3.wav

Pre-gap length 0:00:02.00

Peak level 92.9 %
Track quality 99.6 %
Test CRC 20BC3BD1
Copy CRC 20BC3BD1
Accurately ripped (confidence 4) [D8BF49B2]
Copy OK

Track 33

Filename F:torrentThe Howling_Pino Donaggioscore33. Pino Donaggio – Synth #4.wav

Pre-gap length 0:00:02.00

Peak level 83.8 %
Track quality 100.0 %
Test CRC 29063A39
Copy CRC 29063A39
Accurately ripped (confidence 4) [7EDAC9E1]
Copy OK

Track 34

Filename F:torrentThe Howling_Pino Donaggioscore34. Pino Donaggio – Synth #5.wav

Pre-gap length 0:00:02.00

Peak level 76.9 %
Track quality 100.0 %
Test CRC 5F76D656
Copy CRC 5F76D656
Accurately ripped (confidence 4) [8C2D9B99]
Copy OK

All tracks accurately ripped

No errors occurred

End of status report

DR log
foobar2000 1.1.16 / Dynamic Range Meter 1.1.1
log date: 2012-12-26 00:56:53

––––––––––––––––––––––––––––––––––––––––
Analyzed: Pino Donaggio / The Howling
––––––––––––––––––––––––––––––––––––––––

DR Peak RMS Duration Track
––––––––––––––––––––––––––––––––––––––––
DR7 -0.09 dB -12.81 dB 2:18 01-Opening Title – Phone Call – Dark Streets
DR7 -0.76 dB -12.50 dB 2:28 02-Sleaze – Karen’s Nightmare
DR7 -0.95 dB -12.53 dB 0:56 03-Eddie’s Room
DR10 -0.06 dB -12.91 dB 0:52 04-Doctor’s Orders
DR7 -1.08 dB -12.19 dB 0:20 05-The Howling
DR8 -0.60 dB -12.82 dB 1:04 06-Spectre – Escape from the Morgue
DR10 -0.74 dB -16.02 dB 1:31 07-Something Nasty in the Woods
DR8 -1.97 dB -12.12 dB 1:04 08-Hunting for Shadows
DR7 -0.88 dB -12.11 dB 1:32 09-Wolf Bites Man!
DR8 -0.68 dB -13.13 dB 1:16 10-Terry and Karen – Delirium
DR8 -0.70 dB -13.13 dB 3:45 11-Animal Magnetism
DR7 -0.72 dB -10.57 dB 2:35 12-Wolf at the Door
DR6 -0.88 dB -8.94 dB 0:41 13-Run for Your Life!
DR7 -0.13 dB -12.52 dB 1:21 14-The Big Bad Wolf
DR5 -0.87 dB -8.47 dB 0:56 15-Wolfing Down Terry
DR8 -0.44 dB -14.65 dB 1:03 16-Eddie Lives Again
DR6 -0.04 dB -9.11 dB 3:21 17-Transformation
DR11 -2.03 dB -17.51 dB 2:44 18-Welcome to ‘The Colony’
DR8 -1.23 dB -13.64 dB 3:47 19-Fur from the Madding Crowd
DR6 -0.28 dB -9.61 dB 1:32 20-Shapeshifters
DR6 -0.11 dB -9.87 dB 0:28 21-To Make You Believe
DR7 0.00 dB -10.60 dB 4:27 22-End Title
DR9 -0.54 dB -16.11 dB 0:22 23-Flashback to Eddie
DR9 -4.75 dB -19.95 dB 0:31 24-‘I’m Going to Light Your Whole Body Up!’
DR9 -0.10 dB -19.39 dB 0:29 25-Karen Screams – Eddie Shot
DR9 -5.76 dB -18.79 dB 0:18 26-Remembering Eddie
DR12 -6.45 dB -23.26 dB 0:47 27-The Cabin
DR9 -2.19 dB -14.34 dB 0:20 28-Karen Transforms
DR11 -0.17 dB -16.00 dB 0:39 29-Channel 6 Update News Theme
DR13 -4.11 dB -22.27 dB 0:19 30-Synth #1
DR9 -2.04 dB -17.38 dB 0:21 31-Synth #2
DR13 -0.63 dB -14.93 dB 0:33 32-Synth #3
DR8 -1.53 dB -12.86 dB 0:39 33-Synth #4
DR12 -2.28 dB -19.81 dB 0:42 34-Synth #5
––––––––––––––––––––––––––––––––––––––––

Number of tracks: 34
Official DR value: DR8

Samplerate: 44100 Hz
Channels: 2
Bits per sample: 16
Bitrate: 553 kbps
Codec: FLAC
================================================================================

Pino Donaggio - The Howling: Original Motion Picture Soundtrack (1981) CD Reissue 2005 [Re-Up]

Pino Donaggio - The Howling: Original Motion Picture Soundtrack (1981) CD Reissue 2005 [Re-Up]

All thanks to original uploader – Sarant

More Movies & Soundtracks in Efgrapha Blog

Pino Donaggio – The Howling: Original Motion Picture Soundtrack (1981) CD Reissue 2005 [Re-Up] Download, Warez, DDL, Free, Full Album, Torrent, Legal.

Download