Pino Donaggio – Symphonic Suites (1989) Conducted by Natale Massara [Re-Up]

Download
Pino Donaggio - Symphonic Suites (1989) Conducted by Natale Massara [Re-Up]

Pino Donaggio – Symphonic Suites (1989) Conducted by Natale Massara
EAC | FLAC (Tracks) + cue.+log ~ 347 Mb | Mp3, CBR320 kbps ~ 177 Mb | Scans included
Soundtracks, Symphonic | Label: Varese Sarabande CD Club | # VCL 8903.3 | 01:05:32

Composer Pino Donaggio teamed with filmmaker Brian DePalma to forge one of the most memorable collaborations in cinema history, writing a series of suspenseful, hauntingly atmospheric scores evoking Bernard Herrmann’s landmark work for Alfred Hitchcock. Born Giuseppe Donaggio in Venice, Italy, on October 24, 1941, he was the product of a family of musicians, and began studying violin at the age of ten. In the midst of classical training at Milan’s Giuseppe Verdi Conservatory, he made his professional debut at 14, interpreting the music of Vivaldi for Italian radio. After stints with the Solisti Veneti and Solisti di Milano, Donaggio discovered rock & roll in 1959, immediately renouncing classical music in favor of pop. After launching his career as a singer/songwriter he opened for Paul Anka on the U.S. teen idol’s 1960 Italian tour, and rose to even greater success after a star-making appearance at the annual San Remo Festival. Donaggio’s 1963 smash "Io Che Non Vivo" sold in excess of 60 million copies worldwide. Translated into English as "You Don’t Have to Say You Love Me," the song also proved a blockbuster for British soul diva Dusty Springfield, and later merited an Elvis Presley cover as well. Donaggio first entered the world of cinema with Nicolas Roeg’s cult-classic 1973 thriller Don’t Look Now, a score that won wide acclaim for its uncommon grasp of atmosphere and suspense. When DePalma began work on his landmark adaptation of the Stephen King novel Carrie, he initially selected Herrmann, the longtime collaborator of DePalma’s idol, Hitchcock. But when the composer died in December 1975, DePalma selected Donaggio, initiating a partnership that would extend through projects including 1980’s Dressed to Kill (arguably the composer’s most memorable and perfectly wrought score), 1981’s Blow Out, 1984’s Body Double, and 1992’s Raising Cain. Donaggio nevertheless remains little known outside of film score cognoscenti, living and working in Venice instead of Hollywood and channeling most of his efforts into the Italian film industry, where he scored features for filmmakers including Roberto Benigni, Liliana Cavani, and Massimo Troisi.

Jason Ankeny, Allmusic.com

Pino Donaggio - Symphonic Suites (1989) Conducted by Natale Massara [Re-Up]

Pino Donaggio at Wiki

Tracklist:

THE HOWLING:
01. Animal Magnetism (03:43)
02. Karen’s Nightmare (01:40)
03. Wolf At The Door (02:35)
04. Eddie Lives Again (00:58)
05. Wolf Bites Man! (01:25)
06. Run For Your Life! (00:40)
07. Fur From The Madding Crowd (03:09)
08. Terry & Karen/Delerium (01:22)

TOURIST TRAP:
09. Love Theme/Shrine (01:30)
10. Eileen’s Death (01:06)
11. Dance/Going Home (01:47)
12. Davey’s Waltz (01:55)
13. The Chase (02:13)
14. Heartburst (02:13)
15. Love Theme/Confession (03:34)
16. Mannequins On Guard (01:42)
17. In The Water (01:36)
18. Dreamwake (00:34)
19. The Mannequins Come Forth (00:58)
20. End Title (03:01)

PIRANHA:
21. Empty Tubes (02:19)
22. Restricted Area (01:09)
23. Aquarena (00:49)
24. Homonculus (01:17)
25. Premonition/Beyond The Darkness (05:25)

HOME MOVIES:
26. Fanfare/Main Title Theme (02:37)
27. Sniffing, Or Betrayed By A Burger (01:10)
28. Kaleidescope (04:35)
29. True Love [Dennis Meets Kristina] (01:43)
30. The Oldest Living Movie Directress (01:24)
31. Bunny Speaks! (00:51)
32. Memories Of Kristina (01:16)
33. Caught In The Act (03:00)

EAC log
Exact Audio Copy V1.0 beta 3 from 29. August 2011

EAC extraction logfile from 8. September 2012, 14:01

Pino Donaggio / Pino Donaggio: Symphonic Suites

Used drive : PLEXTOR DVDR PX-L890SA Adapter: 1 ID: 0

Read mode : Secure
Utilize accurate stream : Yes
Defeat audio cache : Yes
Make use of C2 pointers : No

Read offset correction : 6
Overread into Lead-In and Lead-Out : No
Fill up missing offset samples with silence : Yes
Delete leading and trailing silent blocks : No
Null samples used in CRC calculations : Yes
Used interface : Installed external ASPI interface
Gap handling : Appended to previous track

Used output format : User Defined Encoder
Selected bitrate : 1024 kBit/s
Quality : High
Add ID3 tag : No
Command line compressor : C:Program FilesExact Audio CopyFlacflac.exe
Additional command line options : -V -8 -T "Genre=%genre%" -T "Artist=%artist%" -T "Title=%title%" -T "Album=%albumtitle%" -T "Date=%year%" -T "Tracknumber=%tracknr%" -T "Comment=%comment%" %source%

TOC of the extracted CD

Track | Start | Length | Start sector | End sector
––––––––––––––––––––––––––––-
1 | 0:00.00 | 3:43.33 | 0 | 16757
2 | 3:43.33 | 1:40.42 | 16758 | 24299
3 | 5:24.00 | 2:35.50 | 24300 | 35974
4 | 7:59.50 | 0:58.03 | 35975 | 40327
5 | 8:57.53 | 1:25.30 | 40328 | 46732
6 | 10:23.08 | 0:40.65 | 46733 | 49797
7 | 11:03.73 | 3:09.55 | 49798 | 64027
8 | 14:13.53 | 1:22.42 | 64028 | 70219
9 | 15:36.20 | 1:30.43 | 70220 | 77012
10 | 17:06.63 | 1:06.65 | 77013 | 82027
11 | 18:13.53 | 1:47.05 | 82028 | 90057
12 | 20:00.58 | 1:55.35 | 90058 | 98717
13 | 21:56.18 | 2:13.10 | 98718 | 108702
14 | 24:09.28 | 2:13.07 | 108703 | 118684
15 | 26:22.35 | 3:34.03 | 118685 | 134737
16 | 29:56.38 | 1:42.12 | 134738 | 142399
17 | 31:38.50 | 1:36.70 | 142400 | 149669
18 | 33:15.45 | 0:34.50 | 149670 | 152269
19 | 33:50.20 | 0:58.73 | 152270 | 156692
20 | 34:49.18 | 3:01.45 | 156693 | 170312
21 | 37:50.63 | 2:19.42 | 170313 | 180779
22 | 40:10.30 | 1:09.48 | 180780 | 186002
23 | 41:20.03 | 0:49.45 | 186003 | 189722
24 | 42:09.48 | 1:17.32 | 189723 | 195529
25 | 43:27.05 | 5:25.60 | 195530 | 219964
26 | 48:52.65 | 2:37.38 | 219965 | 231777
27 | 51:30.28 | 1:10.00 | 231778 | 237027
28 | 52:40.28 | 4:35.42 | 237028 | 257694
29 | 57:15.70 | 1:43.23 | 257695 | 265442
30 | 58:59.18 | 1:24.45 | 265443 | 271787
31 | 60:23.63 | 0:51.57 | 271788 | 275669
32 | 61:15.45 | 1:16.15 | 275670 | 281384
33 | 62:31.60 | 3:00.30 | 281385 | 294914

Track 1

Filename F:torrentPino Donaggio_Symphonic Suitesscore1 THE HOWLING-Animal Magnetism.wav

Pre-gap length 0:00:02.00

Peak level 72.2 %
Extraction speed 4.1 X
Track quality 99.9 %
Test CRC 97566DCE
Copy CRC 97566DCE
Track not present in AccurateRip database
Copy OK

Track 2

Filename F:torrentPino Donaggio_Symphonic Suitesscore2 Karen’s Nightmare.wav

Peak level 68.0 %
Extraction speed 3.2 X
Track quality 99.8 %
Test CRC 0C8F59DC
Copy CRC 0C8F59DC
Track not present in AccurateRip database
Copy OK

Track 3

Filename F:torrentPino Donaggio_Symphonic Suitesscore3 Wolf At The Door.wav

Peak level 81.2 %
Extraction speed 4.0 X
Track quality 99.9 %
Test CRC E5AC8848
Copy CRC E5AC8848
Track not present in AccurateRip database
Copy OK

Track 4

Filename F:torrentPino Donaggio_Symphonic Suitesscore4 Eddie Lives Again.wav

Peak level 64.3 %
Extraction speed 3.7 X
Track quality 100.0 %
Test CRC 56FCDECA
Copy CRC 56FCDECA
Track not present in AccurateRip database
Copy OK

Track 5

Filename F:torrentPino Donaggio_Symphonic Suitesscore5 Wolf Bites Man!.wav

Peak level 79.0 %
Extraction speed 4.4 X
Track quality 100.0 %
Test CRC 8EEC53C3
Copy CRC 8EEC53C3
Track not present in AccurateRip database
Copy OK

Track 6

Filename F:torrentPino Donaggio_Symphonic Suitesscore6 Run For Your Life!.wav

Pre-gap length 0:00:00.01

Peak level 78.7 %
Extraction speed 3.3 X
Track quality 100.0 %
Test CRC 146DF5DA
Copy CRC 146DF5DA
Track not present in AccurateRip database
Copy OK

Track 7

Filename F:torrentPino Donaggio_Symphonic Suitesscore7 Fur From The Madding Crowd.wav

Peak level 71.3 %
Extraction speed 5.3 X
Track quality 100.0 %
Test CRC 0513C0C3
Copy CRC 0513C0C3
Track not present in AccurateRip database
Copy OK

Track 8

Filename F:torrentPino Donaggio_Symphonic Suitesscore8 Terry & Karen,Delerium.wav

Peak level 57.2 %
Extraction speed 4.3 X
Track quality 100.0 %
Test CRC 51542159
Copy CRC 51542159
Track not present in AccurateRip database
Copy OK

Track 9

Filename F:torrentPino Donaggio_Symphonic Suitesscore9 TOURIST TRAP-Love Theme,Shrine.wav

Peak level 23.0 %
Extraction speed 4.8 X
Track quality 100.0 %
Test CRC 52A608CB
Copy CRC 52A608CB
Track not present in AccurateRip database
Copy OK

Track 10

Filename F:torrentPino Donaggio_Symphonic Suitesscore10 Eileen’s Death.wav

Peak level 78.4 %
Extraction speed 4.5 X
Track quality 100.0 %
Test CRC 35202CB8
Copy CRC 35202CB8
Track not present in AccurateRip database
Copy OK

Track 11

Filename F:torrentPino Donaggio_Symphonic Suitesscore11 Dance,Going Home.wav

Peak level 96.2 %
Extraction speed 4.6 X
Track quality 100.0 %
Test CRC A123C5C2
Copy CRC A123C5C2
Track not present in AccurateRip database
Copy OK

Track 12

Filename F:torrentPino Donaggio_Symphonic Suitesscore12 Davey’s Waltz.wav

Peak level 40.0 %
Extraction speed 5.4 X
Track quality 100.0 %
Test CRC 69BDE110
Copy CRC 69BDE110
Track not present in AccurateRip database
Copy OK

Track 13

Filename F:torrentPino Donaggio_Symphonic Suitesscore13 The Chase.wav

Peak level 64.5 %
Extraction speed 4.8 X
Track quality 99.9 %
Test CRC 9ECE86F7
Copy CRC 9ECE86F7
Track not present in AccurateRip database
Copy OK

Track 14

Filename F:torrentPino Donaggio_Symphonic Suitesscore14 Heartburst.wav

Peak level 96.7 %
Extraction speed 6.1 X
Track quality 100.0 %
Test CRC A64256D3
Copy CRC A64256D3
Track not present in AccurateRip database
Copy OK

Track 15

Filename F:torrentPino Donaggio_Symphonic Suitesscore15 Love Theme,Confession.wav

Peak level 89.2 %
Extraction speed 6.8 X
Track quality 100.0 %
Test CRC 1F1FE688
Copy CRC 1F1FE688
Track not present in AccurateRip database
Copy OK

Track 16

Filename F:torrentPino Donaggio_Symphonic Suitesscore16 Mannequins On Guard.wav

Peak level 92.6 %
Extraction speed 6.0 X
Track quality 100.0 %
Test CRC 6A9204B5
Copy CRC 6A9204B5
Track not present in AccurateRip database
Copy OK

Track 17

Filename F:torrentPino Donaggio_Symphonic Suitesscore17 In The Water.wav

Peak level 95.0 %
Extraction speed 4.4 X
Track quality 99.8 %
Test CRC ADD4A29F
Copy CRC ADD4A29F
Track not present in AccurateRip database
Copy OK

Track 18

Filename F:torrentPino Donaggio_Symphonic Suitesscore18 Dreamwake.wav

Peak level 36.9 %
Extraction speed 3.9 X
Track quality 100.0 %
Test CRC 70734777
Copy CRC 70734777
Track not present in AccurateRip database
Copy OK

Track 19

Filename F:torrentPino Donaggio_Symphonic Suitesscore19 The Mannequins Come Forth.wav

Peak level 91.9 %
Extraction speed 5.0 X
Track quality 100.0 %
Test CRC F8D5179C
Copy CRC F8D5179C
Track not present in AccurateRip database
Copy OK

Track 20

Filename F:torrentPino Donaggio_Symphonic Suitesscore20 End Title.wav

Peak level 59.7 %
Extraction speed 6.1 X
Track quality 99.9 %
Test CRC DAE30E1B
Copy CRC DAE30E1B
Track not present in AccurateRip database
Copy OK

Track 21

Filename F:torrentPino Donaggio_Symphonic Suitesscore21 PIRANHA-Empty Tubes.wav

Peak level 66.2 %
Extraction speed 7.0 X
Track quality 100.0 %
Test CRC F1155AE5
Copy CRC F1155AE5
Track not present in AccurateRip database
Copy OK

Track 22

Filename F:torrentPino Donaggio_Symphonic Suitesscore22 Restricted Area.wav

Peak level 77.0 %
Extraction speed 5.7 X
Track quality 100.0 %
Test CRC 352838B2
Copy CRC 352838B2
Track not present in AccurateRip database
Copy OK

Track 23

Filename F:torrentPino Donaggio_Symphonic Suitesscore23 Aquarena.wav

Peak level 83.3 %
Extraction speed 4.9 X
Track quality 100.0 %
Test CRC 3E81C07A
Copy CRC 3E81C07A
Track not present in AccurateRip database
Copy OK

Track 24

Filename F:torrentPino Donaggio_Symphonic Suitesscore24 Homonculus.wav

Peak level 48.9 %
Extraction speed 6.1 X
Track quality 100.0 %
Test CRC 24B32276
Copy CRC 24B32276
Track not present in AccurateRip database
Copy OK

Track 25

Filename F:torrentPino Donaggio_Symphonic Suitesscore25 Premonition,Beyond The Darkness.wav

Peak level 94.1 %
Extraction speed 8.1 X
Track quality 100.0 %
Test CRC 87AF47E6
Copy CRC 87AF47E6
Track not present in AccurateRip database
Copy OK

Track 26

Filename F:torrentPino Donaggio_Symphonic Suitesscore26 HOME MOVIES-Fanfare,Main Title Theme.wav

Peak level 81.7 %
Extraction speed 7.7 X
Track quality 100.0 %
Test CRC 51FE9E5F
Copy CRC 51FE9E5F
Track not present in AccurateRip database
Copy OK

Track 27

Filename F:torrentPino Donaggio_Symphonic Suitesscore27 Sniffing, Or Betrayed By A Burger.wav

Peak level 79.3 %
Extraction speed 6.2 X
Track quality 100.0 %
Test CRC 9F2E321E
Copy CRC 9F2E321E
Track not present in AccurateRip database
Copy OK

Track 28

Filename F:torrentPino Donaggio_Symphonic Suitesscore28 Kaleidescope.wav

Peak level 81.7 %
Extraction speed 7.6 X
Track quality 99.9 %
Test CRC 26445007
Copy CRC 26445007
Track not present in AccurateRip database
Copy OK

Track 29

Filename F:torrentPino Donaggio_Symphonic Suitesscore29 True Love [Dennis Meets Kristina].wav

Peak level 52.1 %
Extraction speed 7.1 X
Track quality 100.0 %
Test CRC A404B6AA
Copy CRC A404B6AA
Track not present in AccurateRip database
Copy OK

Track 30

Filename F:torrentPino Donaggio_Symphonic Suitesscore30 The Oldest Living Movie Directress.wav

Peak level 78.4 %
Extraction speed 7.0 X
Track quality 100.0 %
Test CRC FE173A44
Copy CRC FE173A44
Track not present in AccurateRip database
Copy OK

Track 31

Filename F:torrentPino Donaggio_Symphonic Suitesscore31 Bunny Speaks!.wav

Peak level 52.7 %
Extraction speed 4.1 X
Track quality 99.7 %
Test CRC 717862B3
Copy CRC 717862B3
Track not present in AccurateRip database
Copy OK

Track 32

Filename F:torrentPino Donaggio_Symphonic Suitesscore32 Memories Of Kristina.wav

Peak level 91.0 %
Extraction speed 6.8 X
Track quality 100.0 %
Test CRC 8E52C623
Copy CRC 8E52C623
Track not present in AccurateRip database
Copy OK

Track 33

Filename F:torrentPino Donaggio_Symphonic Suitesscore33 Caught In The Act.wav

Peak level 89.1 %
Extraction speed 8.5 X
Track quality 100.0 %
Test CRC 64D03CFE
Copy CRC 64D03CFE
Track not present in AccurateRip database
Copy OK

None of the tracks are present in the AccurateRip database

No errors occurred

End of status report

==== Log checksum C2B3B8288851F5D987845D148034A77531D34F4853B57370C919488428C754BB ====

DR log
foobar2000 1.2 / Dynamic Range Meter 1.1.1
log date: 2013-09-30 00:23:54

––––––––––––––––––––––––––––––––––––––––
Analyzed: Pino Donaggio / Pino Donaggio: Symphonic Suites
––––––––––––––––––––––––––––––––––––––––

DR Peak RMS Duration Track
––––––––––––––––––––––––––––––––––––––––
DR12 -2.83 dB -19.94 dB 3:43 01-THE HOWLING-Animal Magnetism
DR10 -3.35 dB -18.04 dB 1:41 02-Karen’s Nightmare
DR10 -1.80 dB -16.03 dB 2:36 03-Wolf At The Door
DR10 -3.82 dB -23.81 dB 0:58 04-Eddie Lives Again
DR11 -2.04 dB -18.01 dB 1:25 05-Wolf Bites Man!
DR10 -2.08 dB -14.09 dB 0:41 06-Run For Your Life!
DR11 -2.93 dB -17.70 dB 3:10 07-Fur From The Madding Crowd
DR11 -4.85 dB -20.27 dB 1:23 08-Terry & Karen/Delerium
DR11 -12.76 dB -29.12 dB 1:31 09-TOURIST TRAP-Love Theme/Shrine
DR12 -2.11 dB -18.96 dB 1:07 10-Eileen’s Death
DR11 -0.33 dB -15.56 dB 1:47 11-Dance/Going Home
DR11 -7.95 dB -23.67 dB 1:55 12-Davey’s Waltz
DR12 -3.80 dB -18.09 dB 2:13 13-The Chase
DR12 -0.29 dB -17.58 dB 2:13 14-Heartburst
DR13 -0.99 dB -20.32 dB 3:34 15-Love Theme/Confession
DR14 -0.67 dB -21.36 dB 1:42 16-Mannequins On Guard
DR12 -0.44 dB -18.23 dB 1:37 17-In The Water
DR11 -8.66 dB -23.68 dB 0:35 18-Dreamwake
DR11 -0.73 dB -16.73 dB 0:59 19-The Mannequins Come Forth
DR12 -4.48 dB -21.81 dB 3:02 20-End Title
DR13 -3.58 dB -21.27 dB 2:20 21-PIRANHA-Empty Tubes
DR9 -2.26 dB -17.36 dB 1:10 22-Restricted Area
DR11 -1.59 dB -15.66 dB 0:50 23-Aquarena
DR10 -6.21 dB -20.93 dB 1:17 24-Homonculus
DR12 -0.52 dB -19.14 dB 5:26 25-Premonition/Beyond The Darkness
DR13 -1.75 dB -19.13 dB 2:38 26-HOME MOVIES-Fanfare/Main Title Theme
DR11 -2.00 dB -21.64 dB 1:10 27-Sniffing, Or Betrayed By A Burger
DR12 -1.75 dB -17.34 dB 4:36 28-Kaleidescope
DR12 -5.66 dB -21.48 dB 1:43 29-True Love [Dennis Meets Kristina]
DR13 -2.11 dB -20.17 dB 1:25 30-The Oldest Living Movie Directress
DR12 -5.56 dB -20.47 dB 0:52 31-Bunny Speaks!
DR13 -0.81 dB -17.31 dB 1:16 32-Memories Of Kristina
DR12 -1.00 dB -15.78 dB 3:00 33-Caught In The Act
––––––––––––––––––––––––––––––––––––––––

Number of tracks: 33
Official DR value: DR12

Samplerate: 44100 Hz
Channels: 2
Bits per sample: 16
Bitrate: 783 kbps
Codec: FLAC
================================================================================

Pino Donaggio - Symphonic Suites (1989) Conducted by Natale Massara [Re-Up]

Pino Donaggio - Symphonic Suites (1989) Conducted by Natale Massara [Re-Up]

All thanks to original releaser – Sarant

More Movies & Soundtracks in Efgrapha Blog

Pino Donaggio – Dressed To Kill: Original Motion Picture Soundtrack (1980)

Pino Donaggio – The Howling: Original Motion Picture Soundtrack (1981)

Pino Donaggio – Symphonic Suites (1989) Conducted by Natale Massara [Re-Up] Download, Warez, DDL, Free, Full Album, Torrent, Legal.

Download